<?xml version="1.0" standalone="no"?>
<!DOCTYPE svg PUBLIC "-//W3C//DTD SVG 1.1//EN" "http://www.w3.org/Graphics/SVG/1.1/DTD/svg11.dtd" >
<svg xmlns="http://www.w3.org/2000/svg" xmlns:xlink="http://www.w3.org/1999/xlink" version="1.1">
<metadata>
Created by FontForge 20190801 at Tue Apr 21 18:02:58 2015
 By Jimmy Wärting
Copyright C 2010, 2014 Hoefler &#38; Co. http:www.typography.com
</metadata>
<defs>
<font id="GothamSSm-Medium" horiz-adv-x="528" >
  <font-face 
    font-family="Gotham SSm"
    font-weight="350"
    font-stretch="normal"
    units-per-em="1000"
    panose-1="0 0 0 0 0 0 0 0 0 0"
    ascent="800"
    descent="-200"
    x-height="548"
    cap-height="728"
    bbox="-227 -282 1229 1046"
    underline-thickness="50"
    underline-position="-100"
    stemh="109"
    stemv="125"
    unicode-range="U+0020-FB04"
  />
<missing-glyph horiz-adv-x="500" 
d="M0 -200v1000h500v-1000h-500zM71 750l179 -390l179 390h-358zM450 676l-172 -376l172 -376v752zM50 -76l172 376l-172 376v-752zM250 240l-179 -390h358z" />
    <glyph glyph-name="f_f" unicode="ff" horiz-adv-x="788" 
d="M502 0v444h-69v101h69v41c0 61 16 107 46 136c28 28 69 43 122 43c44 0 73 -5 101 -14v-102c-26 8 -48 13 -75 13c-49 0 -74 -27 -74 -86v-32h147v-100h-146v-444h-121zM112 0v444h-69v101h69v41c0 61 16 107 46 136c28 28 69 43 122 43c44 0 73 -5 101 -14v-102
c-26 8 -48 13 -75 13c-49 0 -74 -27 -74 -86v-32h147v-100h-146v-444h-121z" />
    <glyph glyph-name="fi" unicode="fi" horiz-adv-x="693" 
d="M476 636v116h131v-116h-131zM112 0v444h-69v101h69v41c0 61 16 107 46 136c28 28 69 43 122 43c44 0 73 -5 101 -14v-102c-26 8 -48 13 -75 13c-49 0 -74 -27 -74 -86v-32h147v-100h-146v-444h-121zM481 0v548h121v-548h-121z" />
    <glyph glyph-name="fl" unicode="fl" horiz-adv-x="693" 
d="M481 0v759h121v-759h-121zM112 0v444h-69v101h69v41c0 61 16 107 46 136c28 28 69 43 122 43c44 0 73 -5 101 -14v-102c-26 8 -48 13 -75 13c-49 0 -74 -27 -74 -86v-32h147v-100h-146v-444h-121z" />
    <glyph glyph-name="f_f_i" unicode="ffi" horiz-adv-x="1083" 
d="M866 636v116h131v-116h-131zM502 0v444h-69v101h69v41c0 61 16 107 46 136c28 28 69 43 122 43c44 0 73 -5 101 -14v-102c-26 8 -48 13 -75 13c-49 0 -74 -27 -74 -86v-32h147v-100h-146v-444h-121zM112 0v444h-69v101h69v41c0 61 16 107 46 136c28 28 69 43 122 43
c44 0 73 -5 101 -14v-102c-26 8 -48 13 -75 13c-49 0 -74 -27 -74 -86v-32h147v-100h-146v-444h-121zM871 0v548h121v-548h-121z" />
    <glyph glyph-name="f_f_l" unicode="ffl" horiz-adv-x="1083" 
d="M871 0v759h121v-759h-121zM502 0v444h-69v101h69v41c0 61 16 107 46 136c28 28 69 43 122 43c44 0 73 -5 101 -14v-102c-26 8 -48 13 -75 13c-49 0 -74 -27 -74 -86v-32h147v-100h-146v-444h-121zM112 0v444h-69v101h69v41c0 61 16 107 46 136c28 28 69 43 122 43
c44 0 73 -5 101 -14v-102c-26 8 -48 13 -75 13c-49 0 -74 -27 -74 -86v-32h147v-100h-146v-444h-121z" />
    <glyph glyph-name=".notdef" horiz-adv-x="500" 
d="M0 -200v1000h500v-1000h-500zM71 750l179 -390l179 390h-358zM450 676l-172 -376l172 -376v752zM50 -76l172 376l-172 376v-752zM250 240l-179 -390h358z" />
    <glyph glyph-name="A" unicode="A" horiz-adv-x="830" 
d="M283 287h260l-130 300zM36 0l322 733h114l321 -733h-129l-76 177h-350l-76 -177h-126z" />
    <glyph glyph-name="B" unicode="B" horiz-adv-x="759" 
d="M99 0v728h325c82 0 148 -23 189 -64c33 -33 49 -72 49 -121v-2c0 -88 -51 -135 -105 -163c85 -29 146 -78 146 -177v-2c0 -129 -107 -199 -269 -199h-335zM540 522v2c0 59 -48 95 -132 95h-189v-200h180c84 0 141 34 141 103zM580 214c0 63 -51 101 -154 101h-207v-206
h216c90 0 145 36 145 103v2z" />
    <glyph glyph-name="C" unicode="C" horiz-adv-x="777" 
d="M436 -12c-212 0 -370 165 -370 374v2c0 207 156 376 375 376c134 0 215 -46 285 -113l-80 -91c-58 55 -121 91 -206 91c-141 0 -245 -116 -245 -261v-2c0 -146 103 -263 245 -263c91 0 149 35 212 95l79 -80c-76 -78 -159 -128 -295 -128z" />
    <glyph glyph-name="D" unicode="D" horiz-adv-x="821" 
d="M99 0v728h269c229 0 387 -157 387 -362v-2c0 -205 -158 -364 -387 -364h-269zM368 617h-146v-506h146c156 0 258 106 258 251v2c0 144 -102 253 -258 253z" />
    <glyph glyph-name="E" unicode="E" horiz-adv-x="705" 
d="M99 0v728h538v-110h-416v-196h369v-110h-369v-202h421v-110h-543z" />
    <glyph glyph-name="F" unicode="F" horiz-adv-x="690" 
d="M99 0v728h539v-112h-416v-205h370v-112h-370v-299h-123z" />
    <glyph glyph-name="G" unicode="G" horiz-adv-x="823" 
d="M443 -12c-228 0 -377 162 -377 374v2c0 203 155 376 374 376c127 0 205 -35 280 -98l-78 -93c-57 48 -113 78 -206 78c-138 0 -241 -119 -241 -261v-2c0 -152 101 -265 252 -265c71 0 135 23 180 57v141h-190v108h309v-304c-72 -62 -175 -113 -303 -113z" />
    <glyph glyph-name="H" unicode="H" horiz-adv-x="798" 
d="M99 0v728h123v-305h355v305h123v-728h-123v309h-355v-309h-123z" />
    <glyph glyph-name="I" unicode="I" horiz-adv-x="335" 
d="M106 0v728h123v-728h-123z" />
    <glyph glyph-name="J" unicode="J" horiz-adv-x="589" 
d="M259 -10c-112 0 -184 52 -232 118l81 83c43 -56 86 -88 149 -88c71 0 119 48 119 147v478h126v-481c0 -86 -25 -150 -68 -193s-103 -64 -175 -64z" />
    <glyph glyph-name="K" unicode="K" horiz-adv-x="762" 
d="M99 0v728h123v-374l353 374h153l-304 -313l317 -415h-150l-251 330l-118 -121v-209h-123z" />
    <glyph glyph-name="L" unicode="L" horiz-adv-x="650" 
d="M99 0v728h123v-616h385v-112h-508z" />
    <glyph glyph-name="M" unicode="M" horiz-adv-x="911" 
d="M99 0v728h130l226 -351l227 351h130v-728h-122v530l-234 -349h-4l-233 347v-528h-120z" />
    <glyph glyph-name="N" unicode="N" horiz-adv-x="830" 
d="M99 0v728h113l398 -513v513h121v-728h-103l-408 527v-527h-121z" />
    <glyph glyph-name="O" unicode="O" horiz-adv-x="892" 
d="M445 -12c-223 0 -379 170 -379 374v2c0 204 158 376 381 376s379 -170 379 -374v-2c0 -204 -158 -376 -381 -376zM447 101c147 0 250 117 250 261v2c0 144 -105 263 -252 263s-250 -117 -250 -261v-2c0 -144 105 -263 252 -263z" />
    <glyph glyph-name="P" unicode="P" horiz-adv-x="703" 
d="M99 0v728h285c169 0 276 -96 276 -241v-3c0 -163 -131 -247 -290 -247h-148v-237h-123zM222 347h152c99 0 162 56 162 134v2c0 87 -64 134 -162 134h-152v-270z" />
    <glyph glyph-name="Q" unicode="Q" horiz-adv-x="892" 
d="M835 66l-79 -88l-88 79c-62 -43 -138 -69 -223 -69c-223 0 -379 170 -379 374v2c0 204 158 376 381 376s379 -170 379 -374v-2c0 -84 -28 -162 -75 -226zM447 101c49 0 93 13 130 35l-127 109l80 90l129 -117c24 41 38 90 38 144v2c0 144 -105 263 -252 263
s-250 -117 -250 -261v-2c0 -144 105 -263 252 -263z" />
    <glyph glyph-name="Q.alt" horiz-adv-x="892" 
d="M702 -105l-121 116c-42 -15 -88 -23 -136 -23c-223 0 -379 170 -379 374v2c0 204 158 376 381 376s379 -170 379 -374v-2c0 -111 -47 -213 -126 -283l185 -182v-4h-183zM447 101c147 0 250 117 250 261v2c0 144 -105 263 -252 263s-250 -117 -250 -261v-2
c0 -144 105 -263 252 -263z" />
    <glyph glyph-name="R" unicode="R" horiz-adv-x="760" 
d="M222 366h191c93 0 154 49 154 125v2c0 79 -58 124 -155 124h-190v-251zM99 0v728h323c91 0 163 -27 210 -73c38 -38 59 -93 59 -156v-2c0 -119 -72 -191 -176 -219l200 -278h-146l-182 257h-165v-257h-123z" />
    <glyph glyph-name="S" unicode="S" horiz-adv-x="674" 
d="M353 -10c-112 0 -216 38 -303 116l74 88c70 -61 141 -95 232 -95c81 0 133 38 133 95v2c0 53 -30 82 -167 114c-157 37 -243 84 -243 217v2c0 123 103 209 247 209c107 0 190 -31 264 -91l-67 -93c-65 50 -131 75 -199 75c-77 0 -123 -39 -123 -89v-2
c0 -58 34 -85 177 -118c155 -37 233 -93 233 -212v-2c0 -135 -107 -216 -258 -216z" />
    <glyph glyph-name="T" unicode="T" horiz-adv-x="678" 
d="M278 0v615h-233v113h588v-113h-232v-615h-123z" />
    <glyph glyph-name="U" unicode="U" horiz-adv-x="796" 
d="M396 -11c-188 0 -309 109 -309 320v419h123v-415c0 -137 71 -211 189 -211c115 0 186 69 186 206v420h123v-414c0 -216 -123 -325 -312 -325z" />
    <glyph glyph-name="V" unicode="V" horiz-adv-x="788" 
d="M340 -5l-304 733h136l224 -568l224 568h132l-304 -733h-108z" />
    <glyph glyph-name="W" unicode="W" horiz-adv-x="1168" 
d="M297 -5l-255 733h133l178 -547l181 549h104l181 -549l178 547h128l-254 -733h-106l-181 531l-182 -531h-105z" />
    <glyph glyph-name="X" unicode="X" horiz-adv-x="766" 
d="M571 728h141l-256 -356l266 -372h-144l-197 282l-197 -282h-140l265 370l-255 358h144l186 -267z" />
    <glyph glyph-name="Y" unicode="Y" horiz-adv-x="753" 
d="M315 0v287l-291 441h145l208 -327l211 327h141l-291 -438v-290h-123z" />
    <glyph glyph-name="Z" unicode="Z" horiz-adv-x="737" 
d="M71 0v90l435 530h-420v108h581v-90l-435 -530h435v-108h-596z" />
    <glyph glyph-name="a" unicode="a" horiz-adv-x="617" 
d="M275 77c86 0 151 49 151 120v40c-33 12 -77 22 -129 22c-83 0 -132 -36 -132 -94v-2c0 -55 49 -86 110 -86zM243 -11c-103 0 -196 59 -196 169v2c0 118 93 176 227 176c62 0 107 -9 150 -23v14c0 80 -49 123 -139 123c-62 0 -108 -13 -158 -34l-32 94
c60 27 119 45 206 45c81 0 142 -22 181 -61c40 -39 58 -96 58 -168v-326h-117v70c-37 -45 -95 -81 -180 -81z" />
    <glyph glyph-name="a.alt" horiz-adv-x="705" 
d="M339 93c87 0 164 72 164 180v2c0 108 -77 180 -164 180c-88 0 -161 -69 -161 -180v-2c0 -109 74 -180 161 -180zM311 -11c-129 0 -255 102 -255 284v2c0 181 124 284 255 284c92 0 150 -46 189 -98v87h121v-548h-121v94c-41 -59 -99 -105 -189 -105z" />
    <glyph glyph-name="b" unicode="b" horiz-adv-x="705" 
d="M394 -11c-92 0 -150 46 -190 98v-87h-120v759h120v-305c41 59 100 105 190 105c129 0 255 -102 255 -284v-2c0 -181 -125 -284 -255 -284zM366 93c88 0 161 69 161 180v2c0 109 -74 180 -161 180s-164 -72 -164 -180v-2c0 -108 77 -180 164 -180z" />
    <glyph glyph-name="c" unicode="c" horiz-adv-x="602" 
d="M337 -12c-163 0 -283 128 -283 283v2c0 156 120 286 284 286c103 0 168 -39 219 -95l-76 -81c-39 41 -80 71 -144 71c-94 0 -163 -81 -163 -179v-2c0 -100 70 -180 169 -180c60 0 104 28 145 69l73 -71c-55 -60 -118 -103 -224 -103z" />
    <glyph glyph-name="d" unicode="d" horiz-adv-x="705" 
d="M339 93c87 0 164 72 164 180v2c0 108 -77 180 -164 180c-88 0 -161 -69 -161 -180v-2c0 -109 74 -180 161 -180zM311 -11c-129 0 -255 102 -255 284v2c0 181 124 284 255 284c92 0 150 -46 189 -98v298h121v-759h-121v94c-41 -59 -99 -105 -189 -105z" />
    <glyph glyph-name="e" unicode="e" horiz-adv-x="635" 
d="M334 -12c-158 0 -280 115 -280 284v2c0 157 111 285 267 285c173 0 261 -136 261 -294c0 -11 0 -22 -1 -34h-406c13 -93 78 -144 161 -144c63 0 108 23 151 66l72 -63c-53 -62 -124 -102 -225 -102zM173 311h290c-9 84 -57 149 -143 149c-79 0 -135 -61 -147 -149z" />
    <glyph glyph-name="f" unicode="f" horiz-adv-x="398" 
d="M112 0v444h-69v101h69v41c0 61 16 107 46 136c28 28 69 43 122 43c44 0 73 -5 101 -14v-102c-26 8 -48 13 -75 13c-49 0 -74 -27 -74 -86v-32h147v-100h-146v-444h-121z" />
    <glyph glyph-name="g" unicode="g" horiz-adv-x="705" 
d="M337 146c89 0 166 63 166 154v2c0 93 -77 155 -166 155s-159 -62 -159 -154v-2c0 -92 71 -155 159 -155zM328 -168c-90 0 -174 23 -246 66l46 91c59 -38 122 -59 197 -59c113 0 176 58 176 171v44c-46 -59 -104 -101 -195 -101c-130 0 -250 95 -250 256v2
c0 162 122 257 250 257c93 0 151 -43 194 -95v84h121v-437c0 -92 -25 -161 -70 -206c-50 -50 -126 -73 -223 -73z" />
    <glyph glyph-name="h" unicode="h" horiz-adv-x="652" 
d="M84 0v759h120v-297c36 52 88 97 174 97c124 0 197 -83 197 -211v-348h-121v312c0 87 -44 137 -121 137c-76 0 -129 -52 -129 -139v-310h-120z" />
    <glyph glyph-name="i" unicode="i" horiz-adv-x="303" 
d="M86 636v116h131v-116h-131zM91 0v548h121v-548h-121z" />
    <glyph glyph-name="j" unicode="j" horiz-adv-x="303" 
d="M86 636v116h131v-116h-131zM56 -170c-24 0 -40 2 -60 6v96c13 -2 25 -3 36 -3c35 0 59 20 59 68v551h121v-558c0 -109 -57 -160 -156 -160z" />
    <glyph glyph-name="k" unicode="k" horiz-adv-x="612" 
d="M84 0v759h120v-462l236 251h146l-219 -225l227 -323h-142l-166 239l-82 -84v-155h-120z" />
    <glyph glyph-name="l" unicode="l" horiz-adv-x="303" 
d="M91 0v759h121v-759h-121z" />
    <glyph glyph-name="m" unicode="m" horiz-adv-x="996" 
d="M84 0v548h120v-85c36 50 84 96 169 96c80 0 136 -39 165 -97c44 58 101 97 186 97c120 0 193 -77 193 -211v-348h-120v312c0 89 -43 137 -115 137c-70 0 -121 -49 -121 -139v-310h-121v314c0 87 -42 135 -114 135s-122 -54 -122 -140v-309h-120z" />
    <glyph glyph-name="n" unicode="n" horiz-adv-x="652" 
d="M84 0v548h120v-86c36 52 88 97 174 97c124 0 197 -83 197 -211v-348h-121v312c0 87 -44 137 -121 137c-76 0 -129 -52 -129 -139v-310h-120z" />
    <glyph glyph-name="o" unicode="o" horiz-adv-x="690" 
d="M344 -12c-167 0 -290 127 -290 283v2c0 156 124 286 292 286c167 0 290 -127 290 -284v-2c0 -156 -124 -285 -292 -285zM346 93c103 0 170 81 170 178v2c0 98 -72 181 -172 181c-103 0 -170 -82 -170 -179v-2c0 -98 72 -180 172 -180z" />
    <glyph glyph-name="p" unicode="p" horiz-adv-x="705" 
d="M366 93c88 0 161 69 161 180v2c0 109 -74 180 -161 180s-164 -72 -164 -180v-2c0 -108 77 -180 164 -180zM84 -166v714h120v-94c41 59 100 105 190 105c129 0 255 -102 255 -284v-2c0 -181 -125 -284 -255 -284c-92 0 -150 46 -190 98v-253h-120z" />
    <glyph glyph-name="q" unicode="q" horiz-adv-x="705" 
d="M500 -166v260c-41 -59 -99 -105 -189 -105c-129 0 -255 102 -255 284v2c0 181 124 284 255 284c92 0 150 -46 189 -98v87h121v-714h-121zM339 93c87 0 164 72 164 180v2c0 108 -77 180 -164 180c-88 0 -161 -69 -161 -180v-2c0 -109 74 -180 161 -180z" />
    <glyph glyph-name="r" unicode="r" horiz-adv-x="436" 
d="M84 0v548h120v-126c36 83 101 140 198 136v-127h-7c-111 0 -191 -74 -191 -221v-210h-120z" />
    <glyph glyph-name="s" unicode="s" 
d="M271 -10c-78 0 -164 27 -232 81l55 82c60 -44 123 -68 181 -68c55 0 88 25 88 63v2c0 44 -59 59 -124 79c-81 24 -172 56 -172 160v2c0 103 84 166 193 166c69 0 144 -24 201 -62l-48 -86c-53 32 -109 52 -155 52c-51 0 -80 -24 -80 -57v-2c0 -41 59 -58 125 -80
c80 -25 171 -60 171 -159v-2c0 -114 -89 -171 -203 -171z" />
    <glyph glyph-name="t" unicode="t" horiz-adv-x="434" 
d="M268 -9c-92 0 -157 40 -157 159v294h-71v104h71v152h120v-152h150v-104h-150v-275c0 -50 26 -71 70 -71c28 0 53 7 78 19v-99c-31 -17 -65 -27 -111 -27z" />
    <glyph glyph-name="u" unicode="u" horiz-adv-x="652" 
d="M275 -11c-125 0 -198 83 -198 211v348h121v-312c0 -87 45 -137 121 -137s129 52 129 139v310h120v-548h-120v86c-36 -52 -87 -97 -173 -97z" />
    <glyph glyph-name="v" unicode="v" horiz-adv-x="625" 
d="M258 -4l-226 552h130l151 -408l153 408h127l-226 -552h-109z" />
    <glyph glyph-name="w" unicode="w" horiz-adv-x="903" 
d="M218 -4l-180 552h124l114 -383l125 385h102l125 -385l116 383h121l-181 -552h-107l-125 381l-127 -381h-107z" />
    <glyph glyph-name="x" unicode="x" horiz-adv-x="610" 
d="M176 548l130 -187l131 187h129l-195 -267l203 -281h-132l-139 198l-138 -198h-129l202 279l-194 269h132z" />
    <glyph glyph-name="y" unicode="y" horiz-adv-x="628" 
d="M321 135l146 413h126l-219 -563c-44 -113 -93 -155 -181 -155c-51 0 -89 12 -128 33l41 91c23 -13 48 -22 75 -22c37 0 59 17 82 68l-231 548h129z" />
    <glyph glyph-name="z" unicode="z" horiz-adv-x="590" 
d="M59 0v83l321 366h-310v99h464v-83l-321 -366h321v-99h-475z" />
    <glyph glyph-name="uni0391" unicode="&#x391;" horiz-adv-x="830" 
d="M283 287h260l-130 300zM36 0l322 733h114l321 -733h-129l-76 177h-350l-76 -177h-126z" />
    <glyph glyph-name="uni0392" unicode="&#x392;" horiz-adv-x="759" 
d="M99 0v728h325c82 0 148 -23 189 -64c33 -33 49 -72 49 -121v-2c0 -88 -51 -135 -105 -163c85 -29 146 -78 146 -177v-2c0 -129 -107 -199 -269 -199h-335zM540 522v2c0 59 -48 95 -132 95h-189v-200h180c84 0 141 34 141 103zM580 214c0 63 -51 101 -154 101h-207v-206
h216c90 0 145 36 145 103v2z" />
    <glyph glyph-name="uni0393" unicode="&#x393;" horiz-adv-x="650" 
d="M99 0v728h508v-112h-385v-616h-123z" />
    <glyph glyph-name="uni0394" unicode="&#x394;" horiz-adv-x="827" 
d="M62 0l-10 89l298 644h127l298 -644l-10 -89h-703zM412 597l-221 -488h440z" />
    <glyph glyph-name="uni0395" unicode="&#x395;" horiz-adv-x="705" 
d="M99 0v728h538v-110h-416v-196h369v-110h-369v-202h421v-110h-543z" />
    <glyph glyph-name="uni0396" unicode="&#x396;" horiz-adv-x="737" 
d="M71 0v90l435 530h-420v108h581v-90l-435 -530h435v-108h-596z" />
    <glyph glyph-name="uni0397" unicode="&#x397;" horiz-adv-x="798" 
d="M99 0v728h123v-305h355v305h123v-728h-123v309h-355v-309h-123z" />
    <glyph glyph-name="uni0398" unicode="&#x398;" horiz-adv-x="892" 
d="M445 -12c-223 0 -379 170 -379 374v2c0 204 158 376 381 376s379 -170 379 -374v-2c0 -204 -158 -376 -381 -376zM447 99c152 0 253 114 253 263v2c0 149 -104 265 -255 265c-152 0 -253 -114 -253 -263v-2c0 -149 104 -265 255 -265zM610 423v-113h-328v113h328z" />
    <glyph glyph-name="uni0399" unicode="&#x399;" horiz-adv-x="335" 
d="M106 0v728h123v-728h-123z" />
    <glyph glyph-name="uni039A" unicode="&#x39a;" horiz-adv-x="762" 
d="M99 0v728h123v-374l353 374h153l-304 -313l317 -415h-150l-251 330l-118 -121v-209h-123z" />
    <glyph glyph-name="uni039B" unicode="&#x39b;" horiz-adv-x="810" 
d="M459 733l314 -733h-136l-235 564l-234 -564h-132l314 733h109z" />
    <glyph glyph-name="uni039C" unicode="&#x39c;" horiz-adv-x="911" 
d="M99 0v728h130l226 -351l227 351h130v-728h-122v530l-234 -349h-4l-233 347v-528h-120z" />
    <glyph glyph-name="uni039D" unicode="&#x39d;" horiz-adv-x="830" 
d="M99 0v728h113l398 -513v513h121v-728h-103l-408 527v-527h-121z" />
    <glyph glyph-name="uni039E" unicode="&#x39e;" horiz-adv-x="698" 
d="M630 616h-562v112h562v-112zM603 311h-508v112h508v-112zM635 0h-572v112h572v-112z" />
    <glyph glyph-name="uni039E.alt" horiz-adv-x="780" 
d="M717 109v-109h-654v109h268v203h-236v109h236v198h-263v109h644v-109h-263v-198h236v-109h-236v-203h268z" />
    <glyph glyph-name="uni039F" unicode="&#x39f;" horiz-adv-x="892" 
d="M445 -12c-223 0 -379 170 -379 374v2c0 204 158 376 381 376s379 -170 379 -374v-2c0 -204 -158 -376 -381 -376zM447 101c147 0 250 117 250 261v2c0 144 -105 263 -252 263s-250 -117 -250 -261v-2c0 -144 105 -263 252 -263z" />
    <glyph glyph-name="uni03A0" unicode="&#x3a0;" horiz-adv-x="795" 
d="M99 0v728h597v-728h-123v616h-351v-616h-123z" />
    <glyph glyph-name="uni03A1" unicode="&#x3a1;" horiz-adv-x="703" 
d="M99 0v728h285c169 0 276 -96 276 -241v-3c0 -163 -131 -247 -290 -247h-148v-237h-123zM222 347h152c99 0 162 56 162 134v2c0 87 -64 134 -162 134h-152v-270z" />
    <glyph glyph-name="uni03A3" unicode="&#x3a3;" horiz-adv-x="720" 
d="M500 364l-254 -255h414v-109h-587v91l270 273l-268 273v91h579v-109h-406z" />
    <glyph glyph-name="uni03A4" unicode="&#x3a4;" horiz-adv-x="678" 
d="M278 0v615h-233v113h588v-113h-232v-615h-123z" />
    <glyph glyph-name="uni03A5" unicode="&#x3a5;" horiz-adv-x="753" 
d="M315 0v287l-291 441h145l208 -327l211 327h141l-291 -438v-290h-123z" />
    <glyph glyph-name="uni03A6" unicode="&#x3a6;" horiz-adv-x="993" 
d="M435 -11v80c-239 4 -377 124 -377 297v1c0 168 136 293 377 297v75h123v-75c238 -4 377 -124 377 -297v-1c0 -169 -137 -294 -377 -297v-80h-123zM807 367c0 107 -81 187 -251 189v-379c169 2 251 79 251 189v1zM186 365c0 -107 81 -187 251 -188v379
c-169 -2 -251 -80 -251 -190v-1z" />
    <glyph glyph-name="uni03A7" unicode="&#x3a7;" horiz-adv-x="766" 
d="M571 728h141l-256 -356l266 -372h-144l-197 282l-197 -282h-140l265 370l-255 358h144l186 -267z" />
    <glyph glyph-name="uni03A8" unicode="&#x3a8;" horiz-adv-x="897" 
d="M820 728v-256c0 -209 -120 -303 -311 -309v-163h-121v163c-192 5 -311 99 -311 305v260h122v-257c0 -137 65 -192 190 -195v452h119v-452c124 3 190 57 190 191v261h122z" />
    <glyph glyph-name="uni03A9" unicode="&#x3a9;" horiz-adv-x="912" 
d="M457 740c228 0 369 -147 369 -340v-1c0 -132 -70 -223 -168 -294l188 1v-106h-317v103c96 66 168 143 168 283v1c0 141 -93 241 -242 240c-147 0 -240 -98 -240 -238v-1c0 -133 68 -215 168 -285v-103h-317v106l187 -1c-98 73 -167 162 -167 295v1c0 183 140 340 371 339
z" />
    <glyph glyph-name="uni03B1" unicode="&#x3b1;" horiz-adv-x="745" 
d="M339 93c87 0 164 72 164 180v2c0 108 -77 180 -164 180c-88 0 -161 -69 -161 -180v-2c0 -109 74 -180 161 -180zM718 98v-96c-18 -5 -40 -9 -71 -9c-76 0 -119 29 -136 94c-42 -55 -104 -98 -195 -98c-134 0 -260 102 -260 284v2c0 181 124 284 255 284
c92 0 150 -46 189 -98v87h121v-394c2 -42 23 -60 61 -60c14 0 27 1 36 4z" />
    <glyph glyph-name="uni03B2" unicode="&#x3b2;" horiz-adv-x="691" 
d="M203 497v-78h99c116 0 184 50 184 132c0 65 -49 114 -131 114c-95 0 -152 -65 -152 -168zM303 331h-100v-44c0 -131 75 -196 178 -196c86 0 133 49 133 111c0 83 -65 129 -211 129zM204 -166h-120v663c0 168 101 269 271 269c163 0 251 -87 251 -205v-1
c0 -92 -53 -157 -146 -181c106 -25 175 -76 175 -188v-1c0 -112 -82 -202 -225 -201c-97 0 -167 43 -206 98v-253z" />
    <glyph glyph-name="uni03B3" unicode="&#x3b3;" horiz-adv-x="625" 
d="M593 548l-220 -531v-183h-121v186l-220 528h131l150 -401l153 401h127z" />
    <glyph glyph-name="uni03B4" unicode="&#x3b4;" horiz-adv-x="674" 
d="M550 659l-262 3l143 -109c127 -94 188 -172 188 -292c0 -150 -110 -273 -287 -273c-169 0 -278 120 -278 266c0 140 70 213 221 289l-149 126v90h424v-100zM358 475h-1c-139 -71 -186 -134 -185 -220c0 -91 64 -165 163 -165s165 76 165 165c0 77 -34 128 -142 220z" />
    <glyph glyph-name="uni03B5" unicode="&#x3b5;" horiz-adv-x="594" 
d="M416 231h-120c-82 0 -120 -29 -120 -69v-1c0 -45 44 -74 130 -74c67 0 136 22 195 59l51 -81c-73 -50 -159 -76 -250 -76c-161 0 -244 66 -244 160v1c0 70 50 108 105 127c-52 22 -91 58 -91 121v2c0 88 81 158 235 158c100 0 174 -28 239 -75l-60 -83
c-49 36 -111 60 -175 60c-80 0 -121 -32 -121 -71v-1c0 -44 35 -67 105 -67h121v-90z" />
    <glyph glyph-name="uni03B6" unicode="&#x3b6;" horiz-adv-x="578" 
d="M419 -133v120l-112 14c-175 22 -254 95 -254 211c0 87 34 144 134 247l193 199h-286v101h440v-93l-266 -281c-70 -73 -95 -108 -95 -161c0 -66 53 -103 156 -116l203 -27v-214h-113z" />
    <glyph glyph-name="uni03B7" unicode="&#x3b7;" horiz-adv-x="652" 
d="M575 -166h-121v478c0 87 -44 137 -121 137c-76 0 -129 -52 -129 -139v-310h-120v548h120v-86c36 52 88 97 174 97c124 0 197 -83 197 -211v-514z" />
    <glyph glyph-name="uni03B8" unicode="&#x3b8;" horiz-adv-x="703" 
d="M351 -12c-176 0 -287 157 -287 375v26c0 218 113 376 289 376c175 0 287 -158 287 -376v-26c0 -218 -114 -375 -289 -375zM351 662c-102 0 -166 -96 -170 -235h340c-5 140 -70 235 -170 235zM352 90c102 0 166 96 170 238h-341c4 -142 71 -238 171 -238z" />
    <glyph glyph-name="uni03B9" unicode="&#x3b9;" horiz-adv-x="327" 
d="M82 156v392h120v-387c0 -47 22 -67 62 -67c14 0 26 1 36 4v-96c-19 -5 -41 -9 -73 -9c-97 0 -145 49 -145 163z" />
    <glyph glyph-name="uni03BA" unicode="&#x3ba;" horiz-adv-x="612" 
d="M204 548v-269l237 269h149l-218 -234l222 -314h-142l-161 230l-87 -93v-137h-120v548h120z" />
    <glyph glyph-name="uni03BB" unicode="&#x3bb;" horiz-adv-x="640" 
d="M103 648v101c26 10 55 16 88 16c94 0 131 -41 173 -148l245 -617h-129l-157 413l-162 -413h-127l233 550l-12 32c-23 56 -44 79 -88 79c-20 0 -40 -3 -64 -13z" />
    <glyph glyph-name="uni03BC" unicode="&#x3bc;" horiz-adv-x="702" 
d="M675 98v-96c-18 -5 -38 -9 -70 -9c-70 0 -112 24 -131 79c-34 -52 -83 -80 -140 -80c-60 0 -118 29 -145 88h-2c8 -46 15 -80 15 -127v-119h-118v714h120v-312c0 -86 50 -141 126 -141s128 55 128 141v312h120v-394c2 -42 23 -60 62 -60c14 0 26 1 35 4z" />
    <glyph glyph-name="uni03BD" unicode="&#x3bd;" horiz-adv-x="625" 
d="M258 -4l-226 552h130l151 -408l153 408h127l-226 -552h-109z" />
    <glyph glyph-name="uni03BE" unicode="&#x3be;" horiz-adv-x="583" 
d="M564 687l-62 -93c-47 40 -99 67 -163 67c-79 0 -130 -46 -130 -115c0 -76 66 -119 158 -119h92v-100h-115c-107 0 -169 -45 -169 -110c0 -72 62 -100 159 -112l198 -25v-213h-113v120l-111 14c-152 17 -254 70 -254 201c0 99 67 154 155 180c-55 23 -121 70 -121 174
c0 115 94 210 252 210c100 0 167 -34 224 -79z" />
    <glyph glyph-name="uni03BF" unicode="&#x3bf;" horiz-adv-x="690" 
d="M344 -12c-167 0 -290 127 -290 283v2c0 156 124 286 292 286c167 0 290 -127 290 -284v-2c0 -156 -124 -285 -292 -285zM346 93c103 0 170 81 170 178v2c0 98 -72 181 -172 181c-103 0 -170 -82 -170 -179v-2c0 -98 72 -180 172 -180z" />
    <glyph glyph-name="uni03C0" unicode="&#x3c0;" horiz-adv-x="736" 
d="M31 548h656v-108h-96v-279c0 -47 21 -67 61 -67c14 0 27 1 36 4v-96c-18 -5 -40 -9 -72 -9c-98 0 -146 49 -146 163v284h-222v-440h-121v440h-96v108z" />
    <glyph glyph-name="uni03C1" unicode="&#x3c1;" horiz-adv-x="694" 
d="M355 93c88 0 161 69 161 180v2c0 109 -73 180 -160 180c-91 0 -163 -72 -163 -180v-2c0 -108 76 -180 162 -180zM73 -166v429c0 174 111 296 283 296c162 0 282 -119 282 -284v-2c0 -177 -126 -284 -252 -284c-95 0 -153 44 -192 100v-255h-121z" />
    <glyph glyph-name="uni03C3" unicode="&#x3c3;" horiz-adv-x="721" 
d="M687 444l-159 1c66 -43 102 -106 102 -187v-1c0 -148 -121 -270 -289 -269c-166 0 -287 122 -287 277v1c0 155 119 282 303 282h330v-104zM344 93c102 0 167 75 167 171v1c0 99 -66 178 -170 178c-102 0 -167 -79 -167 -176v-1c0 -97 70 -173 170 -173z" />
    <glyph glyph-name="uni03C2" unicode="&#x3c2;" horiz-adv-x="604" 
d="M422 -133v122l-77 9c-186 25 -291 120 -291 285v1c0 146 110 276 281 275c108 0 171 -41 223 -99l-78 -83c-38 45 -82 77 -147 77c-94 0 -159 -76 -159 -168v-1c0 -109 72 -166 201 -182l160 -21v-215h-113z" />
    <glyph glyph-name="uni03C4" unicode="&#x3c4;" horiz-adv-x="598" 
d="M555 440h-206v-258c0 -67 29 -89 84 -89c23 0 44 3 71 11v-97c-28 -9 -59 -15 -98 -15c-122 0 -177 48 -177 184v264h-196v108h522v-108z" />
    <glyph glyph-name="uni03C5" unicode="&#x3c5;" horiz-adv-x="655" 
d="M326 -12c-151 0 -249 82 -249 243v317h120v-312c0 -94 46 -144 131 -144c84 0 129 49 129 141v315h121v-314c0 -164 -100 -246 -252 -246z" />
    <glyph glyph-name="uni03C6" unicode="&#x3c6;" horiz-adv-x="882" 
d="M501 -166h-120v164c-211 6 -328 122 -328 275v1c0 151 117 269 328 275v210h120v-209c211 -7 328 -123 328 -275v-1c0 -151 -118 -269 -328 -275v-165zM172 274c0 -99 73 -171 211 -174v348c-141 -4 -211 -75 -211 -173v-1zM710 274c0 99 -73 171 -211 174v-348
c141 3 211 74 211 173v1z" />
    <glyph glyph-name="uni03C7" unicode="&#x3c7;" horiz-adv-x="638" 
d="M172 548l148 -251l149 251h132l-214 -338l238 -376h-135l-173 286l-172 -286h-133l238 374l-214 340h136z" />
    <glyph glyph-name="uni03C8" unicode="&#x3c8;" horiz-adv-x="861" 
d="M490 -166h-119v164c-184 2 -295 99 -295 274v276h120v-273c0 -106 66 -171 175 -173v657h118v-657c109 1 176 67 176 172v274h119v-272c0 -179 -113 -276 -294 -278v-164z" />
    <glyph glyph-name="uni03C9" unicode="&#x3c9;" horiz-adv-x="924" 
d="M403 442h118v-176c0 -106 41 -171 113 -171c68 0 110 55 110 164s-49 195 -127 289h132c66 -76 114 -173 114 -292c0 -163 -78 -268 -215 -268c-104 0 -161 65 -187 144c-27 -79 -83 -144 -188 -144c-136 0 -213 104 -213 268c0 119 49 216 115 292h130
c-79 -93 -126 -180 -126 -289c0 -107 43 -164 109 -164c73 0 115 65 115 171v176z" />
    <glyph glyph-name="uni0410" unicode="&#x410;" horiz-adv-x="830" 
d="M283 287h260l-130 300zM36 0l322 733h114l321 -733h-129l-76 177h-350l-76 -177h-126z" />
    <glyph glyph-name="uni0411" unicode="&#x411;" horiz-adv-x="741" 
d="M99 0v728h527v-109h-407v-187h205c161 0 264 -71 264 -209v-2c0 -142 -109 -221 -273 -221h-316zM219 109h199c86 0 147 38 147 109v1c0 72 -57 106 -144 106h-202v-216z" />
    <glyph glyph-name="uni0412" unicode="&#x412;" horiz-adv-x="759" 
d="M99 0v728h325c82 0 148 -23 189 -64c33 -33 49 -72 49 -121v-2c0 -88 -51 -135 -105 -163c85 -29 146 -78 146 -177v-2c0 -129 -107 -199 -269 -199h-335zM540 522v2c0 59 -48 95 -132 95h-189v-200h180c84 0 141 34 141 103zM580 214c0 63 -51 101 -154 101h-207v-206
h216c90 0 145 36 145 103v2z" />
    <glyph glyph-name="uni0413" unicode="&#x413;" horiz-adv-x="650" 
d="M99 0v728h508v-112h-385v-616h-123z" />
    <glyph glyph-name="uni0414" unicode="&#x414;" horiz-adv-x="886" 
d="M441 597l-204 -489h408zM39 112h71l269 621h129l267 -621h72v-262h-116v150h-576v-150h-116v262z" />
    <glyph glyph-name="uni0415" unicode="&#x415;" horiz-adv-x="705" 
d="M99 0v728h538v-110h-416v-196h369v-110h-369v-202h421v-110h-543z" />
    <glyph glyph-name="uni0401" unicode="&#x401;" horiz-adv-x="705" 
d="M201 789v113h126v-113h-126zM413 789v113h125v-113h-125zM99 0v728h538v-110h-416v-196h369v-110h-369v-202h421v-110h-543z" />
    <glyph glyph-name="uni0416" unicode="&#x416;" horiz-adv-x="1129" 
d="M36 728h147l259 -306h63l-1 306h121l-1 -306h63l260 306h146l-305 -354l324 -374h-148l-272 316h-68l1 -316h-121l1 316h-72l-271 -316h-145l325 374z" />
    <glyph glyph-name="uni0417" unicode="&#x417;" horiz-adv-x="698" 
d="M132 541l-75 83c74 66 164 116 294 116c165 0 267 -77 267 -195v-1c0 -89 -49 -143 -134 -171c90 -22 153 -74 153 -171v-1c0 -122 -111 -213 -296 -213c-129 0 -225 46 -296 107l73 88c63 -50 133 -85 226 -85c97 0 168 42 168 111v1c0 68 -65 106 -172 105h-130v104
h133c90 0 150 40 150 109v1c0 61 -55 102 -144 101c-87 0 -157 -38 -217 -89z" />
    <glyph glyph-name="uni0418" unicode="&#x418;" horiz-adv-x="830" 
d="M731 0h-123v535l-403 -535h-106v728h123v-521l392 521h117v-728z" />
    <glyph glyph-name="uni0419" unicode="&#x419;" horiz-adv-x="830" 
d="M415 785c-99 0 -169 49 -177 137h86c13 -33 39 -52 91 -52s78 19 91 52h86c-8 -88 -78 -137 -177 -137zM731 0h-123v535l-403 -535h-106v728h123v-521l392 521h117v-728z" />
    <glyph glyph-name="uni041A" unicode="&#x41a;" horiz-adv-x="769" 
d="M99 0v728h123l-2 -305h85l277 305h155l-333 -352l351 -376h-159l-288 315h-88l2 -315h-123z" />
    <glyph glyph-name="uni041B" unicode="&#x41b;" horiz-adv-x="810" 
d="M459 733l314 -733h-136l-235 564l-234 -564h-132l314 733h109z" />
    <glyph glyph-name="uni041C" unicode="&#x41c;" horiz-adv-x="911" 
d="M99 0v728h130l226 -351l227 351h130v-728h-122v530l-234 -349h-4l-233 347v-528h-120z" />
    <glyph glyph-name="uni041D" unicode="&#x41d;" horiz-adv-x="798" 
d="M99 0v728h123v-305h355v305h123v-728h-123v309h-355v-309h-123z" />
    <glyph glyph-name="uni041E" unicode="&#x41e;" horiz-adv-x="892" 
d="M445 -12c-223 0 -379 170 -379 374v2c0 204 158 376 381 376s379 -170 379 -374v-2c0 -204 -158 -376 -381 -376zM447 101c147 0 250 117 250 261v2c0 144 -105 263 -252 263s-250 -117 -250 -261v-2c0 -144 105 -263 252 -263z" />
    <glyph glyph-name="uni041F" unicode="&#x41f;" horiz-adv-x="795" 
d="M99 0v728h597v-728h-123v616h-351v-616h-123z" />
    <glyph glyph-name="uni0420" unicode="&#x420;" horiz-adv-x="703" 
d="M99 0v728h285c169 0 276 -96 276 -241v-3c0 -163 -131 -247 -290 -247h-148v-237h-123zM222 347h152c99 0 162 56 162 134v2c0 87 -64 134 -162 134h-152v-270z" />
    <glyph glyph-name="uni0421" unicode="&#x421;" horiz-adv-x="777" 
d="M436 -12c-212 0 -370 165 -370 374v2c0 207 156 376 375 376c134 0 215 -46 285 -113l-80 -91c-58 55 -121 91 -206 91c-141 0 -245 -116 -245 -261v-2c0 -146 103 -263 245 -263c91 0 149 35 212 95l79 -80c-76 -78 -159 -128 -295 -128z" />
    <glyph glyph-name="uni0422" unicode="&#x422;" horiz-adv-x="678" 
d="M278 0v615h-233v113h588v-113h-232v-615h-123z" />
    <glyph glyph-name="uni0423" unicode="&#x423;" horiz-adv-x="754" 
d="M315 0h-137l147 251l-293 477h139l223 -368l200 368h137z" />
    <glyph glyph-name="uni0424" unicode="&#x424;" horiz-adv-x="993" 
d="M435 -11v80c-239 4 -377 124 -377 297v1c0 168 136 293 377 297v75h123v-75c238 -4 377 -124 377 -297v-1c0 -169 -137 -294 -377 -297v-80h-123zM807 367c0 107 -81 187 -251 189v-379c169 2 251 79 251 189v1zM186 365c0 -107 81 -187 251 -188v379
c-169 -2 -251 -80 -251 -190v-1z" />
    <glyph glyph-name="uni0424.bgr" horiz-adv-x="1008" 
d="M443 -104v103c-228 10 -377 163 -377 363v2c0 198 150 352 377 365v103h123v-103c228 -11 376 -164 376 -363v-2c0 -198 -150 -353 -376 -365v-103h-123zM815 364c0 140 -98 246 -253 253v-507c156 7 253 110 253 252v2zM194 364c0 -142 98 -246 252 -254v507
c-156 -7 -252 -111 -252 -251v-2z" />
    <glyph glyph-name="uni0425" unicode="&#x425;" horiz-adv-x="766" 
d="M571 728h141l-256 -356l266 -372h-144l-197 282l-197 -282h-140l265 370l-255 358h144l186 -267z" />
    <glyph glyph-name="uni0426" unicode="&#x426;" horiz-adv-x="821" 
d="M666 -150v150h-567v728h123v-616h351v616h123v-616h86v-262h-116z" />
    <glyph glyph-name="uni0427" unicode="&#x427;" horiz-adv-x="748" 
d="M526 0v259c-55 -14 -120 -22 -172 -22c-168 0 -274 74 -274 248v243h123v-227c0 -108 53 -152 163 -152c52 0 108 7 160 22v357h123v-728h-123z" />
    <glyph glyph-name="uni0428" unicode="&#x428;" horiz-adv-x="1167" 
d="M99 0v728h123v-616h300v616h123v-616h301v616h123v-728h-970z" />
    <glyph glyph-name="uni0429" unicode="&#x429;" horiz-adv-x="1193" 
d="M99 0v728h123v-616h300v616h123v-616h301v616h123v-616h85v-262h-116v150h-939z" />
    <glyph glyph-name="uni042A" unicode="&#x42a;" horiz-adv-x="879" 
d="M272 0v618h-229v110h352v-245h157c169 0 281 -83 281 -237v-1c0 -154 -114 -245 -290 -245h-271zM395 111h151c98 0 163 48 163 131v2c0 83 -61 129 -160 129h-154v-262z" />
    <glyph glyph-name="uni042B" unicode="&#x42b;" horiz-adv-x="1004" 
d="M782 0v728h123v-728h-123zM99 0v728h123v-245h157c169 0 281 -83 281 -238v-1c0 -152 -114 -245 -290 -244h-271zM222 111h151c99 0 163 48 163 132v1c0 83 -61 129 -160 129h-154v-262z" />
    <glyph glyph-name="uni042C" unicode="&#x42c;" horiz-adv-x="706" 
d="M99 0v728h123v-245h157c169 0 281 -83 281 -237v-1c0 -154 -114 -245 -290 -245h-271zM222 111h151c98 0 163 48 163 131v2c0 83 -61 129 -160 129h-154v-262z" />
    <glyph glyph-name="uni042D" unicode="&#x42d;" horiz-adv-x="776" 
d="M54 623c73 68 160 117 297 117c209 0 359 -158 359 -374v-2c0 -211 -150 -376 -369 -376c-128 0 -219 47 -293 120l78 86c67 -62 129 -95 215 -95c127 0 221 88 239 215h-359v105h358c-20 123 -110 210 -233 210c-92 0 -158 -36 -218 -90z" />
    <glyph glyph-name="uni042E" unicode="&#x42e;" horiz-adv-x="1158" 
d="M99 0v728h123v-305h141c27 175 169 317 363 317c216 0 366 -173 366 -374v-2c0 -201 -152 -376 -368 -376c-196 0 -338 143 -362 321h-140v-309h-123zM726 101c141 0 237 118 237 261v2c0 143 -98 263 -239 263c-140 0 -236 -118 -236 -261v-2c0 -143 98 -263 238 -263z
" />
    <glyph glyph-name="uni042F" unicode="&#x42f;" horiz-adv-x="760" 
d="M538 366v251h-191c-96 0 -154 -46 -154 -124v-1c0 -81 63 -126 158 -126h187zM249 273c-105 28 -181 101 -181 218v1c0 154 114 236 291 236h302v-728h-123v257h-157l-189 -257h-147z" />
    <glyph glyph-name="uni0430" unicode="&#x430;" horiz-adv-x="617" 
d="M275 77c86 0 151 49 151 120v40c-33 12 -77 22 -129 22c-83 0 -132 -36 -132 -94v-2c0 -55 49 -86 110 -86zM243 -11c-103 0 -196 59 -196 169v2c0 118 93 176 227 176c62 0 107 -9 150 -23v14c0 80 -49 123 -139 123c-62 0 -108 -13 -158 -34l-32 94
c60 27 119 45 206 45c81 0 142 -22 181 -61c40 -39 58 -96 58 -168v-326h-117v70c-37 -45 -95 -81 -180 -81z" />
    <glyph glyph-name="uni0431" unicode="&#x431;" horiz-adv-x="686" 
d="M344 -12c-85 0 -151 31 -194 74c-58 57 -89 140 -89 259v1c0 257 94 381 296 415l195 33l19 -111l-194 -31c-129 -22 -187 -79 -202 -196c44 50 116 84 202 84c161 0 255 -105 255 -251v-1c0 -153 -116 -277 -288 -276zM346 90c99 0 166 74 166 172v1
c0 93 -61 163 -159 162c-105 0 -171 -72 -171 -165c0 -100 69 -170 164 -170z" />
    <glyph glyph-name="uni0432" unicode="&#x432;" horiz-adv-x="628" 
d="M84 0v548h279c114 0 188 -52 188 -142c0 -66 -35 -100 -87 -122c66 -21 110 -58 110 -131c0 -102 -85 -153 -211 -153h-279zM433 391c0 41 -31 68 -91 68h-140v-140h136c64 0 95 29 95 72zM456 160c0 46 -35 74 -105 74h-149v-145h155c63 0 99 26 99 71z" />
    <glyph glyph-name="uni0432.bgr" horiz-adv-x="681" 
d="M74 269v228c0 168 102 269 271 269c154 0 251 -83 251 -207v-1c0 -98 -62 -155 -145 -178c105 -25 174 -75 174 -186v-1c0 -117 -104 -206 -267 -205c-176 0 -284 85 -284 281zM194 497v-78h98c116 0 185 50 185 132c0 65 -50 114 -131 114c-95 0 -152 -65 -152 -168z
M293 331h-99v-61c0 -116 49 -181 165 -181c92 0 146 50 146 116c0 81 -65 126 -212 126z" />
    <glyph glyph-name="uni0433" unicode="&#x433;" horiz-adv-x="530" 
d="M84 0v548h409v-109h-289v-439h-120z" />
    <glyph glyph-name="uni0433.bgr" horiz-adv-x="545" 
d="M243 -10c-117 0 -192 56 -192 154v3c0 91 63 134 186 174c111 36 136 50 136 85v1c0 30 -23 55 -78 54c-57 0 -118 -22 -176 -57l-49 85c69 43 150 68 227 68c122 0 187 -62 187 -154v-2c0 -92 -65 -128 -188 -168c-105 -34 -134 -51 -134 -89v-1c0 -38 28 -58 85 -58
c61 0 130 26 201 73l52 -82c-77 -54 -164 -86 -257 -86z" />
    <glyph glyph-name="uni0434" unicode="&#x434;" horiz-adv-x="702" 
d="M350 430l-138 -325h275zM288 552h126l198 -443h61v-246h-109v138h-426v-138h-109v246h62z" />
    <glyph glyph-name="uni0434.bgr" horiz-adv-x="705" 
d="M337 146c89 0 166 63 166 154v2c0 93 -77 155 -166 155s-159 -62 -159 -154v-2c0 -92 71 -155 159 -155zM328 -168c-90 0 -174 23 -246 66l46 91c59 -38 122 -59 197 -59c113 0 176 58 176 171v44c-46 -59 -104 -101 -195 -101c-130 0 -250 95 -250 256v2
c0 162 122 257 250 257c93 0 151 -43 194 -95v84h121v-437c0 -92 -25 -161 -70 -206c-50 -50 -126 -73 -223 -73z" />
    <glyph glyph-name="uni0435" unicode="&#x435;" horiz-adv-x="635" 
d="M334 -12c-158 0 -280 115 -280 284v2c0 157 111 285 267 285c173 0 261 -136 261 -294c0 -11 0 -22 -1 -34h-406c13 -93 78 -144 161 -144c63 0 108 23 151 66l72 -63c-53 -62 -124 -102 -225 -102zM173 311h290c-9 84 -57 149 -143 149c-79 0 -135 -61 -147 -149z" />
    <glyph glyph-name="uni0451" unicode="&#x451;" horiz-adv-x="635" 
d="M157 619v120h124v-120h-124zM357 619v120h124v-120h-124zM334 -12c-158 0 -280 115 -280 284v2c0 157 111 285 267 285c173 0 261 -136 261 -294c0 -11 0 -22 -1 -34h-406c13 -93 78 -144 161 -144c63 0 108 23 151 66l72 -63c-53 -62 -124 -102 -225 -102zM173 311h290
c-9 84 -57 149 -143 149c-79 0 -135 -61 -147 -149z" />
    <glyph glyph-name="uni0436" unicode="&#x436;" horiz-adv-x="932" 
d="M525 548l-1 -220h64l177 220h142l-226 -268l234 -280h-142l-183 225h-66l1 -225h-118l1 225h-67l-182 -225h-142l235 274l-226 274h143l176 -220h63l-1 220h118z" />
    <glyph glyph-name="uni0436.bgr" horiz-adv-x="932" 
d="M525 759l-1 -431h64l177 220h142l-226 -268l234 -280h-142l-183 225h-66l1 -225h-118l1 225h-67l-182 -225h-142l235 274l-226 274h143l176 -220h64l-2 431h118z" />
    <glyph glyph-name="uni0437" unicode="&#x437;" horiz-adv-x="589" 
d="M42 66l60 82c55 -39 120 -61 187 -61c81 0 128 29 128 75v1c0 42 -44 69 -121 68h-119v90h118c71 0 107 26 107 69v1c0 43 -41 69 -112 69c-65 0 -123 -21 -178 -62l-63 77c64 52 143 84 247 84c137 0 224 -63 224 -154v-1c0 -67 -43 -104 -98 -124
c64 -17 113 -58 113 -129v-1c0 -88 -88 -163 -245 -162c-102 0 -181 28 -248 78z" />
    <glyph glyph-name="uni0438" unicode="&#x438;" horiz-adv-x="672" 
d="M84 0v548h120v-360l270 360h114v-548h-120v366l-275 -366h-109z" />
    <glyph glyph-name="uni0438.bgr" horiz-adv-x="652" 
d="M275 -11c-125 0 -198 83 -198 211v348h121v-312c0 -87 45 -137 121 -137s129 52 129 139v310h120v-548h-120v86c-36 -52 -87 -97 -173 -97z" />
    <glyph glyph-name="uni0439" unicode="&#x439;" horiz-adv-x="672" 
d="M335 617c-99 0 -168 54 -175 148h83c12 -38 39 -64 92 -64s80 26 92 64h84c-8 -94 -77 -148 -176 -148zM84 0v548h120v-360l270 360h114v-548h-120v366l-275 -366h-109z" />
    <glyph glyph-name="uni0439.bgr" horiz-adv-x="652" 
d="M322 617c-99 0 -168 54 -175 148h83c12 -38 39 -64 92 -64s80 26 92 64h84c-8 -94 -77 -148 -176 -148zM275 -11c-125 0 -198 83 -198 211v348h121v-312c0 -87 45 -137 121 -137s129 52 129 139v310h120v-548h-120v86c-36 -52 -87 -97 -173 -97z" />
    <glyph glyph-name="uni043A" unicode="&#x43a;" horiz-adv-x="621" 
d="M204 548v-219h67l178 219h148l-231 -268l239 -280h-146l-185 224h-70v-224h-120v548h120z" />
    <glyph glyph-name="uni043A.bgr" horiz-adv-x="621" 
d="M204 759v-430h67l178 219h148l-231 -268l239 -280h-146l-185 224h-70v-224h-120v759h120z" />
    <glyph glyph-name="uni043B" unicode="&#x43b;" horiz-adv-x="653" 
d="M383 552l239 -552h-131l-166 404l-166 -404h-128l239 552h113z" />
    <glyph glyph-name="uni043C" unicode="&#x43c;" horiz-adv-x="764" 
d="M84 0v548h126l173 -261l172 261h125v-548h-118v370l-179 -266h-4l-178 263v-367h-117z" />
    <glyph glyph-name="uni043D" unicode="&#x43d;" horiz-adv-x="670" 
d="M84 0v548h120v-217h262v217h121v-548h-121v221h-262v-221h-120z" />
    <glyph glyph-name="uni043E" unicode="&#x43e;" horiz-adv-x="690" 
d="M344 -12c-167 0 -290 127 -290 283v2c0 156 124 286 292 286c167 0 290 -127 290 -284v-2c0 -156 -124 -285 -292 -285zM346 93c103 0 170 81 170 178v2c0 98 -72 181 -172 181c-103 0 -170 -82 -170 -179v-2c0 -98 72 -180 172 -180z" />
    <glyph glyph-name="uni043F" unicode="&#x43f;" horiz-adv-x="670" 
d="M84 0v548h502v-548h-121v439h-261v-439h-120z" />
    <glyph glyph-name="uni043F.bgr" horiz-adv-x="652" 
d="M84 0v548h120v-86c36 52 88 97 174 97c124 0 197 -83 197 -211v-348h-121v312c0 87 -44 137 -121 137c-76 0 -129 -52 -129 -139v-310h-120z" />
    <glyph glyph-name="uni0440" unicode="&#x440;" horiz-adv-x="705" 
d="M366 93c88 0 161 69 161 180v2c0 109 -74 180 -161 180s-164 -72 -164 -180v-2c0 -108 77 -180 164 -180zM84 -166v714h120v-94c41 59 100 105 190 105c129 0 255 -102 255 -284v-2c0 -181 -125 -284 -255 -284c-92 0 -150 46 -190 98v-253h-120z" />
    <glyph glyph-name="uni0441" unicode="&#x441;" horiz-adv-x="602" 
d="M337 -12c-163 0 -283 128 -283 283v2c0 156 120 286 284 286c103 0 168 -39 219 -95l-76 -81c-39 41 -80 71 -144 71c-94 0 -163 -81 -163 -179v-2c0 -100 70 -180 169 -180c60 0 104 28 145 69l73 -71c-55 -60 -118 -103 -224 -103z" />
    <glyph glyph-name="uni0442" unicode="&#x442;" horiz-adv-x="592" 
d="M236 0v440h-198v108h516v-108h-198v-440h-120z" />
    <glyph glyph-name="uni0442.bgr" horiz-adv-x="996" 
d="M84 0v548h120v-85c36 50 84 96 169 96c80 0 136 -39 165 -97c44 58 101 97 186 97c120 0 193 -77 193 -211v-348h-120v312c0 89 -43 137 -115 137c-70 0 -121 -49 -121 -139v-310h-121v314c0 87 -42 135 -114 135s-122 -54 -122 -140v-309h-120z" />
    <glyph glyph-name="uni0443" unicode="&#x443;" horiz-adv-x="628" 
d="M321 135l146 413h126l-219 -563c-44 -113 -93 -155 -181 -155c-51 0 -89 12 -128 33l41 91c23 -13 48 -22 75 -22c37 0 59 17 82 68l-231 548h129z" />
    <glyph glyph-name="uni0444" unicode="&#x444;" horiz-adv-x="882" 
d="M501 -166h-120v164c-211 6 -328 122 -328 275v1c0 151 117 269 328 275v210h120v-209c211 -7 328 -123 328 -275v-1c0 -151 -118 -269 -328 -275v-165zM172 274c0 -99 73 -171 211 -174v348c-141 -4 -211 -75 -211 -173v-1zM710 274c0 99 -73 171 -211 174v-348
c141 3 211 74 211 173v1z" />
    <glyph glyph-name="uni0445" unicode="&#x445;" horiz-adv-x="610" 
d="M176 548l130 -187l131 187h129l-195 -267l203 -281h-132l-139 198l-138 -198h-129l202 279l-194 269h132z" />
    <glyph glyph-name="uni0446" unicode="&#x446;" horiz-adv-x="691" 
d="M546 -137v137h-462v548h120v-439h261v439h121v-439h69v-246h-109z" />
    <glyph glyph-name="uni0446.bgr" horiz-adv-x="674" 
d="M275 -11c-125 0 -198 83 -198 211v348h121v-312c0 -87 45 -137 121 -137s129 52 129 139v310h120v-439h69v-246h-109v137h-80v86c-36 -52 -87 -97 -173 -97z" />
    <glyph glyph-name="uni0447" unicode="&#x447;" horiz-adv-x="625" 
d="M420 0v178c-36 -9 -86 -19 -132 -19c-140 0 -223 63 -223 205v184h120v-174c0 -76 39 -106 120 -106c43 0 79 8 115 19v261h121v-548h-121z" />
    <glyph glyph-name="uni0448" unicode="&#x448;" horiz-adv-x="982" 
d="M84 0v548h120v-439h227v439h120v-439h227v439h120v-548h-814z" />
    <glyph glyph-name="uni0448.bgr" horiz-adv-x="996" 
d="M913 548v-548h-121v85c-36 -50 -84 -96 -169 -96c-79 0 -135 39 -164 97c-44 -58 -102 -97 -186 -97c-121 0 -194 77 -194 211v348h121v-312c0 -89 42 -137 115 -137c69 0 120 49 120 139v310h121v-314c0 -87 43 -135 114 -135c72 0 122 54 122 140v309h121z" />
    <glyph glyph-name="uni0449" unicode="&#x449;" horiz-adv-x="1003" 
d="M84 0v548h120v-439h227v439h120v-439h227v439h120v-439h69v-246h-109v137h-774z" />
    <glyph glyph-name="uni0449.bgr" horiz-adv-x="1018" 
d="M872 -137v137h-80v85c-36 -50 -84 -96 -169 -96c-79 0 -135 39 -164 97c-44 -58 -102 -97 -186 -97c-121 0 -194 77 -194 211v348h121v-312c0 -89 42 -137 115 -137c69 0 120 49 120 139v310h121v-314c0 -87 43 -135 114 -135c72 0 122 54 122 140v309h121v-439h68v-246
h-109z" />
    <glyph glyph-name="uni044A" unicode="&#x44a;" horiz-adv-x="710" 
d="M32 548h287v-172h133c132 0 218 -68 218 -186v-1c0 -114 -82 -189 -226 -189h-244v442h-168v106zM319 278v-178h122c71 0 109 31 109 89v1c0 51 -37 89 -108 88h-123z" />
    <glyph glyph-name="uni044B" unicode="&#x44b;" horiz-adv-x="847" 
d="M642 0v548h121v-548h-121zM204 548v-172h132c133 0 218 -68 218 -186v-1c0 -114 -82 -189 -226 -189h-244v548h120zM203 278v-178h122c72 0 109 31 109 89v1c0 51 -36 89 -108 88h-123z" />
    <glyph glyph-name="uni044C" unicode="&#x44c;" horiz-adv-x="594" 
d="M204 548v-172h132c133 0 218 -68 218 -186v-1c0 -114 -82 -189 -226 -189h-244v548h120zM203 278v-178h122c72 0 109 31 109 89v1c0 51 -36 89 -108 88h-123z" />
    <glyph glyph-name="uni044D" unicode="&#x44d;" horiz-adv-x="605" 
d="M106 156c49 -45 97 -67 164 -67c85 0 148 57 160 138l-255 -1v98l255 -1c-14 79 -74 135 -161 135c-70 0 -115 -27 -161 -65l-62 79c58 50 127 87 229 87c162 0 276 -120 276 -285v-1c0 -159 -114 -285 -279 -285c-98 0 -169 32 -231 87z" />
    <glyph glyph-name="uni044E" unicode="&#x44e;" horiz-adv-x="930" 
d="M204 221v-221h-120v548h120v-216h109c26 128 137 227 280 227c163 0 283 -127 283 -284v-2c0 -156 -121 -285 -285 -285c-145 0 -258 100 -280 233h-107zM593 93c99 0 163 81 163 178v2c0 98 -69 181 -165 181c-99 0 -163 -82 -163 -179v-2c0 -98 69 -180 165 -180z" />
    <glyph glyph-name="uni044E.bgr" horiz-adv-x="930" 
d="M591 -12c-145 0 -258 100 -280 233h-107v-221h-120v759h120v-427h109c26 128 137 227 280 227c163 0 283 -127 283 -284v-2c0 -156 -121 -285 -285 -285zM593 93c99 0 163 81 163 178v2c0 98 -69 181 -165 181c-99 0 -163 -82 -163 -179v-2c0 -98 69 -180 165 -180z" />
    <glyph glyph-name="uni044F" unicode="&#x44f;" horiz-adv-x="636" 
d="M433 453h-139c-66 0 -108 -32 -108 -87v-1c0 -51 39 -87 107 -86h140v174zM433 189h-111l-136 -189h-138l149 202c-78 22 -130 79 -130 164v1c0 116 88 182 223 181h262v-548h-119v189z" />
    <glyph glyph-name="Aacute" unicode="&#xc1;" horiz-adv-x="830" 
d="M366 799l115 149l110 -49l-131 -100h-94zM283 287h260l-130 300zM36 0l322 733h114l321 -733h-129l-76 177h-350l-76 -177h-126z" />
    <glyph glyph-name="aacute" unicode="&#xe1;" horiz-adv-x="617" 
d="M262 619l107 168l110 -50l-126 -118h-91zM275 77c86 0 151 49 151 120v40c-33 12 -77 22 -129 22c-83 0 -132 -36 -132 -94v-2c0 -55 49 -86 110 -86zM243 -11c-103 0 -196 59 -196 169v2c0 118 93 176 227 176c62 0 107 -9 150 -23v14c0 80 -49 123 -139 123
c-62 0 -108 -13 -158 -34l-32 94c60 27 119 45 206 45c81 0 142 -22 181 -61c40 -39 58 -96 58 -168v-326h-117v70c-37 -45 -95 -81 -180 -81z" />
    <glyph glyph-name="aacute.alt" horiz-adv-x="705" 
d="M310 619l107 168l110 -50l-126 -118h-91zM339 93c87 0 164 72 164 180v2c0 108 -77 180 -164 180c-88 0 -161 -69 -161 -180v-2c0 -109 74 -180 161 -180zM311 -11c-129 0 -255 102 -255 284v2c0 181 124 284 255 284c92 0 150 -46 189 -98v87h121v-548h-121v94
c-41 -59 -99 -105 -189 -105z" />
    <glyph glyph-name="Abreve" unicode="&#x102;" horiz-adv-x="830" 
d="M415 797c-99 0 -169 49 -177 137h86c13 -33 39 -52 91 -52s78 19 91 52h86c-8 -88 -78 -137 -177 -137zM283 287h260l-130 300zM36 0l322 733h114l321 -733h-129l-76 177h-350l-76 -177h-126z" />
    <glyph glyph-name="abreve" unicode="&#x103;" horiz-adv-x="617" 
d="M310 617c-99 0 -168 54 -175 148h83c12 -38 39 -64 92 -64s80 26 92 64h84c-8 -94 -77 -148 -176 -148zM275 77c86 0 151 49 151 120v40c-33 12 -77 22 -129 22c-83 0 -132 -36 -132 -94v-2c0 -55 49 -86 110 -86zM243 -11c-103 0 -196 59 -196 169v2
c0 118 93 176 227 176c62 0 107 -9 150 -23v14c0 80 -49 123 -139 123c-62 0 -108 -13 -158 -34l-32 94c60 27 119 45 206 45c81 0 142 -22 181 -61c40 -39 58 -96 58 -168v-326h-117v70c-37 -45 -95 -81 -180 -81z" />
    <glyph glyph-name="abreve.alt" horiz-adv-x="705" 
d="M358 617c-99 0 -168 54 -175 148h83c12 -38 39 -64 92 -64s80 26 92 64h84c-8 -94 -77 -148 -176 -148zM339 93c87 0 164 72 164 180v2c0 108 -77 180 -164 180c-88 0 -161 -69 -161 -180v-2c0 -109 74 -180 161 -180zM311 -11c-129 0 -255 102 -255 284v2
c0 181 124 284 255 284c92 0 150 -46 189 -98v87h121v-548h-121v94c-41 -59 -99 -105 -189 -105z" />
    <glyph glyph-name="Acircumflex" unicode="&#xc2;" horiz-adv-x="830" 
d="M234 796l124 138h114l124 -138h-102l-80 60l-80 -60h-100zM283 287h260l-130 300zM36 0l322 733h114l321 -733h-129l-76 177h-350l-76 -177h-126z" />
    <glyph glyph-name="acircumflex" unicode="&#xe2;" horiz-adv-x="617" 
d="M135 619l119 150h112l120 -150h-97l-80 69l-80 -69h-94zM275 77c86 0 151 49 151 120v40c-33 12 -77 22 -129 22c-83 0 -132 -36 -132 -94v-2c0 -55 49 -86 110 -86zM243 -11c-103 0 -196 59 -196 169v2c0 118 93 176 227 176c62 0 107 -9 150 -23v14
c0 80 -49 123 -139 123c-62 0 -108 -13 -158 -34l-32 94c60 27 119 45 206 45c81 0 142 -22 181 -61c40 -39 58 -96 58 -168v-326h-117v70c-37 -45 -95 -81 -180 -81z" />
    <glyph glyph-name="acircumflex.alt" horiz-adv-x="705" 
d="M183 619l119 150h112l120 -150h-97l-80 69l-80 -69h-94zM339 93c87 0 164 72 164 180v2c0 108 -77 180 -164 180c-88 0 -161 -69 -161 -180v-2c0 -109 74 -180 161 -180zM311 -11c-129 0 -255 102 -255 284v2c0 181 124 284 255 284c92 0 150 -46 189 -98v87h121v-548
h-121v94c-41 -59 -99 -105 -189 -105z" />
    <glyph glyph-name="Adieresis" unicode="&#xc4;" horiz-adv-x="830" 
d="M246 799v113h126v-113h-126zM458 799v113h125v-113h-125zM283 287h260l-130 300zM36 0l322 733h114l321 -733h-129l-76 177h-350l-76 -177h-126z" />
    <glyph glyph-name="adieresis" unicode="&#xe4;" horiz-adv-x="617" 
d="M148 619v120h124v-120h-124zM348 619v120h124v-120h-124zM275 77c86 0 151 49 151 120v40c-33 12 -77 22 -129 22c-83 0 -132 -36 -132 -94v-2c0 -55 49 -86 110 -86zM243 -11c-103 0 -196 59 -196 169v2c0 118 93 176 227 176c62 0 107 -9 150 -23v14
c0 80 -49 123 -139 123c-62 0 -108 -13 -158 -34l-32 94c60 27 119 45 206 45c81 0 142 -22 181 -61c40 -39 58 -96 58 -168v-326h-117v70c-37 -45 -95 -81 -180 -81z" />
    <glyph glyph-name="adieresis.alt" horiz-adv-x="705" 
d="M196 619v120h124v-120h-124zM396 619v120h124v-120h-124zM339 93c87 0 164 72 164 180v2c0 108 -77 180 -164 180c-88 0 -161 -69 -161 -180v-2c0 -109 74 -180 161 -180zM311 -11c-129 0 -255 102 -255 284v2c0 181 124 284 255 284c92 0 150 -46 189 -98v87h121v-548
h-121v94c-41 -59 -99 -105 -189 -105z" />
    <glyph glyph-name="Agrave" unicode="&#xc0;" horiz-adv-x="830" 
d="M464 799h-95l-131 100l110 49zM283 287h260l-130 300zM36 0l322 733h114l321 -733h-129l-76 177h-350l-76 -177h-126z" />
    <glyph glyph-name="agrave" unicode="&#xe0;" horiz-adv-x="617" 
d="M267 619l-126 118l110 50l107 -168h-91zM275 77c86 0 151 49 151 120v40c-33 12 -77 22 -129 22c-83 0 -132 -36 -132 -94v-2c0 -55 49 -86 110 -86zM243 -11c-103 0 -196 59 -196 169v2c0 118 93 176 227 176c62 0 107 -9 150 -23v14c0 80 -49 123 -139 123
c-62 0 -108 -13 -158 -34l-32 94c60 27 119 45 206 45c81 0 142 -22 181 -61c40 -39 58 -96 58 -168v-326h-117v70c-37 -45 -95 -81 -180 -81z" />
    <glyph glyph-name="agrave.alt" horiz-adv-x="705" 
d="M315 619l-126 118l110 50l107 -168h-91zM339 93c87 0 164 72 164 180v2c0 108 -77 180 -164 180c-88 0 -161 -69 -161 -180v-2c0 -109 74 -180 161 -180zM311 -11c-129 0 -255 102 -255 284v2c0 181 124 284 255 284c92 0 150 -46 189 -98v87h121v-548h-121v94
c-41 -59 -99 -105 -189 -105z" />
    <glyph glyph-name="Amacron" unicode="&#x100;" horiz-adv-x="830" 
d="M230 812v90h370v-90h-370zM283 287h260l-130 300zM36 0l322 733h114l321 -733h-129l-76 177h-350l-76 -177h-126z" />
    <glyph glyph-name="amacron" unicode="&#x101;" horiz-adv-x="617" 
d="M135 632v88h350v-88h-350zM275 77c86 0 151 49 151 120v40c-33 12 -77 22 -129 22c-83 0 -132 -36 -132 -94v-2c0 -55 49 -86 110 -86zM243 -11c-103 0 -196 59 -196 169v2c0 118 93 176 227 176c62 0 107 -9 150 -23v14c0 80 -49 123 -139 123c-62 0 -108 -13 -158 -34
l-32 94c60 27 119 45 206 45c81 0 142 -22 181 -61c40 -39 58 -96 58 -168v-326h-117v70c-37 -45 -95 -81 -180 -81z" />
    <glyph glyph-name="amacron.alt" horiz-adv-x="705" 
d="M183 632v88h350v-88h-350zM339 93c87 0 164 72 164 180v2c0 108 -77 180 -164 180c-88 0 -161 -69 -161 -180v-2c0 -109 74 -180 161 -180zM311 -11c-129 0 -255 102 -255 284v2c0 181 124 284 255 284c92 0 150 -46 189 -98v87h121v-548h-121v94
c-41 -59 -99 -105 -189 -105z" />
    <glyph glyph-name="Aogonek" unicode="&#x104;" horiz-adv-x="830" 
d="M802 -112v-59c-11 -1 -22 -2 -31 -2c-89 2 -136 38 -136 88c0 31 15 57 42 85h-13l-76 177h-350l-76 -177h-126l322 733h114l321 -733h-30c-26 -25 -36 -46 -36 -67c0 -29 24 -45 75 -45zM283 287h260l-130 300z" />
    <glyph glyph-name="aogonek" unicode="&#x105;" horiz-adv-x="617" 
d="M549 -112v-59c-11 -1 -22 -2 -31 -2c-89 2 -136 38 -136 88c0 31 15 57 42 85h-1v70c-37 -45 -95 -81 -180 -81c-103 0 -196 59 -196 169v2c0 118 93 176 227 176c62 0 107 -9 150 -23v14c0 80 -49 123 -139 123c-62 0 -108 -13 -158 -34l-32 94c60 27 119 45 206 45
c81 0 142 -22 181 -61c40 -39 58 -96 58 -168v-326h-30c-26 -25 -36 -46 -36 -67c0 -29 24 -45 75 -45zM275 77c86 0 151 49 151 120v40c-33 12 -77 22 -129 22c-83 0 -132 -36 -132 -94v-2c0 -55 49 -86 110 -86z" />
    <glyph glyph-name="aogonek.alt" horiz-adv-x="705" 
d="M634 -112v-59c-11 -1 -22 -2 -31 -2c-89 2 -136 38 -136 88c0 31 15 57 42 85h-9v94c-41 -59 -99 -105 -189 -105c-129 0 -255 102 -255 284v2c0 181 124 284 255 284c92 0 150 -46 189 -98v87h121v-548h-26c-26 -25 -36 -46 -36 -67c0 -29 24 -45 75 -45zM339 93
c87 0 164 72 164 180v2c0 108 -77 180 -164 180c-88 0 -161 -69 -161 -180v-2c0 -109 74 -180 161 -180z" />
    <glyph glyph-name="Aring" unicode="&#xc5;" horiz-adv-x="830" 
d="M415 715c39 0 67 27 67 61s-28 60 -67 60c-40 0 -68 -26 -68 -60s28 -61 68 -61zM283 287h260l-130 300zM36 0l302 690c-28 19 -46 49 -46 86c0 63 56 109 123 109c66 0 122 -46 122 -109c0 -36 -18 -66 -46 -86l302 -690h-129l-76 177h-350l-76 -177h-126z" />
    <glyph glyph-name="aring" unicode="&#xe5;" horiz-adv-x="617" 
d="M310 617c-66 0 -120 51 -120 115s54 116 120 116s120 -52 120 -116s-54 -115 -120 -115zM310 662c38 0 70 32 70 70s-32 70 -70 70s-70 -32 -70 -70s32 -70 70 -70zM275 77c86 0 151 49 151 120v40c-33 12 -77 22 -129 22c-83 0 -132 -36 -132 -94v-2
c0 -55 49 -86 110 -86zM243 -11c-103 0 -196 59 -196 169v2c0 118 93 176 227 176c62 0 107 -9 150 -23v14c0 80 -49 123 -139 123c-62 0 -108 -13 -158 -34l-32 94c60 27 119 45 206 45c81 0 142 -22 181 -61c40 -39 58 -96 58 -168v-326h-117v70c-37 -45 -95 -81 -180 -81
z" />
    <glyph glyph-name="aring.alt" horiz-adv-x="705" 
d="M358 617c-66 0 -120 51 -120 115s54 116 120 116s120 -52 120 -116s-54 -115 -120 -115zM358 662c38 0 70 32 70 70s-32 70 -70 70s-70 -32 -70 -70s32 -70 70 -70zM339 93c87 0 164 72 164 180v2c0 108 -77 180 -164 180c-88 0 -161 -69 -161 -180v-2
c0 -109 74 -180 161 -180zM311 -11c-129 0 -255 102 -255 284v2c0 181 124 284 255 284c92 0 150 -46 189 -98v87h121v-548h-121v94c-41 -59 -99 -105 -189 -105z" />
    <glyph glyph-name="aring.alt2" horiz-adv-x="617" 
d="M240 626c0 -38 32 -70 70 -70s70 32 70 70s-32 70 -70 70s-70 -32 -70 -70zM275 77c86 0 151 49 151 120v40c-33 12 -77 22 -129 22c-83 0 -132 -36 -132 -94v-2c0 -55 49 -86 110 -86zM243 -11c-103 0 -196 59 -196 169v2c0 118 93 176 227 176c62 0 107 -9 150 -23v14
c0 80 -49 123 -139 123c-62 0 -108 -13 -158 -34l-32 94c40 18 80 32 128 39c-21 20 -33 47 -33 77c0 64 54 115 120 115s120 -51 120 -115c0 -33 -16 -62 -40 -82c38 -10 69 -27 92 -50c40 -39 58 -96 58 -168v-326h-117v70c-37 -45 -95 -81 -180 -81z" />
    <glyph glyph-name="Aringacute" unicode="&#x1fa;" horiz-adv-x="830" 
d="M360 914l120 132l109 -48l-134 -84h-95zM415 715c39 0 67 27 67 61s-28 60 -67 60c-40 0 -68 -26 -68 -60s28 -61 68 -61zM283 287h260l-130 300zM36 0l302 690c-28 19 -46 49 -46 86c0 63 56 109 123 109c66 0 122 -46 122 -109c0 -36 -18 -66 -46 -86l302 -690h-129
l-76 177h-350l-76 -177h-126z" />
    <glyph glyph-name="aringacute" unicode="&#x1fb;" horiz-adv-x="617" 
d="M261 881l113 142l108 -50l-130 -92h-91zM310 617c-66 0 -120 51 -120 115s54 116 120 116s120 -52 120 -116s-54 -115 -120 -115zM310 662c38 0 70 32 70 70s-32 70 -70 70s-70 -32 -70 -70s32 -70 70 -70zM275 77c86 0 151 49 151 120v40c-33 12 -77 22 -129 22
c-83 0 -132 -36 -132 -94v-2c0 -55 49 -86 110 -86zM243 -11c-103 0 -196 59 -196 169v2c0 118 93 176 227 176c62 0 107 -9 150 -23v14c0 80 -49 123 -139 123c-62 0 -108 -13 -158 -34l-32 94c60 27 119 45 206 45c81 0 142 -22 181 -61c40 -39 58 -96 58 -168v-326h-117
v70c-37 -45 -95 -81 -180 -81z" />
    <glyph glyph-name="aringacute.alt" horiz-adv-x="705" 
d="M309 881l113 142l108 -50l-130 -92h-91zM358 617c-66 0 -120 51 -120 115s54 116 120 116s120 -52 120 -116s-54 -115 -120 -115zM358 662c38 0 70 32 70 70s-32 70 -70 70s-70 -32 -70 -70s32 -70 70 -70zM339 93c87 0 164 72 164 180v2c0 108 -77 180 -164 180
c-88 0 -161 -69 -161 -180v-2c0 -109 74 -180 161 -180zM311 -11c-129 0 -255 102 -255 284v2c0 181 124 284 255 284c92 0 150 -46 189 -98v87h121v-548h-121v94c-41 -59 -99 -105 -189 -105z" />
    <glyph glyph-name="aringacute.alt2" horiz-adv-x="617" 
d="M261 778l113 142l108 -50l-130 -92h-91zM240 626c0 -38 32 -70 70 -70s70 32 70 70s-32 70 -70 70s-70 -32 -70 -70zM275 77c86 0 151 49 151 120v40c-33 12 -77 22 -129 22c-83 0 -132 -36 -132 -94v-2c0 -55 49 -86 110 -86zM243 -11c-103 0 -196 59 -196 169v2
c0 118 93 176 227 176c62 0 107 -9 150 -23v14c0 80 -49 123 -139 123c-62 0 -108 -13 -158 -34l-32 94c40 18 80 32 128 39c-21 20 -33 47 -33 77c0 64 54 115 120 115s120 -51 120 -115c0 -33 -16 -62 -40 -82c38 -10 69 -27 92 -50c40 -39 58 -96 58 -168v-326h-117v70
c-37 -45 -95 -81 -180 -81z" />
    <glyph glyph-name="Atilde" unicode="&#xc3;" horiz-adv-x="830" 
d="M500 799c-30 0 -62 12 -91 23c-23 9 -44 17 -60 17c-30 0 -43 -16 -58 -50l-68 20c23 80 53 126 115 126c30 0 62 -12 91 -24c23 -9 44 -17 60 -17c30 0 42 16 57 50l68 -20c-22 -80 -53 -125 -114 -125zM283 287h260l-130 300zM36 0l322 733h114l321 -733h-129l-76 177
h-350l-76 -177h-126z" />
    <glyph glyph-name="atilde" unicode="&#xe3;" horiz-adv-x="617" 
d="M393 619c-30 0 -59 11 -85 22c-24 10 -46 19 -63 19c-30 0 -42 -16 -57 -51l-67 20c22 83 52 127 114 127c30 0 59 -11 85 -22c24 -10 46 -19 63 -19c30 0 42 16 57 51l67 -20c-22 -83 -52 -127 -114 -127zM275 77c86 0 151 49 151 120v40c-33 12 -77 22 -129 22
c-83 0 -132 -36 -132 -94v-2c0 -55 49 -86 110 -86zM243 -11c-103 0 -196 59 -196 169v2c0 118 93 176 227 176c62 0 107 -9 150 -23v14c0 80 -49 123 -139 123c-62 0 -108 -13 -158 -34l-32 94c60 27 119 45 206 45c81 0 142 -22 181 -61c40 -39 58 -96 58 -168v-326h-117
v70c-37 -45 -95 -81 -180 -81z" />
    <glyph glyph-name="atilde.alt" horiz-adv-x="705" 
d="M442 619c-30 0 -59 11 -85 22c-24 10 -46 19 -63 19c-30 0 -42 -16 -57 -51l-67 20c22 83 52 127 114 127c30 0 59 -11 85 -22c24 -10 46 -19 63 -19c30 0 42 16 57 51l67 -20c-22 -83 -52 -127 -114 -127zM339 93c87 0 164 72 164 180v2c0 108 -77 180 -164 180
c-88 0 -161 -69 -161 -180v-2c0 -109 74 -180 161 -180zM311 -11c-129 0 -255 102 -255 284v2c0 181 124 284 255 284c92 0 150 -46 189 -98v87h121v-548h-121v94c-41 -59 -99 -105 -189 -105z" />
    <glyph glyph-name="Cacute" unicode="&#x106;" horiz-adv-x="777" 
d="M381 799l115 149l110 -49l-131 -100h-94zM436 -12c-212 0 -370 165 -370 374v2c0 207 156 376 375 376c134 0 215 -46 285 -113l-80 -91c-58 55 -121 91 -206 91c-141 0 -245 -116 -245 -261v-2c0 -146 103 -263 245 -263c91 0 149 35 212 95l79 -80
c-76 -78 -159 -128 -295 -128z" />
    <glyph glyph-name="cacute" unicode="&#x107;" horiz-adv-x="602" 
d="M284 619l107 168l110 -50l-126 -118h-91zM337 -12c-163 0 -283 128 -283 283v2c0 156 120 286 284 286c103 0 168 -39 219 -95l-76 -81c-39 41 -80 71 -144 71c-94 0 -163 -81 -163 -179v-2c0 -100 70 -180 169 -180c60 0 104 28 145 69l73 -71
c-55 -60 -118 -103 -224 -103z" />
    <glyph glyph-name="Ccaron" unicode="&#x10c;" horiz-adv-x="777" 
d="M611 937l-124 -138h-114l-124 138h102l80 -60l80 60h100zM436 -12c-212 0 -370 165 -370 374v2c0 207 156 376 375 376c134 0 215 -46 285 -113l-80 -91c-58 55 -121 91 -206 91c-141 0 -245 -116 -245 -261v-2c0 -146 103 -263 245 -263c91 0 149 35 212 95l79 -80
c-76 -78 -159 -128 -295 -128z" />
    <glyph glyph-name="ccaron" unicode="&#x10d;" horiz-adv-x="602" 
d="M508 769l-120 -150h-112l-119 150h96l80 -69l80 69h95zM337 -12c-163 0 -283 128 -283 283v2c0 156 120 286 284 286c103 0 168 -39 219 -95l-76 -81c-39 41 -80 71 -144 71c-94 0 -163 -81 -163 -179v-2c0 -100 70 -180 169 -180c60 0 104 28 145 69l73 -71
c-55 -60 -118 -103 -224 -103z" />
    <glyph glyph-name="Ccedilla" unicode="&#xc7;" horiz-adv-x="777" 
d="M390 -171l-106 45l81 121c-175 31 -299 182 -299 367v2c0 207 156 376 375 376c134 0 215 -46 285 -113l-80 -91c-58 55 -121 91 -206 91c-141 0 -245 -116 -245 -261v-2c0 -146 103 -263 245 -263c91 0 149 35 212 95l79 -80c-72 -74 -150 -122 -272 -127z" />
    <glyph glyph-name="ccedilla" unicode="&#xe7;" horiz-adv-x="602" 
d="M290 -171l-106 45l83 123c-126 30 -213 142 -213 274v2c0 156 120 286 284 286c103 0 168 -39 219 -95l-76 -81c-39 41 -80 71 -144 71c-94 0 -163 -81 -163 -179v-2c0 -100 70 -180 169 -180c60 0 104 28 145 69l73 -71c-51 -56 -110 -97 -203 -102z" />
    <glyph glyph-name="Cdotaccent" unicode="&#x10a;" horiz-adv-x="777" 
d="M365 799v113h130v-113h-130zM436 -12c-212 0 -370 165 -370 374v2c0 207 156 376 375 376c134 0 215 -46 285 -113l-80 -91c-58 55 -121 91 -206 91c-141 0 -245 -116 -245 -261v-2c0 -146 103 -263 245 -263c91 0 149 35 212 95l79 -80c-76 -78 -159 -128 -295 -128z
" />
    <glyph glyph-name="cdotaccent" unicode="&#x10b;" horiz-adv-x="602" 
d="M268 619v121h128v-121h-128zM337 -12c-163 0 -283 128 -283 283v2c0 156 120 286 284 286c103 0 168 -39 219 -95l-76 -81c-39 41 -80 71 -144 71c-94 0 -163 -81 -163 -179v-2c0 -100 70 -180 169 -180c60 0 104 28 145 69l73 -71c-55 -60 -118 -103 -224 -103z" />
    <glyph glyph-name="Dcaron" unicode="&#x10e;" horiz-adv-x="821" 
d="M577 927l-124 -138h-114l-124 138h102l80 -60l80 60h100zM99 0v728h269c229 0 387 -157 387 -362v-2c0 -205 -158 -364 -387 -364h-269zM368 617h-146v-506h146c156 0 258 106 258 251v2c0 144 -102 253 -258 253z" />
    <glyph glyph-name="dcaron" unicode="&#x10f;" horiz-adv-x="705" 
d="M680 565l13 195h96v-4l-58 -191h-51zM339 93c87 0 164 72 164 180v2c0 108 -77 180 -164 180c-88 0 -161 -69 -161 -180v-2c0 -109 74 -180 161 -180zM311 -11c-129 0 -255 102 -255 284v2c0 181 124 284 255 284c92 0 150 -46 189 -98v298h121v-759h-121v94
c-41 -59 -99 -105 -189 -105z" />
    <glyph glyph-name="Dcroat" unicode="&#x110;" horiz-adv-x="852" 
d="M130 0v322h-78v89h78v317h269c229 0 387 -157 387 -362v-2c0 -205 -158 -364 -387 -364h-269zM439 322h-186v-211h146c156 0 259 106 259 251v2c0 144 -103 253 -259 253h-146v-206h186v-89z" />
    <glyph glyph-name="dcroat" unicode="&#x111;" horiz-adv-x="705" 
d="M339 93c87 0 164 72 164 180v2c0 108 -77 180 -164 180c-88 0 -161 -69 -161 -180v-2c0 -109 74 -180 161 -180zM328 626v74h172v59h121v-59h71v-74h-71v-626h-121v94c-41 -59 -99 -105 -189 -105c-129 0 -255 102 -255 284v2c0 181 124 284 255 284
c92 0 150 -46 189 -98v165h-172z" />
    <glyph glyph-name="Eacute" unicode="&#xc9;" horiz-adv-x="705" 
d="M321 789l115 149l110 -49l-131 -100h-94zM99 0v728h538v-110h-416v-196h369v-110h-369v-202h421v-110h-543z" />
    <glyph glyph-name="eacute" unicode="&#xe9;" horiz-adv-x="635" 
d="M272 619l107 168l110 -50l-126 -118h-91zM334 -12c-158 0 -280 115 -280 284v2c0 157 111 285 267 285c173 0 261 -136 261 -294c0 -11 0 -22 -1 -34h-406c13 -93 78 -144 161 -144c63 0 108 23 151 66l72 -63c-53 -62 -124 -102 -225 -102zM173 311h290
c-9 84 -57 149 -143 149c-79 0 -135 -61 -147 -149z" />
    <glyph glyph-name="Ebreve" unicode="&#x114;" horiz-adv-x="705" 
d="M370 787c-99 0 -169 49 -177 137h86c13 -33 39 -52 91 -52s78 19 91 52h86c-8 -88 -78 -137 -177 -137zM99 0v728h538v-110h-416v-196h369v-110h-369v-202h421v-110h-543z" />
    <glyph glyph-name="ebreve" unicode="&#x115;" horiz-adv-x="635" 
d="M319 617c-99 0 -168 54 -175 148h83c12 -38 39 -64 92 -64s80 26 92 64h84c-8 -94 -77 -148 -176 -148zM334 -12c-158 0 -280 115 -280 284v2c0 157 111 285 267 285c173 0 261 -136 261 -294c0 -11 0 -22 -1 -34h-406c13 -93 78 -144 161 -144c63 0 108 23 151 66
l72 -63c-53 -62 -124 -102 -225 -102zM173 311h290c-9 84 -57 149 -143 149c-79 0 -135 -61 -147 -149z" />
    <glyph glyph-name="Ecaron" unicode="&#x11a;" horiz-adv-x="705" 
d="M551 927l-124 -138h-114l-124 138h102l80 -60l80 60h100zM99 0v728h538v-110h-416v-196h369v-110h-369v-202h421v-110h-543z" />
    <glyph glyph-name="ecaron" unicode="&#x11b;" horiz-adv-x="635" 
d="M495 769l-120 -150h-112l-119 150h96l80 -69l80 69h95zM334 -12c-158 0 -280 115 -280 284v2c0 157 111 285 267 285c173 0 261 -136 261 -294c0 -11 0 -22 -1 -34h-406c13 -93 78 -144 161 -144c63 0 108 23 151 66l72 -63c-53 -62 -124 -102 -225 -102zM173 311h290
c-9 84 -57 149 -143 149c-79 0 -135 -61 -147 -149z" />
    <glyph glyph-name="Ecircumflex" unicode="&#xca;" horiz-adv-x="705" 
d="M189 789l124 138h114l124 -138h-102l-80 60l-80 -60h-100zM99 0v728h538v-110h-416v-196h369v-110h-369v-202h421v-110h-543z" />
    <glyph glyph-name="ecircumflex" unicode="&#xea;" horiz-adv-x="635" 
d="M144 619l119 150h112l120 -150h-97l-80 69l-80 -69h-94zM334 -12c-158 0 -280 115 -280 284v2c0 157 111 285 267 285c173 0 261 -136 261 -294c0 -11 0 -22 -1 -34h-406c13 -93 78 -144 161 -144c63 0 108 23 151 66l72 -63c-53 -62 -124 -102 -225 -102zM173 311h290
c-9 84 -57 149 -143 149c-79 0 -135 -61 -147 -149z" />
    <glyph glyph-name="Edieresis" unicode="&#xcb;" horiz-adv-x="705" 
d="M201 789v113h126v-113h-126zM413 789v113h125v-113h-125zM99 0v728h538v-110h-416v-196h369v-110h-369v-202h421v-110h-543z" />
    <glyph glyph-name="edieresis" unicode="&#xeb;" horiz-adv-x="635" 
d="M157 619v120h124v-120h-124zM357 619v120h124v-120h-124zM334 -12c-158 0 -280 115 -280 284v2c0 157 111 285 267 285c173 0 261 -136 261 -294c0 -11 0 -22 -1 -34h-406c13 -93 78 -144 161 -144c63 0 108 23 151 66l72 -63c-53 -62 -124 -102 -225 -102zM173 311h290
c-9 84 -57 149 -143 149c-79 0 -135 -61 -147 -149z" />
    <glyph glyph-name="Edotaccent" unicode="&#x116;" horiz-adv-x="705" 
d="M305 789v113h130v-113h-130zM99 0v728h538v-110h-416v-196h369v-110h-369v-202h421v-110h-543z" />
    <glyph glyph-name="edotaccent" unicode="&#x117;" horiz-adv-x="635" 
d="M255 619v121h128v-121h-128zM334 -12c-158 0 -280 115 -280 284v2c0 157 111 285 267 285c173 0 261 -136 261 -294c0 -11 0 -22 -1 -34h-406c13 -93 78 -144 161 -144c63 0 108 23 151 66l72 -63c-53 -62 -124 -102 -225 -102zM173 311h290c-9 84 -57 149 -143 149
c-79 0 -135 -61 -147 -149z" />
    <glyph glyph-name="Egrave" unicode="&#xc8;" horiz-adv-x="705" 
d="M419 789h-95l-131 100l110 49zM99 0v728h538v-110h-416v-196h369v-110h-369v-202h421v-110h-543z" />
    <glyph glyph-name="egrave" unicode="&#xe8;" horiz-adv-x="635" 
d="M276 619l-126 118l110 50l107 -168h-91zM334 -12c-158 0 -280 115 -280 284v2c0 157 111 285 267 285c173 0 261 -136 261 -294c0 -11 0 -22 -1 -34h-406c13 -93 78 -144 161 -144c63 0 108 23 151 66l72 -63c-53 -62 -124 -102 -225 -102zM173 311h290
c-9 84 -57 149 -143 149c-79 0 -135 -61 -147 -149z" />
    <glyph glyph-name="Emacron" unicode="&#x112;" horiz-adv-x="705" 
d="M185 802v90h370v-90h-370zM99 0v728h538v-110h-416v-196h369v-110h-369v-202h421v-110h-543z" />
    <glyph glyph-name="emacron" unicode="&#x113;" horiz-adv-x="635" 
d="M144 632v88h350v-88h-350zM334 -12c-158 0 -280 115 -280 284v2c0 157 111 285 267 285c173 0 261 -136 261 -294c0 -11 0 -22 -1 -34h-406c13 -93 78 -144 161 -144c63 0 108 23 151 66l72 -63c-53 -62 -124 -102 -225 -102zM173 311h290c-9 84 -57 149 -143 149
c-79 0 -135 -61 -147 -149z" />
    <glyph glyph-name="Eogonek" unicode="&#x118;" horiz-adv-x="705" 
d="M99 0v728h538v-110h-416v-196h369v-110h-369v-202h421v-110h-39c-26 -25 -36 -46 -36 -67c0 -29 24 -45 75 -45v-59c-11 -1 -22 -2 -31 -2c-89 2 -136 38 -136 88c0 31 15 57 42 85h-418z" />
    <glyph glyph-name="eogonek" unicode="&#x119;" horiz-adv-x="635" 
d="M487 153l72 -63c-21 -23 -37 -38 -60 -59c-44 -39 -60 -67 -60 -92c0 -35 26 -50 76 -51v-59c-11 -1 -22 -2 -31 -2c-89 2 -136 37 -136 86c0 27 13 52 35 79c-14 -3 -33 -4 -49 -4c-158 0 -280 115 -280 284v2c0 157 111 285 267 285c173 0 261 -136 261 -294
c0 -11 0 -22 -1 -34h-406c13 -93 78 -144 161 -144c63 0 108 23 151 66zM173 311h290c-9 84 -57 149 -143 149c-79 0 -135 -61 -147 -149z" />
    <glyph glyph-name="Gbreve" unicode="&#x11e;" horiz-adv-x="823" 
d="M432 797c-99 0 -169 49 -177 137h86c13 -33 39 -52 91 -52s78 19 91 52h86c-8 -88 -78 -137 -177 -137zM443 -12c-228 0 -377 162 -377 374v2c0 203 155 376 374 376c127 0 205 -35 280 -98l-78 -93c-57 48 -113 78 -206 78c-138 0 -241 -119 -241 -261v-2
c0 -152 101 -265 252 -265c71 0 135 23 180 57v141h-190v108h309v-304c-72 -62 -175 -113 -303 -113z" />
    <glyph glyph-name="gbreve" unicode="&#x11f;" horiz-adv-x="705" 
d="M358 617c-99 0 -168 54 -175 148h83c12 -38 39 -64 92 -64s80 26 92 64h84c-8 -94 -77 -148 -176 -148zM337 146c89 0 166 63 166 154v2c0 93 -77 155 -166 155s-159 -62 -159 -154v-2c0 -92 71 -155 159 -155zM328 -168c-90 0 -174 23 -246 66l46 91
c59 -38 122 -59 197 -59c113 0 176 58 176 171v44c-46 -59 -104 -101 -195 -101c-130 0 -250 95 -250 256v2c0 162 122 257 250 257c93 0 151 -43 194 -95v84h121v-437c0 -92 -25 -161 -70 -206c-50 -50 -126 -73 -223 -73z" />
    <glyph glyph-name="Gcommaaccent" unicode="&#x122;" horiz-adv-x="823" 
d="M443 -12c-228 0 -377 162 -377 374v2c0 203 155 376 374 376c127 0 205 -35 280 -98l-78 -93c-57 48 -113 78 -206 78c-138 0 -241 -119 -241 -261v-2c0 -152 101 -265 252 -265c71 0 135 23 180 57v141h-190v108h309v-304c-72 -62 -175 -113 -303 -113zM363 -282l-8 40
c51 6 75 29 72 69h-55v103h120v-88c0 -83 -45 -120 -129 -124z" />
    <glyph glyph-name="gcommaaccent" unicode="&#x123;" horiz-adv-x="705" 
d="M425 831l8 -40c-51 -6 -75 -29 -72 -69h55v-103h-120v88c0 83 45 120 129 124zM337 146c89 0 166 63 166 154v2c0 93 -77 155 -166 155s-159 -62 -159 -154v-2c0 -92 71 -155 159 -155zM328 -168c-90 0 -174 23 -246 66l46 91c59 -38 122 -59 197 -59
c113 0 176 58 176 171v44c-46 -59 -104 -101 -195 -101c-130 0 -250 95 -250 256v2c0 162 122 257 250 257c93 0 151 -43 194 -95v84h121v-437c0 -92 -25 -161 -70 -206c-50 -50 -126 -73 -223 -73z" />
    <glyph glyph-name="Gdotaccent" unicode="&#x120;" horiz-adv-x="823" 
d="M367 799v113h130v-113h-130zM443 -12c-228 0 -377 162 -377 374v2c0 203 155 376 374 376c127 0 205 -35 280 -98l-78 -93c-57 48 -113 78 -206 78c-138 0 -241 -119 -241 -261v-2c0 -152 101 -265 252 -265c71 0 135 23 180 57v141h-190v108h309v-304
c-72 -62 -175 -113 -303 -113z" />
    <glyph glyph-name="gdotaccent" unicode="&#x121;" horiz-adv-x="705" 
d="M294 619v121h128v-121h-128zM337 146c89 0 166 63 166 154v2c0 93 -77 155 -166 155s-159 -62 -159 -154v-2c0 -92 71 -155 159 -155zM328 -168c-90 0 -174 23 -246 66l46 91c59 -38 122 -59 197 -59c113 0 176 58 176 171v44c-46 -59 -104 -101 -195 -101
c-130 0 -250 95 -250 256v2c0 162 122 257 250 257c93 0 151 -43 194 -95v84h121v-437c0 -92 -25 -161 -70 -206c-50 -50 -126 -73 -223 -73z" />
    <glyph glyph-name="Hbar" unicode="&#x126;" horiz-adv-x="820" 
d="M233 421h355v112h-355v-112zM35 531v88h75v109h123v-109h355v109h123v-109h74v-88h-74v-531h-123v308h-355v-308h-123v531h-75z" />
    <glyph glyph-name="hbar" unicode="&#x127;" horiz-adv-x="652" 
d="M377 626h-173v-164c36 52 88 97 174 97c124 0 197 -83 197 -211v-348h-121v312c0 87 -44 137 -121 137c-76 0 -129 -52 -129 -139v-310h-120v626h-72v74h72v59h120v-59h173v-74z" />
    <glyph glyph-name="Iacute" unicode="&#xcd;" horiz-adv-x="335" 
d="M118 789l115 149l110 -49l-131 -100h-94zM106 0v728h123v-728h-123z" />
    <glyph glyph-name="iacute" unicode="&#xed;" horiz-adv-x="303" 
d="M103 619l107 168l110 -50l-126 -118h-91zM91 0v548h121v-548h-121z" />
    <glyph glyph-name="Ibreve" unicode="&#x12c;" horiz-adv-x="335" 
d="M167 787c-99 0 -169 49 -177 137h86c13 -33 39 -52 91 -52s78 19 91 52h86c-8 -88 -78 -137 -177 -137zM106 0v728h123v-728h-123z" />
    <glyph glyph-name="ibreve" unicode="&#x12d;" horiz-adv-x="303" 
d="M151 617c-99 0 -168 54 -175 148h83c12 -38 39 -64 92 -64s80 26 92 64h84c-8 -94 -77 -148 -176 -148zM91 0v548h121v-548h-121z" />
    <glyph glyph-name="Icircumflex" unicode="&#xce;" horiz-adv-x="335" 
d="M-14 789l124 138h114l124 -138h-102l-80 60l-80 -60h-100zM106 0v728h123v-728h-123z" />
    <glyph glyph-name="icircumflex" unicode="&#xee;" horiz-adv-x="303" 
d="M-24 619l119 150h112l120 -150h-97l-80 69l-80 -69h-94zM91 0v548h121v-548h-121z" />
    <glyph glyph-name="Idieresis" unicode="&#xcf;" horiz-adv-x="335" 
d="M-1 789v113h126v-113h-126zM211 789v113h125v-113h-125zM106 0v728h123v-728h-123z" />
    <glyph glyph-name="idieresis" unicode="&#xef;" horiz-adv-x="303" 
d="M-11 619v120h124v-120h-124zM189 619v120h124v-120h-124zM91 0v548h121v-548h-121z" />
    <glyph glyph-name="Idotaccent" unicode="&#x130;" horiz-adv-x="335" 
d="M102 789v113h130v-113h-130zM106 0v728h123v-728h-123z" />
    <glyph glyph-name="i.dot" horiz-adv-x="303" 
d="M86 636v116h131v-116h-131zM91 0v548h121v-548h-121z" />
    <glyph glyph-name="dotlessi" unicode="&#x131;" horiz-adv-x="303" 
d="M91 0v548h121v-548h-121z" />
    <glyph glyph-name="Igrave" unicode="&#xcc;" horiz-adv-x="335" 
d="M217 789h-95l-131 100l110 49zM106 0v728h123v-728h-123z" />
    <glyph glyph-name="igrave" unicode="&#xec;" horiz-adv-x="303" 
d="M108 619l-126 118l110 50l107 -168h-91zM91 0v548h121v-548h-121z" />
    <glyph glyph-name="Imacron" unicode="&#x12a;" horiz-adv-x="335" 
d="M-18 802v90h370v-90h-370zM106 0v728h123v-728h-123z" />
    <glyph glyph-name="imacron" unicode="&#x12b;" horiz-adv-x="303" 
d="M-24 632v88h350v-88h-350zM91 0v548h121v-548h-121z" />
    <glyph glyph-name="Iogonek" unicode="&#x12e;" horiz-adv-x="335" 
d="M106 0v728h123v-728h-22c-26 -25 -36 -46 -36 -67c0 -29 24 -45 75 -45v-59c-11 -1 -22 -2 -31 -2c-89 2 -136 38 -136 88c0 31 15 57 42 85h-15z" />
    <glyph glyph-name="iogonek" unicode="&#x12f;" horiz-adv-x="303" 
d="M86 636v116h131v-116h-131zM91 0v548h121v-548h-21c-26 -25 -36 -46 -36 -67c0 -29 24 -45 75 -45v-59c-11 -1 -22 -2 -31 -2c-89 2 -136 38 -136 88c0 31 15 57 42 85h-14z" />
    <glyph glyph-name="Kcommaaccent" unicode="&#x136;" horiz-adv-x="762" 
d="M99 0v728h123v-374l353 374h153l-304 -313l317 -415h-150l-251 330l-118 -121v-209h-123zM314 -274l-8 40c51 6 75 29 72 69h-55v103h120v-88c0 -83 -45 -120 -129 -124z" />
    <glyph glyph-name="kcommaaccent" unicode="&#x137;" horiz-adv-x="612" 
d="M84 0v759h120v-462l236 251h146l-219 -225l227 -323h-142l-166 239l-82 -84v-155h-120zM250 -279l-8 40c51 6 75 29 72 69h-55v103h120v-88c0 -83 -45 -120 -129 -124z" />
    <glyph glyph-name="Lacute" unicode="&#x139;" horiz-adv-x="650" 
d="M128 789l115 149l110 -49l-131 -100h-94zM99 0v728h123v-616h385v-112h-508z" />
    <glyph glyph-name="lacute" unicode="&#x13a;" horiz-adv-x="303" 
d="M105 808l115 149l110 -49l-131 -100h-94zM91 0v759h121v-759h-121z" />
    <glyph glyph-name="Lcaron" unicode="&#x13d;" horiz-adv-x="650" 
d="M305 533l13 195h96v-4l-58 -191h-51zM99 0v728h123v-616h385v-112h-508z" />
    <glyph glyph-name="lcaron" unicode="&#x13e;" horiz-adv-x="303" 
d="M271 565l13 195h96v-4l-58 -191h-51zM91 0v759h121v-759h-121z" />
    <glyph glyph-name="Lcommaaccent" unicode="&#x13b;" horiz-adv-x="650" 
d="M99 0v728h123v-616h385v-112h-508zM282 -279l-8 40c51 6 75 29 72 69h-55v103h120v-88c0 -83 -45 -120 -129 -124z" />
    <glyph glyph-name="lcommaaccent" unicode="&#x13c;" horiz-adv-x="303" 
d="M91 0v759h121v-759h-121zM82 -279l-8 40c51 6 75 29 72 69h-55v103h120v-88c0 -83 -45 -120 -129 -124z" />
    <glyph glyph-name="Ldot" unicode="&#x13f;" horiz-adv-x="650" 
d="M99 0v728h123v-616h385v-112h-508zM434 330v121h124v-121h-124z" />
    <glyph glyph-name="ldot" unicode="&#x140;" horiz-adv-x="385" 
d="M91 0v759h121v-759h-121zM287 332v114h107v-114h-107z" />
    <glyph glyph-name="Lslash" unicode="&#x141;" horiz-adv-x="681" 
d="M421 403l-170 -77v-214h387v-112h-508v272l-78 -35v116l78 35v340h121v-285l170 77v-117z" />
    <glyph glyph-name="lslash" unicode="&#x142;" horiz-adv-x="365" 
d="M321 399l-79 -41v-358h-119v297l-79 -40v116l79 40v346h119v-285l79 41v-116z" />
    <glyph glyph-name="Nacute" unicode="&#x143;" horiz-adv-x="830" 
d="M366 787l115 149l110 -49l-131 -100h-94zM99 0v728h113l398 -513v513h121v-728h-103l-408 527v-527h-121z" />
    <glyph glyph-name="nacute" unicode="&#x144;" horiz-adv-x="652" 
d="M281 619l107 168l110 -50l-126 -118h-91zM84 0v548h120v-86c36 52 88 97 174 97c124 0 197 -83 197 -211v-348h-121v312c0 87 -44 137 -121 137c-76 0 -129 -52 -129 -139v-310h-120z" />
    <glyph glyph-name="Ncaron" unicode="&#x147;" horiz-adv-x="830" 
d="M596 925l-124 -138h-114l-124 138h102l80 -60l80 60h100zM99 0v728h113l398 -513v513h121v-728h-103l-408 527v-527h-121z" />
    <glyph glyph-name="ncaron" unicode="&#x148;" horiz-adv-x="652" 
d="M505 769l-120 -150h-112l-119 150h96l80 -69l80 69h95zM84 0v548h120v-86c36 52 88 97 174 97c124 0 197 -83 197 -211v-348h-121v312c0 87 -44 137 -121 137c-76 0 -129 -52 -129 -139v-310h-120z" />
    <glyph glyph-name="Ncommaaccent" unicode="&#x145;" horiz-adv-x="830" 
d="M99 0v728h113l398 -513v513h121v-728h-103l-408 527v-527h-121zM345 -274l-8 40c51 6 75 29 72 69h-55v103h120v-88c0 -83 -45 -120 -129 -124z" />
    <glyph glyph-name="ncommaaccent" unicode="&#x146;" horiz-adv-x="652" 
d="M84 0v548h120v-86c36 52 88 97 174 97c124 0 197 -83 197 -211v-348h-121v312c0 87 -44 137 -121 137c-76 0 -129 -52 -129 -139v-310h-120zM259 -279l-8 40c51 6 75 29 72 69h-55v103h120v-88c0 -83 -45 -120 -129 -124z" />
    <glyph glyph-name="Ntilde" unicode="&#xd1;" horiz-adv-x="830" 
d="M500 787c-30 0 -62 12 -91 23c-23 9 -44 17 -60 17c-30 0 -43 -16 -58 -50l-68 20c23 80 53 126 115 126c30 0 62 -12 91 -24c23 -9 44 -17 60 -17c30 0 42 16 57 50l68 -20c-22 -80 -53 -125 -114 -125zM99 0v728h113l398 -513v513h121v-728h-103l-408 527v-527h-121z
" />
    <glyph glyph-name="ntilde" unicode="&#xf1;" horiz-adv-x="652" 
d="M412 619c-30 0 -59 11 -85 22c-24 10 -46 19 -63 19c-30 0 -42 -16 -57 -51l-67 20c22 83 52 127 114 127c30 0 59 -11 85 -22c24 -10 46 -19 63 -19c30 0 42 16 57 51l67 -20c-22 -83 -52 -127 -114 -127zM84 0v548h120v-86c36 52 88 97 174 97c124 0 197 -83 197 -211
v-348h-121v312c0 87 -44 137 -121 137c-76 0 -129 -52 -129 -139v-310h-120z" />
    <glyph glyph-name="Oacute" unicode="&#xd3;" horiz-adv-x="892" 
d="M397 799l115 149l110 -49l-131 -100h-94zM445 -12c-223 0 -379 170 -379 374v2c0 204 158 376 381 376s379 -170 379 -374v-2c0 -204 -158 -376 -381 -376zM447 101c147 0 250 117 250 261v2c0 144 -105 263 -252 263s-250 -117 -250 -261v-2c0 -144 105 -263 252 -263z
" />
    <glyph glyph-name="oacute" unicode="&#xf3;" horiz-adv-x="690" 
d="M297 619l107 168l110 -50l-126 -118h-91zM344 -12c-167 0 -290 127 -290 283v2c0 156 124 286 292 286c167 0 290 -127 290 -284v-2c0 -156 -124 -285 -292 -285zM346 93c103 0 170 81 170 178v2c0 98 -72 181 -172 181c-103 0 -170 -82 -170 -179v-2
c0 -98 72 -180 172 -180z" />
    <glyph glyph-name="Obreve" unicode="&#x14e;" horiz-adv-x="892" 
d="M446 797c-99 0 -169 49 -177 137h86c13 -33 39 -52 91 -52s78 19 91 52h86c-8 -88 -78 -137 -177 -137zM445 -12c-223 0 -379 170 -379 374v2c0 204 158 376 381 376s379 -170 379 -374v-2c0 -204 -158 -376 -381 -376zM447 101c147 0 250 117 250 261v2
c0 144 -105 263 -252 263s-250 -117 -250 -261v-2c0 -144 105 -263 252 -263z" />
    <glyph glyph-name="obreve" unicode="&#x14f;" horiz-adv-x="690" 
d="M345 617c-99 0 -168 54 -175 148h83c12 -38 39 -64 92 -64s80 26 92 64h84c-8 -94 -77 -148 -176 -148zM344 -12c-167 0 -290 127 -290 283v2c0 156 124 286 292 286c167 0 290 -127 290 -284v-2c0 -156 -124 -285 -292 -285zM346 93c103 0 170 81 170 178v2
c0 98 -72 181 -172 181c-103 0 -170 -82 -170 -179v-2c0 -98 72 -180 172 -180z" />
    <glyph glyph-name="Ocircumflex" unicode="&#xd4;" horiz-adv-x="892" 
d="M265 799l124 138h114l124 -138h-102l-80 60l-80 -60h-100zM445 -12c-223 0 -379 170 -379 374v2c0 204 158 376 381 376s379 -170 379 -374v-2c0 -204 -158 -376 -381 -376zM447 101c147 0 250 117 250 261v2c0 144 -105 263 -252 263s-250 -117 -250 -261v-2
c0 -144 105 -263 252 -263z" />
    <glyph glyph-name="ocircumflex" unicode="&#xf4;" horiz-adv-x="690" 
d="M170 619l119 150h112l120 -150h-97l-80 69l-80 -69h-94zM344 -12c-167 0 -290 127 -290 283v2c0 156 124 286 292 286c167 0 290 -127 290 -284v-2c0 -156 -124 -285 -292 -285zM346 93c103 0 170 81 170 178v2c0 98 -72 181 -172 181c-103 0 -170 -82 -170 -179v-2
c0 -98 72 -180 172 -180z" />
    <glyph glyph-name="Odieresis" unicode="&#xd6;" horiz-adv-x="892" 
d="M277 799v113h126v-113h-126zM489 799v113h125v-113h-125zM445 -12c-223 0 -379 170 -379 374v2c0 204 158 376 381 376s379 -170 379 -374v-2c0 -204 -158 -376 -381 -376zM447 101c147 0 250 117 250 261v2c0 144 -105 263 -252 263s-250 -117 -250 -261v-2
c0 -144 105 -263 252 -263z" />
    <glyph glyph-name="odieresis" unicode="&#xf6;" horiz-adv-x="690" 
d="M183 619v120h124v-120h-124zM383 619v120h124v-120h-124zM344 -12c-167 0 -290 127 -290 283v2c0 156 124 286 292 286c167 0 290 -127 290 -284v-2c0 -156 -124 -285 -292 -285zM346 93c103 0 170 81 170 178v2c0 98 -72 181 -172 181c-103 0 -170 -82 -170 -179v-2
c0 -98 72 -180 172 -180z" />
    <glyph glyph-name="Ograve" unicode="&#xd2;" horiz-adv-x="892" 
d="M495 799h-95l-131 100l110 49zM445 -12c-223 0 -379 170 -379 374v2c0 204 158 376 381 376s379 -170 379 -374v-2c0 -204 -158 -376 -381 -376zM447 101c147 0 250 117 250 261v2c0 144 -105 263 -252 263s-250 -117 -250 -261v-2c0 -144 105 -263 252 -263z" />
    <glyph glyph-name="ograve" unicode="&#xf2;" horiz-adv-x="690" 
d="M302 619l-126 118l110 50l107 -168h-91zM344 -12c-167 0 -290 127 -290 283v2c0 156 124 286 292 286c167 0 290 -127 290 -284v-2c0 -156 -124 -285 -292 -285zM346 93c103 0 170 81 170 178v2c0 98 -72 181 -172 181c-103 0 -170 -82 -170 -179v-2
c0 -98 72 -180 172 -180z" />
    <glyph glyph-name="Ohungarumlaut" unicode="&#x150;" horiz-adv-x="892" 
d="M478 799l116 149l106 -49l-131 -100h-91zM299 799l115 149l107 -49l-131 -100h-91zM445 -12c-223 0 -379 170 -379 374v2c0 204 158 376 381 376s379 -170 379 -374v-2c0 -204 -158 -376 -381 -376zM447 101c147 0 250 117 250 261v2c0 144 -105 263 -252 263
s-250 -117 -250 -261v-2c0 -144 105 -263 252 -263z" />
    <glyph glyph-name="ohungarumlaut" unicode="&#x151;" horiz-adv-x="690" 
d="M203 619l106 168l107 -49l-125 -119h-88zM378 619l107 168l107 -49l-126 -119h-88zM344 -12c-167 0 -290 127 -290 283v2c0 156 124 286 292 286c167 0 290 -127 290 -284v-2c0 -156 -124 -285 -292 -285zM346 93c103 0 170 81 170 178v2c0 98 -72 181 -172 181
c-103 0 -170 -82 -170 -179v-2c0 -98 72 -180 172 -180z" />
    <glyph glyph-name="Omacron" unicode="&#x14c;" horiz-adv-x="892" 
d="M261 812v90h370v-90h-370zM445 -12c-223 0 -379 170 -379 374v2c0 204 158 376 381 376s379 -170 379 -374v-2c0 -204 -158 -376 -381 -376zM447 101c147 0 250 117 250 261v2c0 144 -105 263 -252 263s-250 -117 -250 -261v-2c0 -144 105 -263 252 -263z" />
    <glyph glyph-name="omacron" unicode="&#x14d;" horiz-adv-x="690" 
d="M170 632v88h350v-88h-350zM344 -12c-167 0 -290 127 -290 283v2c0 156 124 286 292 286c167 0 290 -127 290 -284v-2c0 -156 -124 -285 -292 -285zM346 93c103 0 170 81 170 178v2c0 98 -72 181 -172 181c-103 0 -170 -82 -170 -179v-2c0 -98 72 -180 172 -180z" />
    <glyph glyph-name="Oslash" unicode="&#xd8;" horiz-adv-x="892" 
d="M713 733h121l-103 -116c60 -67 95 -155 95 -251v-2c0 -204 -158 -376 -381 -376c-83 0 -156 23 -215 62l-51 -55h-121l102 116c-60 66 -94 155 -94 251v2c0 204 158 376 381 376c82 0 155 -23 215 -63zM193 365c0 -61 18 -117 50 -162l342 385c-40 26 -87 42 -140 42
c-148 0 -252 -119 -252 -264v-1zM447 98c148 0 253 119 253 264v1c0 61 -19 117 -51 162l-342 -385c39 -27 87 -42 140 -42z" />
    <glyph glyph-name="oslash" unicode="&#xf8;" horiz-adv-x="690" 
d="M541 554h111l-84 -94c43 -49 68 -114 68 -185v-2c0 -156 -124 -285 -292 -285c-60 0 -115 16 -160 44l-35 -37h-111l83 92c-43 50 -67 114 -67 184v2c0 156 124 286 292 286c60 0 114 -17 159 -45zM171 274c0 -38 10 -73 28 -102l235 259c-26 16 -57 26 -90 26
c-105 0 -173 -83 -173 -182v-1zM346 90c105 0 173 82 173 181v2c0 37 -10 72 -29 102l-234 -261c26 -15 56 -24 90 -24z" />
    <glyph glyph-name="Oslashacute" unicode="&#x1fe;" horiz-adv-x="892" 
d="M397 799l115 149l110 -49l-131 -100h-94zM713 733h121l-103 -116c60 -67 95 -155 95 -251v-2c0 -204 -158 -376 -381 -376c-83 0 -156 23 -215 62l-51 -55h-121l102 116c-60 66 -94 155 -94 251v2c0 204 158 376 381 376c82 0 155 -23 215 -63zM193 365
c0 -61 18 -117 50 -162l342 385c-40 26 -87 42 -140 42c-148 0 -252 -119 -252 -264v-1zM447 98c148 0 253 119 253 264v1c0 61 -19 117 -51 162l-342 -385c39 -27 87 -42 140 -42z" />
    <glyph glyph-name="oslashacute" unicode="&#x1ff;" horiz-adv-x="690" 
d="M297 619l107 168l110 -50l-126 -118h-91zM541 554h111l-84 -94c43 -49 68 -114 68 -185v-2c0 -156 -124 -285 -292 -285c-60 0 -115 16 -160 44l-35 -37h-111l83 92c-43 50 -67 114 -67 184v2c0 156 124 286 292 286c60 0 114 -17 159 -45zM171 274c0 -38 10 -73 28 -102
l235 259c-26 16 -57 26 -90 26c-105 0 -173 -83 -173 -182v-1zM346 90c105 0 173 82 173 181v2c0 37 -10 72 -29 102l-234 -261c26 -15 56 -24 90 -24z" />
    <glyph glyph-name="Otilde" unicode="&#xd5;" horiz-adv-x="892" 
d="M531 799c-30 0 -62 12 -91 23c-23 9 -44 17 -60 17c-30 0 -43 -16 -58 -50l-68 20c23 80 53 126 115 126c30 0 62 -12 91 -24c23 -9 44 -17 60 -17c30 0 42 16 57 50l68 -20c-22 -80 -53 -125 -114 -125zM445 -12c-223 0 -379 170 -379 374v2c0 204 158 376 381 376
s379 -170 379 -374v-2c0 -204 -158 -376 -381 -376zM447 101c147 0 250 117 250 261v2c0 144 -105 263 -252 263s-250 -117 -250 -261v-2c0 -144 105 -263 252 -263z" />
    <glyph glyph-name="otilde" unicode="&#xf5;" horiz-adv-x="690" 
d="M428 619c-30 0 -59 11 -85 22c-24 10 -46 19 -63 19c-30 0 -42 -16 -57 -51l-67 20c22 83 52 127 114 127c30 0 59 -11 85 -22c24 -10 46 -19 63 -19c30 0 42 16 57 51l67 -20c-22 -83 -52 -127 -114 -127zM344 -12c-167 0 -290 127 -290 283v2c0 156 124 286 292 286
c167 0 290 -127 290 -284v-2c0 -156 -124 -285 -292 -285zM346 93c103 0 170 81 170 178v2c0 98 -72 181 -172 181c-103 0 -170 -82 -170 -179v-2c0 -98 72 -180 172 -180z" />
    <glyph glyph-name="Racute" unicode="&#x154;" horiz-adv-x="760" 
d="M321 789l115 149l110 -49l-131 -100h-94zM222 366h191c93 0 154 49 154 125v2c0 79 -58 124 -155 124h-190v-251zM99 0v728h323c91 0 163 -27 210 -73c38 -38 59 -93 59 -156v-2c0 -119 -72 -191 -176 -219l200 -278h-146l-182 257h-165v-257h-123z" />
    <glyph glyph-name="racute" unicode="&#x155;" horiz-adv-x="436" 
d="M188 619l107 168l110 -50l-126 -118h-91zM84 0v548h120v-126c36 83 101 140 198 136v-127h-7c-111 0 -191 -74 -191 -221v-210h-120z" />
    <glyph glyph-name="Rcaron" unicode="&#x158;" horiz-adv-x="760" 
d="M551 927l-124 -138h-114l-124 138h102l80 -60l80 60h100zM222 366h191c93 0 154 49 154 125v2c0 79 -58 124 -155 124h-190v-251zM99 0v728h323c91 0 163 -27 210 -73c38 -38 59 -93 59 -156v-2c0 -119 -72 -191 -176 -219l200 -278h-146l-182 257h-165v-257h-123z" />
    <glyph glyph-name="rcaron" unicode="&#x159;" horiz-adv-x="436" 
d="M412 769l-120 -150h-112l-119 150h96l80 -69l80 69h95zM84 0v548h120v-126c36 83 101 140 198 136v-127h-7c-111 0 -191 -74 -191 -221v-210h-120z" />
    <glyph glyph-name="Rcommaaccent" unicode="&#x156;" horiz-adv-x="760" 
d="M222 366h191c93 0 154 49 154 125v2c0 79 -58 124 -155 124h-190v-251zM99 0v728h323c91 0 163 -27 210 -73c38 -38 59 -93 59 -156v-2c0 -119 -72 -191 -176 -219l200 -278h-146l-182 257h-165v-257h-123zM301 -274l-8 40c51 6 75 29 72 69h-55v103h120v-88
c0 -83 -45 -120 -129 -124z" />
    <glyph glyph-name="rcommaaccent" unicode="&#x157;" horiz-adv-x="436" 
d="M84 0v548h120v-126c36 83 101 140 198 136v-127h-7c-111 0 -191 -74 -191 -221v-210h-120zM82 -279l-8 40c51 6 75 29 72 69h-55v103h120v-88c0 -83 -45 -120 -129 -124z" />
    <glyph glyph-name="Sacute" unicode="&#x15a;" horiz-adv-x="674" 
d="M293 799l115 149l110 -49l-131 -100h-94zM353 -10c-112 0 -216 38 -303 116l74 88c70 -61 141 -95 232 -95c81 0 133 38 133 95v2c0 53 -30 82 -167 114c-157 37 -243 84 -243 217v2c0 123 103 209 247 209c107 0 190 -31 264 -91l-67 -93c-65 50 -131 75 -199 75
c-77 0 -123 -39 -123 -89v-2c0 -58 34 -85 177 -118c155 -37 233 -93 233 -212v-2c0 -135 -107 -216 -258 -216z" />
    <glyph glyph-name="sacute" unicode="&#x15b;" 
d="M220 619l107 168l110 -50l-126 -118h-91zM271 -10c-78 0 -164 27 -232 81l55 82c60 -44 123 -68 181 -68c55 0 88 25 88 63v2c0 44 -59 59 -124 79c-81 24 -172 56 -172 160v2c0 103 84 166 193 166c69 0 144 -24 201 -62l-48 -86c-53 32 -109 52 -155 52
c-51 0 -80 -24 -80 -57v-2c0 -41 59 -58 125 -80c80 -25 171 -60 171 -159v-2c0 -114 -89 -171 -203 -171z" />
    <glyph glyph-name="Scaron" unicode="&#x160;" horiz-adv-x="674" 
d="M523 937l-124 -138h-114l-124 138h102l80 -60l80 60h100zM353 -10c-112 0 -216 38 -303 116l74 88c70 -61 141 -95 232 -95c81 0 133 38 133 95v2c0 53 -30 82 -167 114c-157 37 -243 84 -243 217v2c0 123 103 209 247 209c107 0 190 -31 264 -91l-67 -93
c-65 50 -131 75 -199 75c-77 0 -123 -39 -123 -89v-2c0 -58 34 -85 177 -118c155 -37 233 -93 233 -212v-2c0 -135 -107 -216 -258 -216z" />
    <glyph glyph-name="scaron" unicode="&#x161;" 
d="M443 769l-120 -150h-112l-119 150h96l80 -69l80 69h95zM271 -10c-78 0 -164 27 -232 81l55 82c60 -44 123 -68 181 -68c55 0 88 25 88 63v2c0 44 -59 59 -124 79c-81 24 -172 56 -172 160v2c0 103 84 166 193 166c69 0 144 -24 201 -62l-48 -86c-53 32 -109 52 -155 52
c-51 0 -80 -24 -80 -57v-2c0 -41 59 -58 125 -80c80 -25 171 -60 171 -159v-2c0 -114 -89 -171 -203 -171z" />
    <glyph glyph-name="Scedilla" unicode="&#x15e;" horiz-adv-x="674" 
d="M322 -171l-106 45l81 120c-91 10 -175 47 -247 112l74 88c70 -61 141 -95 232 -95c81 0 133 38 133 95v2c0 53 -30 82 -167 114c-157 37 -243 84 -243 217v2c0 123 103 209 247 209c107 0 190 -31 264 -91l-67 -93c-65 50 -131 75 -199 75c-77 0 -123 -39 -123 -89v-2
c0 -58 34 -85 177 -118c155 -37 233 -93 233 -212v-2c0 -123 -89 -201 -219 -214z" />
    <glyph glyph-name="scedilla" unicode="&#x15f;" 
d="M236 -171l-106 45l82 121c-61 10 -122 35 -173 76l55 82c60 -44 123 -68 181 -68c55 0 88 25 88 63v2c0 44 -59 59 -124 79c-81 24 -172 56 -172 160v2c0 103 84 166 193 166c69 0 144 -24 201 -62l-48 -86c-53 32 -109 52 -155 52c-51 0 -80 -24 -80 -57v-2
c0 -41 59 -58 125 -80c80 -25 171 -60 171 -159v-2c0 -102 -71 -159 -168 -169z" />
    <glyph glyph-name="Scommaaccent" unicode="&#x218;" horiz-adv-x="674" 
d="M353 -10c-112 0 -216 38 -303 116l74 88c70 -61 141 -95 232 -95c81 0 133 38 133 95v2c0 53 -30 82 -167 114c-157 37 -243 84 -243 217v2c0 123 103 209 247 209c107 0 190 -31 264 -91l-67 -93c-65 50 -131 75 -199 75c-77 0 -123 -39 -123 -89v-2
c0 -58 34 -85 177 -118c155 -37 233 -93 233 -212v-2c0 -135 -107 -216 -258 -216zM273 -282l-8 40c51 6 75 29 72 69h-55v103h120v-88c0 -83 -45 -120 -129 -124z" />
    <glyph glyph-name="scommaaccent" unicode="&#x219;" 
d="M271 -10c-78 0 -164 27 -232 81l55 82c60 -44 123 -68 181 -68c55 0 88 25 88 63v2c0 44 -59 59 -124 79c-81 24 -172 56 -172 160v2c0 103 84 166 193 166c69 0 144 -24 201 -62l-48 -86c-53 32 -109 52 -155 52c-51 0 -80 -24 -80 -57v-2c0 -41 59 -58 125 -80
c80 -25 171 -60 171 -159v-2c0 -114 -89 -171 -203 -171zM198 -279l-8 40c51 6 75 29 72 69h-55v103h120v-88c0 -83 -45 -120 -129 -124z" />
    <glyph glyph-name="Tcaron" unicode="&#x164;" horiz-adv-x="678" 
d="M520 927l-124 -138h-114l-124 138h102l80 -60l80 60h100zM278 0v615h-233v113h588v-113h-232v-615h-123z" />
    <glyph glyph-name="tcaron" unicode="&#x165;" horiz-adv-x="434" 
d="M308 612l13 195h96v-4l-58 -191h-51zM268 -9c-92 0 -157 40 -157 159v294h-71v104h71v152h120v-152h150v-104h-150v-275c0 -50 26 -71 70 -71c28 0 53 7 78 19v-99c-31 -17 -65 -27 -111 -27z" />
    <glyph glyph-name="Tcommaaccent" unicode="&#x162;" horiz-adv-x="678" 
d="M278 0v615h-233v113h588v-113h-232v-615h-123zM270 -279l-8 40c51 6 75 29 72 69h-55v103h120v-88c0 -83 -45 -120 -129 -124z" />
    <glyph glyph-name="tcommaaccent" unicode="&#x163;" horiz-adv-x="434" 
d="M268 -9c-92 0 -157 40 -157 159v294h-71v104h71v152h120v-152h150v-104h-150v-275c0 -50 26 -71 70 -71c28 0 53 7 78 19v-99c-31 -17 -65 -27 -111 -27zM167 -279l-8 40c51 6 75 29 72 69h-55v103h120v-88c0 -83 -45 -120 -129 -124z" />
    <glyph glyph-name="Uacute" unicode="&#xda;" horiz-adv-x="796" 
d="M349 787l115 149l110 -49l-131 -100h-94zM396 -11c-188 0 -309 109 -309 320v419h123v-415c0 -137 71 -211 189 -211c115 0 186 69 186 206v420h123v-414c0 -216 -123 -325 -312 -325z" />
    <glyph glyph-name="uacute" unicode="&#xfa;" horiz-adv-x="652" 
d="M275 619l107 168l110 -50l-126 -118h-91zM275 -11c-125 0 -198 83 -198 211v348h121v-312c0 -87 45 -137 121 -137s129 52 129 139v310h120v-548h-120v86c-36 -52 -87 -97 -173 -97z" />
    <glyph glyph-name="Ubreve" unicode="&#x16c;" horiz-adv-x="796" 
d="M398 778c-99 0 -169 49 -177 137h86c13 -33 39 -52 91 -52s78 19 91 52h86c-8 -88 -78 -137 -177 -137zM396 -11c-188 0 -309 109 -309 320v419h123v-415c0 -137 71 -211 189 -211c115 0 186 69 186 206v420h123v-414c0 -216 -123 -325 -312 -325z" />
    <glyph glyph-name="ubreve" unicode="&#x16d;" horiz-adv-x="652" 
d="M322 617c-99 0 -168 54 -175 148h83c12 -38 39 -64 92 -64s80 26 92 64h84c-8 -94 -77 -148 -176 -148zM275 -11c-125 0 -198 83 -198 211v348h121v-312c0 -87 45 -137 121 -137s129 52 129 139v310h120v-548h-120v86c-36 -52 -87 -97 -173 -97z" />
    <glyph glyph-name="Ucircumflex" unicode="&#xdb;" horiz-adv-x="796" 
d="M217 787l124 138h114l124 -138h-102l-80 60l-80 -60h-100zM396 -11c-188 0 -309 109 -309 320v419h123v-415c0 -137 71 -211 189 -211c115 0 186 69 186 206v420h123v-414c0 -216 -123 -325 -312 -325z" />
    <glyph glyph-name="ucircumflex" unicode="&#xfb;" horiz-adv-x="652" 
d="M147 619l119 150h112l120 -150h-97l-80 69l-80 -69h-94zM275 -11c-125 0 -198 83 -198 211v348h121v-312c0 -87 45 -137 121 -137s129 52 129 139v310h120v-548h-120v86c-36 -52 -87 -97 -173 -97z" />
    <glyph glyph-name="Udieresis" unicode="&#xdc;" horiz-adv-x="796" 
d="M229 787v113h126v-113h-126zM441 787v113h125v-113h-125zM396 -11c-188 0 -309 109 -309 320v419h123v-415c0 -137 71 -211 189 -211c115 0 186 69 186 206v420h123v-414c0 -216 -123 -325 -312 -325z" />
    <glyph glyph-name="udieresis" unicode="&#xfc;" horiz-adv-x="652" 
d="M160 619v120h124v-120h-124zM360 619v120h124v-120h-124zM275 -11c-125 0 -198 83 -198 211v348h121v-312c0 -87 45 -137 121 -137s129 52 129 139v310h120v-548h-120v86c-36 -52 -87 -97 -173 -97z" />
    <glyph glyph-name="Ugrave" unicode="&#xd9;" horiz-adv-x="796" 
d="M447 787h-95l-131 100l110 49zM396 -11c-188 0 -309 109 -309 320v419h123v-415c0 -137 71 -211 189 -211c115 0 186 69 186 206v420h123v-414c0 -216 -123 -325 -312 -325z" />
    <glyph glyph-name="ugrave" unicode="&#xf9;" horiz-adv-x="652" 
d="M279 619l-126 118l110 50l107 -168h-91zM275 -11c-125 0 -198 83 -198 211v348h121v-312c0 -87 45 -137 121 -137s129 52 129 139v310h120v-548h-120v86c-36 -52 -87 -97 -173 -97z" />
    <glyph glyph-name="Uhungarumlaut" unicode="&#x170;" horiz-adv-x="796" 
d="M430 787l116 149l106 -49l-131 -100h-91zM251 787l115 149l107 -49l-131 -100h-91zM396 -11c-188 0 -309 109 -309 320v419h123v-415c0 -137 71 -211 189 -211c115 0 186 69 186 206v420h123v-414c0 -216 -123 -325 -312 -325z" />
    <glyph glyph-name="uhungarumlaut" unicode="&#x171;" horiz-adv-x="652" 
d="M180 619l106 168l107 -49l-125 -119h-88zM355 619l107 168l107 -49l-126 -119h-88zM275 -11c-125 0 -198 83 -198 211v348h121v-312c0 -87 45 -137 121 -137s129 52 129 139v310h120v-548h-120v86c-36 -52 -87 -97 -173 -97z" />
    <glyph glyph-name="Umacron" unicode="&#x16a;" horiz-adv-x="796" 
d="M213 800v90h370v-90h-370zM396 -11c-188 0 -309 109 -309 320v419h123v-415c0 -137 71 -211 189 -211c115 0 186 69 186 206v420h123v-414c0 -216 -123 -325 -312 -325z" />
    <glyph glyph-name="umacron" unicode="&#x16b;" horiz-adv-x="652" 
d="M147 632v88h350v-88h-350zM275 -11c-125 0 -198 83 -198 211v348h121v-312c0 -87 45 -137 121 -137s129 52 129 139v310h120v-548h-120v86c-36 -52 -87 -97 -173 -97z" />
    <glyph glyph-name="Uogonek" unicode="&#x172;" horiz-adv-x="796" 
d="M479 -112v-59c-11 -1 -22 -2 -31 -2c-89 2 -136 38 -136 88c0 28 12 52 34 77c-159 18 -259 125 -259 317v419h123v-415c0 -137 71 -211 189 -211c115 0 186 69 186 206v420h123v-414c0 -203 -108 -311 -277 -323c-20 -21 -27 -39 -27 -58c0 -29 24 -45 75 -45z" />
    <glyph glyph-name="uogonek" unicode="&#x173;" horiz-adv-x="652" 
d="M275 -11c-125 0 -198 83 -198 211v348h121v-312c0 -87 45 -137 121 -137s129 52 129 139v310h120v-548h-25c-26 -25 -36 -46 -36 -67c0 -29 24 -45 75 -45v-59c-11 -1 -22 -2 -31 -2c-89 2 -136 38 -136 88c0 31 15 57 42 85h-9v86c-36 -52 -87 -97 -173 -97z" />
    <glyph glyph-name="Uring" unicode="&#x16e;" horiz-adv-x="796" 
d="M398 765c-66 0 -122 45 -122 109c0 63 56 109 122 109s122 -46 122 -109c0 -64 -56 -109 -122 -109zM398 813c40 0 67 27 67 61s-27 60 -67 60s-67 -26 -67 -60s27 -61 67 -61zM396 -11c-188 0 -309 109 -309 320v419h123v-415c0 -137 71 -211 189 -211
c115 0 186 69 186 206v420h123v-414c0 -216 -123 -325 -312 -325z" />
    <glyph glyph-name="uring" unicode="&#x16f;" horiz-adv-x="652" 
d="M322 603c-66 0 -120 51 -120 115s54 116 120 116s120 -52 120 -116s-54 -115 -120 -115zM322 648c38 0 70 32 70 70s-32 70 -70 70s-70 -32 -70 -70s32 -70 70 -70zM275 -11c-125 0 -198 83 -198 211v348h121v-312c0 -87 45 -137 121 -137s129 52 129 139v310h120v-548
h-120v86c-36 -52 -87 -97 -173 -97z" />
    <glyph glyph-name="Wacute" unicode="&#x1e82;" horiz-adv-x="1168" 
d="M535 789l115 149l110 -49l-131 -100h-94zM297 -5l-255 733h133l178 -547l181 549h104l181 -549l178 547h128l-254 -733h-106l-181 531l-182 -531h-105z" />
    <glyph glyph-name="wacute" unicode="&#x1e83;" horiz-adv-x="903" 
d="M403 619l107 168l110 -50l-126 -118h-91zM218 -4l-180 552h124l114 -383l125 385h102l125 -385l116 383h121l-181 -552h-107l-125 381l-127 -381h-107z" />
    <glyph glyph-name="Wcircumflex" unicode="&#x174;" horiz-adv-x="1168" 
d="M403 789l124 138h114l124 -138h-102l-80 60l-80 -60h-100zM297 -5l-255 733h133l178 -547l181 549h104l181 -549l178 547h128l-254 -733h-106l-181 531l-182 -531h-105z" />
    <glyph glyph-name="wcircumflex" unicode="&#x175;" horiz-adv-x="903" 
d="M276 619l119 150h112l120 -150h-97l-80 69l-80 -69h-94zM218 -4l-180 552h124l114 -383l125 385h102l125 -385l116 383h121l-181 -552h-107l-125 381l-127 -381h-107z" />
    <glyph glyph-name="Wdieresis" unicode="&#x1e84;" horiz-adv-x="1168" 
d="M415 789v113h126v-113h-126zM627 789v113h125v-113h-125zM297 -5l-255 733h133l178 -547l181 549h104l181 -549l178 547h128l-254 -733h-106l-181 531l-182 -531h-105z" />
    <glyph glyph-name="wdieresis" unicode="&#x1e85;" horiz-adv-x="903" 
d="M289 619v120h124v-120h-124zM489 619v120h124v-120h-124zM218 -4l-180 552h124l114 -383l125 385h102l125 -385l116 383h121l-181 -552h-107l-125 381l-127 -381h-107z" />
    <glyph glyph-name="Wgrave" unicode="&#x1e80;" horiz-adv-x="1168" 
d="M633 789h-95l-131 100l110 49zM297 -5l-255 733h133l178 -547l181 549h104l181 -549l178 547h128l-254 -733h-106l-181 531l-182 -531h-105z" />
    <glyph glyph-name="wgrave" unicode="&#x1e81;" horiz-adv-x="903" 
d="M408 619l-126 118l110 50l107 -168h-91zM218 -4l-180 552h124l114 -383l125 385h102l125 -385l116 383h121l-181 -552h-107l-125 381l-127 -381h-107z" />
    <glyph glyph-name="Yacute" unicode="&#xdd;" horiz-adv-x="753" 
d="M327 787l115 149l110 -49l-131 -100h-94zM315 0v287l-291 441h145l208 -327l211 327h141l-291 -438v-290h-123z" />
    <glyph glyph-name="yacute" unicode="&#xfd;" horiz-adv-x="628" 
d="M267 619l107 168l110 -50l-126 -118h-91zM321 135l146 413h126l-219 -563c-44 -113 -93 -155 -181 -155c-51 0 -89 12 -128 33l41 91c23 -13 48 -22 75 -22c37 0 59 17 82 68l-231 548h129z" />
    <glyph glyph-name="Ycircumflex" unicode="&#x176;" horiz-adv-x="753" 
d="M195 787l124 138h114l124 -138h-102l-80 60l-80 -60h-100zM315 0v287l-291 441h145l208 -327l211 327h141l-291 -438v-290h-123z" />
    <glyph glyph-name="ycircumflex" unicode="&#x177;" horiz-adv-x="628" 
d="M140 619l119 150h112l120 -150h-97l-80 69l-80 -69h-94zM321 135l146 413h126l-219 -563c-44 -113 -93 -155 -181 -155c-51 0 -89 12 -128 33l41 91c23 -13 48 -22 75 -22c37 0 59 17 82 68l-231 548h129z" />
    <glyph glyph-name="Ydieresis" unicode="&#x178;" horiz-adv-x="753" 
d="M208 787v113h126v-113h-126zM420 787v113h125v-113h-125zM315 0v287l-291 441h145l208 -327l211 327h141l-291 -438v-290h-123z" />
    <glyph glyph-name="ydieresis" unicode="&#xff;" horiz-adv-x="628" 
d="M153 619v120h124v-120h-124zM353 619v120h124v-120h-124zM321 135l146 413h126l-219 -563c-44 -113 -93 -155 -181 -155c-51 0 -89 12 -128 33l41 91c23 -13 48 -22 75 -22c37 0 59 17 82 68l-231 548h129z" />
    <glyph glyph-name="Ygrave" unicode="&#x1ef2;" horiz-adv-x="753" 
d="M426 787h-95l-131 100l110 49zM315 0v287l-291 441h145l208 -327l211 327h141l-291 -438v-290h-123z" />
    <glyph glyph-name="ygrave" unicode="&#x1ef3;" horiz-adv-x="628" 
d="M271 619l-126 118l110 50l107 -168h-91zM321 135l146 413h126l-219 -563c-44 -113 -93 -155 -181 -155c-51 0 -89 12 -128 33l41 91c23 -13 48 -22 75 -22c37 0 59 17 82 68l-231 548h129z" />
    <glyph glyph-name="Zacute" unicode="&#x179;" horiz-adv-x="737" 
d="M327 789l115 149l110 -49l-131 -100h-94zM71 0v90l435 530h-420v108h581v-90l-435 -530h435v-108h-596z" />
    <glyph glyph-name="zacute" unicode="&#x17a;" horiz-adv-x="590" 
d="M250 619l107 168l110 -50l-126 -118h-91zM59 0v83l321 366h-310v99h464v-83l-321 -366h321v-99h-475z" />
    <glyph glyph-name="Zcaron" unicode="&#x17d;" horiz-adv-x="737" 
d="M557 927l-124 -138h-114l-124 138h102l80 -60l80 60h100zM71 0v90l435 530h-420v108h581v-90l-435 -530h435v-108h-596z" />
    <glyph glyph-name="zcaron" unicode="&#x17e;" horiz-adv-x="590" 
d="M474 769l-120 -150h-112l-119 150h96l80 -69l80 69h95zM59 0v83l321 366h-310v99h464v-83l-321 -366h321v-99h-475z" />
    <glyph glyph-name="Zdotaccent" unicode="&#x17b;" horiz-adv-x="737" 
d="M311 789v113h130v-113h-130zM71 0v90l435 530h-420v108h581v-90l-435 -530h435v-108h-596z" />
    <glyph glyph-name="zdotaccent" unicode="&#x17c;" horiz-adv-x="590" 
d="M234 619v121h128v-121h-128zM59 0v83l321 366h-310v99h464v-83l-321 -366h321v-99h-475z" />
    <glyph glyph-name="AE" unicode="&#xc6;" horiz-adv-x="1095" 
d="M302 287h209v334h-22zM17 0l410 728h600v-110h-394v-196h347v-110h-347v-202h399v-110h-521v177h-268l-99 -177h-127z" />
    <glyph glyph-name="ae" unicode="&#xe6;" horiz-adv-x="998" 
d="M536 311h290c-8 84 -57 149 -143 149c-79 0 -135 -61 -147 -149zM253 -11c-112 0 -206 60 -206 169v2c0 118 93 176 225 176c61 0 104 -9 147 -23v14c0 80 -48 123 -136 123c-61 0 -106 -13 -156 -34l-32 94c60 27 117 45 204 45c96 0 160 -32 193 -93
c44 60 112 97 195 97c169 0 259 -136 259 -294c0 -11 -1 -22 -2 -34h-406c13 -93 79 -144 161 -144c63 0 108 23 152 66l71 -63c-53 -62 -124 -102 -225 -102c-86 0 -163 35 -213 95c-60 -53 -136 -94 -231 -94zM273 78c62 0 119 28 167 73c-11 27 -18 55 -21 87
c-33 11 -75 21 -123 21c-83 0 -131 -36 -131 -94v-2c0 -53 49 -85 108 -85z" />
    <glyph glyph-name="AEacute" unicode="&#x1fc;" horiz-adv-x="1095" 
d="M602 789l115 149l110 -49l-131 -100h-94zM302 287h209v334h-22zM17 0l410 728h600v-110h-394v-196h347v-110h-347v-202h399v-110h-521v177h-268l-99 -177h-127z" />
    <glyph glyph-name="aeacute" unicode="&#x1fd;" horiz-adv-x="998" 
d="M448 619l107 168l110 -50l-126 -118h-91zM536 311h290c-8 84 -57 149 -143 149c-79 0 -135 -61 -147 -149zM253 -11c-112 0 -206 60 -206 169v2c0 118 93 176 225 176c61 0 104 -9 147 -23v14c0 80 -48 123 -136 123c-61 0 -106 -13 -156 -34l-32 94c60 27 117 45 204 45
c96 0 160 -32 193 -93c44 60 112 97 195 97c169 0 259 -136 259 -294c0 -11 -1 -22 -2 -34h-406c13 -93 79 -144 161 -144c63 0 108 23 152 66l71 -63c-53 -62 -124 -102 -225 -102c-86 0 -163 35 -213 95c-60 -53 -136 -94 -231 -94zM273 78c62 0 119 28 167 73
c-11 27 -18 55 -21 87c-33 11 -75 21 -123 21c-83 0 -131 -36 -131 -94v-2c0 -53 49 -85 108 -85z" />
    <glyph glyph-name="OE" unicode="&#x152;" horiz-adv-x="1154" 
d="M453 0c-229 0 -387 157 -387 362v2c0 205 158 364 387 364h633v-110h-393v-196h346v-110h-346v-202h398v-110h-638zM453 111h117v506h-117c-156 0 -258 -106 -258 -251v-2c0 -144 102 -253 258 -253z" />
    <glyph glyph-name="oe" unicode="&#x153;" horiz-adv-x="1090" 
d="M337 -12c-157 0 -283 127 -283 283v2c0 156 126 286 288 286c96 0 175 -47 222 -117c45 71 121 117 212 117c173 0 262 -136 262 -294c0 -11 -1 -22 -2 -34h-406c13 -93 79 -144 161 -144c63 0 108 23 152 66l71 -63c-53 -62 -124 -102 -224 -102c-96 0 -179 44 -227 118
c-48 -71 -129 -118 -226 -118zM629 311h289c-8 84 -57 149 -143 149c-79 0 -135 -61 -146 -149zM343 93c100 0 166 81 166 178v2c0 98 -71 181 -169 181c-100 0 -166 -83 -166 -179v-2c0 -98 71 -180 169 -180z" />
    <glyph glyph-name="Eth" unicode="&#xd0;" horiz-adv-x="852" 
d="M130 0v322h-78v89h78v317h269c229 0 387 -157 387 -362v-2c0 -205 -158 -364 -387 -364h-269zM439 322h-186v-211h146c156 0 259 106 259 251v2c0 144 -103 253 -259 253h-146v-206h186v-89z" />
    <glyph glyph-name="eth" unicode="&#xf0;" horiz-adv-x="690" 
d="M541 695l-84 -27c101 -102 178 -225 178 -368v-2c0 -173 -112 -310 -293 -310c-164 0 -288 127 -288 289v2c0 154 114 268 250 268c67 0 113 -24 156 -55c-26 45 -67 93 -115 140l-124 -40l-26 67l89 28c-30 25 -61 49 -92 72h164l42 -35l118 38zM346 93
c102 0 169 78 169 177v2c0 97 -71 175 -174 175s-167 -77 -167 -174v-2c0 -97 72 -178 172 -178z" />
    <glyph glyph-name="Thorn" unicode="&#xde;" horiz-adv-x="708" 
d="M99 0v728h123v-115h162c169 0 276 -96 276 -242v-2c0 -163 -131 -248 -290 -248h-148v-121h-123zM222 232h152c99 0 162 56 162 134v2c0 87 -64 133 -162 133h-152v-269z" />
    <glyph glyph-name="thorn" unicode="&#xfe;" horiz-adv-x="705" 
d="M366 93c88 0 161 69 161 180v2c0 109 -74 180 -161 180s-164 -72 -164 -180v-2c0 -108 77 -180 164 -180zM84 -166v925h120v-305c41 59 100 105 190 105c129 0 255 -102 255 -284v-2c0 -181 -125 -284 -255 -284c-92 0 -150 46 -190 98v-253h-120z" />
    <glyph glyph-name="uni018F" unicode="&#x18f;" horiz-adv-x="837" 
d="M98 603c71 83 171 137 307 137c211 0 365 -154 365 -374v-3c0 -208 -149 -375 -356 -375c-230 0 -348 179 -348 387v1c0 18 1 27 2 43h570c-19 128 -109 208 -233 208c-91 0 -162 -34 -228 -103zM414 99c123 0 208 88 225 214h-442c12 -124 93 -214 217 -214z" />
    <glyph glyph-name="schwa" unicode="&#x259;" horiz-adv-x="635" 
d="M301 560c158 0 280 -115 280 -284v-2c0 -157 -111 -285 -267 -285c-173 0 -261 136 -261 294c0 11 0 22 1 34h406c-13 93 -79 144 -161 144c-63 0 -108 -23 -151 -66l-72 63c53 62 124 102 225 102zM462 237h-290c9 -84 57 -149 143 -149c79 0 135 61 147 149z" />
    <glyph glyph-name="germandbls" unicode="&#xdf;" horiz-adv-x="653" 
d="M311 -2v93c104 3 165 42 165 115v2c0 69 -67 109 -165 121v83c69 32 122 77 122 147v2c0 62 -43 102 -109 102c-70 0 -120 -53 -120 -137v-526h-120v522c0 151 96 244 246 244c141 0 223 -85 223 -194v-2c0 -94 -56 -147 -118 -180c83 -26 162 -80 162 -185v-2
c0 -133 -111 -210 -286 -205z" />
    <glyph glyph-name="uni0386" unicode="&#x386;" horiz-adv-x="830" 
d="M70 526l14 202h121l-71 -202h-64zM283 287h260l-130 300zM36 0l322 733h114l321 -733h-129l-76 177h-350l-76 -177h-126z" />
    <glyph glyph-name="uni0388" unicode="&#x388;" horiz-adv-x="705" 
d="M99 0v728h538v-110h-416v-196h369v-110h-369v-202h421v-110h-543zM-84 526l14 202h121l-71 -202h-64z" />
    <glyph glyph-name="uni0389" unicode="&#x389;" horiz-adv-x="798" 
d="M-84 526l14 202h121l-71 -202h-64zM99 0v728h123v-305h355v305h123v-728h-123v309h-355v-309h-123z" />
    <glyph glyph-name="uni038A" unicode="&#x38a;" horiz-adv-x="335" 
d="M-81 526l14 202h121l-71 -202h-64zM106 0v728h123v-728h-123z" />
    <glyph glyph-name="uni038C" unicode="&#x38c;" horiz-adv-x="892" 
d="M445 -12c-223 0 -379 170 -379 374v2c0 204 158 376 381 376s379 -170 379 -374v-2c0 -204 -158 -376 -381 -376zM-52 526l14 202h121l-71 -202h-64zM447 101c147 0 250 117 250 261v2c0 144 -105 263 -252 263s-250 -117 -250 -261v-2c0 -144 105 -263 252 -263z" />
    <glyph glyph-name="uni038E" unicode="&#x38e;" horiz-adv-x="753" 
d="M-135 526l14 202h121l-71 -202h-64zM315 0v287l-291 441h145l208 -327l211 327h141l-291 -438v-290h-123z" />
    <glyph glyph-name="uni038F" unicode="&#x38f;" horiz-adv-x="912" 
d="M-50 526l14 202h121l-71 -202h-64zM457 740c228 0 369 -147 369 -340v-1c0 -132 -70 -223 -168 -294l188 1v-106h-317v103c96 66 168 143 168 283v1c0 141 -93 241 -242 240c-147 0 -240 -98 -240 -238v-1c0 -133 68 -215 168 -285v-103h-317v106l187 -1
c-98 73 -167 162 -167 295v1c0 183 140 340 371 339z" />
    <glyph glyph-name="uni0386.calt" horiz-adv-x="830" 
d="M283 287h260l-130 300zM36 0l322 733h114l321 -733h-129l-76 177h-350l-76 -177h-126z" />
    <glyph glyph-name="uni0388.calt" horiz-adv-x="705" 
d="M99 0v728h538v-110h-416v-196h369v-110h-369v-202h421v-110h-543z" />
    <glyph glyph-name="uni0389.calt" horiz-adv-x="798" 
d="M99 0v728h123v-305h355v305h123v-728h-123v309h-355v-309h-123z" />
    <glyph glyph-name="uni038A.calt" horiz-adv-x="335" 
d="M106 0v728h123v-728h-123z" />
    <glyph glyph-name="uni038C.calt" horiz-adv-x="892" 
d="M445 -12c-223 0 -379 170 -379 374v2c0 204 158 376 381 376s379 -170 379 -374v-2c0 -204 -158 -376 -381 -376zM447 101c147 0 250 117 250 261v2c0 144 -105 263 -252 263s-250 -117 -250 -261v-2c0 -144 105 -263 252 -263z" />
    <glyph glyph-name="uni038E.calt" horiz-adv-x="753" 
d="M315 0v287l-291 441h145l208 -327l211 327h141l-291 -438v-290h-123z" />
    <glyph glyph-name="uni038F.calt" horiz-adv-x="912" 
d="M457 740c228 0 369 -147 369 -340v-1c0 -132 -70 -223 -168 -294l188 1v-106h-317v103c96 66 168 143 168 283v1c0 141 -93 241 -242 240c-147 0 -240 -98 -240 -238v-1c0 -133 68 -215 168 -285v-103h-317v106l187 -1c-98 73 -167 162 -167 295v1c0 183 140 340 371 339
z" />
    <glyph glyph-name="uni0399.calt" horiz-adv-x="335" 
d="M-1 789v113h126v-113h-126zM211 789v113h125v-113h-125zM106 0v728h123v-728h-123z" />
    <glyph glyph-name="uni03A5.calt" horiz-adv-x="753" 
d="M208 787v113h126v-113h-126zM420 787v113h125v-113h-125zM315 0v287l-291 441h145l208 -327l211 327h141l-291 -438v-290h-123z" />
    <glyph glyph-name="uni03AA" unicode="&#x3aa;" horiz-adv-x="335" 
d="M-1 789v113h126v-113h-126zM211 789v113h125v-113h-125zM106 0v728h123v-728h-123z" />
    <glyph glyph-name="uni03AB" unicode="&#x3ab;" horiz-adv-x="753" 
d="M208 787v113h126v-113h-126zM420 787v113h125v-113h-125zM315 0v287l-291 441h145l208 -327l211 327h141l-291 -438v-290h-123z" />
    <glyph glyph-name="uni03AC" unicode="&#x3ac;" horiz-adv-x="745" 
d="M332 619l71 175l108 -47l-99 -128h-80zM339 93c87 0 164 72 164 180v2c0 108 -77 180 -164 180c-88 0 -161 -69 -161 -180v-2c0 -109 74 -180 161 -180zM718 98v-96c-18 -5 -40 -9 -71 -9c-76 0 -119 29 -136 94c-42 -55 -104 -98 -195 -98c-134 0 -260 102 -260 284v2
c0 181 124 284 255 284c92 0 150 -46 189 -98v87h121v-394c2 -42 23 -60 61 -60c14 0 27 1 36 4z" />
    <glyph glyph-name="uni03AD" unicode="&#x3ad;" horiz-adv-x="594" 
d="M263 619l71 175l108 -47l-99 -128h-80zM416 231h-120c-82 0 -120 -29 -120 -69v-1c0 -45 44 -74 130 -74c67 0 136 22 195 59l51 -81c-73 -50 -159 -76 -250 -76c-161 0 -244 66 -244 160v1c0 70 50 108 105 127c-52 22 -91 58 -91 121v2c0 88 81 158 235 158
c100 0 174 -28 239 -75l-60 -83c-49 36 -111 60 -175 60c-80 0 -121 -32 -121 -71v-1c0 -44 35 -67 105 -67h121v-90z" />
    <glyph glyph-name="uni03AE" unicode="&#x3ae;" horiz-adv-x="652" 
d="M288 619l71 175l108 -47l-99 -128h-80zM575 -166h-121v478c0 87 -44 137 -121 137c-76 0 -129 -52 -129 -139v-310h-120v548h120v-86c36 52 88 97 174 97c124 0 197 -83 197 -211v-514z" />
    <glyph glyph-name="uni03AF" unicode="&#x3af;" horiz-adv-x="327" 
d="M104 619l71 175l108 -47l-99 -128h-80zM82 156v392h120v-387c0 -47 22 -67 62 -67c14 0 26 1 36 4v-96c-19 -5 -41 -9 -73 -9c-97 0 -145 49 -145 163z" />
    <glyph glyph-name="uni03CC" unicode="&#x3cc;" horiz-adv-x="690" 
d="M304 619l71 175l108 -47l-99 -128h-80zM344 -12c-167 0 -290 127 -290 283v2c0 156 124 286 292 286c167 0 290 -127 290 -284v-2c0 -156 -124 -285 -292 -285zM346 93c103 0 170 81 170 178v2c0 98 -72 181 -172 181c-103 0 -170 -82 -170 -179v-2
c0 -98 72 -180 172 -180z" />
    <glyph glyph-name="uni03CD" unicode="&#x3cd;" horiz-adv-x="655" 
d="M286 619l71 175l108 -47l-99 -128h-80zM326 -12c-151 0 -249 82 -249 243v317h120v-312c0 -94 46 -144 131 -144c84 0 129 49 129 141v315h121v-314c0 -164 -100 -246 -252 -246z" />
    <glyph glyph-name="uni03CE" unicode="&#x3ce;" horiz-adv-x="924" 
d="M421 619l71 175l108 -47l-99 -128h-80zM403 442h118v-176c0 -106 41 -171 113 -171c68 0 110 55 110 164s-49 195 -127 289h132c66 -76 114 -173 114 -292c0 -163 -78 -268 -215 -268c-104 0 -161 65 -187 144c-27 -79 -83 -144 -188 -144c-136 0 -213 104 -213 268
c0 119 49 216 115 292h130c-79 -93 -126 -180 -126 -289c0 -107 43 -164 109 -164c73 0 115 65 115 171v176z" />
    <glyph glyph-name="uni03CA" unicode="&#x3ca;" horiz-adv-x="327" 
d="M-17 619v120h124v-120h-124zM183 619v120h124v-120h-124zM82 156v392h120v-387c0 -47 22 -67 62 -67c14 0 26 1 36 4v-96c-19 -5 -41 -9 -73 -9c-97 0 -145 49 -145 163z" />
    <glyph glyph-name="uni03CB" unicode="&#x3cb;" horiz-adv-x="655" 
d="M165 619v120h124v-120h-124zM365 619v120h124v-120h-124zM326 -12c-151 0 -249 82 -249 243v317h120v-312c0 -94 46 -144 131 -144c84 0 129 49 129 141v315h121v-314c0 -164 -100 -246 -252 -246z" />
    <glyph glyph-name="uni0390" unicode="&#x390;" horiz-adv-x="327" 
d="M90 619l44 198l105 -23l-80 -175h-69zM-53 619v119h111v-119h-111zM242 619v119h111v-119h-111zM82 156v392h120v-387c0 -47 22 -67 62 -67c14 0 26 1 36 4v-96c-19 -5 -41 -9 -73 -9c-97 0 -145 49 -145 163z" />
    <glyph glyph-name="uni03B0" unicode="&#x3b0;" horiz-adv-x="655" 
d="M267 619l44 198l105 -23l-80 -175h-69zM124 619v119h111v-119h-111zM419 619v119h111v-119h-111zM326 -12c-151 0 -249 82 -249 243v317h120v-312c0 -94 46 -144 131 -144c84 0 129 49 129 141v315h121v-314c0 -164 -100 -246 -252 -246z" />
    <glyph glyph-name="uni0462" unicode="&#x462;" horiz-adv-x="876" 
d="M580 413c153 0 250 -69 250 -202v-1c0 -127 -97 -210 -256 -210h-305v539h-226v102h226v98h122v-98h250v-101h-250v-127h189zM579 306h-189v-197h189c79 0 129 38 129 99v1c0 61 -43 97 -129 97z" />
    <glyph glyph-name="uni0472" unicode="&#x472;" horiz-adv-x="888" 
d="M443 -12c-221 0 -377 170 -377 374v2c0 204 158 376 379 376s377 -170 377 -374v-2c0 -204 -158 -376 -379 -376zM443 633c-133 0 -230 -89 -250 -212h501c-22 123 -120 212 -251 212zM445 95c134 0 231 91 250 217h-503c20 -126 120 -217 253 -217z" />
    <glyph glyph-name="uni0474" unicode="&#x474;" horiz-adv-x="830" 
d="M336 -5l-300 733h136l221 -568l148 377c56 145 123 193 249 193h19v-111h-6c-69 0 -110 -27 -146 -113l-213 -511h-108z" />
    <glyph glyph-name="uni0490" unicode="&#x490;" horiz-adv-x="650" 
d="M99 728h392v143h116v-255h-385v-616h-123v728z" />
    <glyph glyph-name="uni0404" unicode="&#x404;" horiz-adv-x="775" 
d="M433 -12c-212 0 -367 165 -367 374v2c0 207 153 376 373 376c134 0 215 -46 285 -113l-79 -89c-58 55 -120 91 -206 91c-127 0 -223 -88 -243 -210h360v-105h-360c18 -125 114 -215 243 -215c91 0 148 36 211 96l78 -79c-75 -78 -159 -128 -295 -128z" />
    <glyph glyph-name="uni0406" unicode="&#x406;" horiz-adv-x="335" 
d="M106 0v728h123v-728h-123z" />
    <glyph glyph-name="uni0407" unicode="&#x407;" horiz-adv-x="335" 
d="M-1 789v113h126v-113h-126zM211 789v113h125v-113h-125zM106 0v728h123v-728h-123z" />
    <glyph glyph-name="uni0402" unicode="&#x402;" horiz-adv-x="875" 
d="M627 728v-113h-238v-180c58 13 115 19 167 19c173 0 271 -81 271 -225c0 -137 -97 -231 -271 -231h-22v109h8c112 0 162 47 162 118c0 74 -48 120 -162 120c-49 0 -94 -5 -153 -18v-327h-123v615h-223v113h584z" />
    <glyph glyph-name="uni0408" unicode="&#x408;" horiz-adv-x="589" 
d="M259 -10c-112 0 -184 52 -232 118l81 83c43 -56 86 -88 149 -88c71 0 119 48 119 147v478h126v-481c0 -86 -25 -150 -68 -193s-103 -64 -175 -64z" />
    <glyph glyph-name="uni0409" unicode="&#x409;" horiz-adv-x="1089" 
d="M493 0v625h-5l-343 -625h-127l403 728h194v-245h147c170 0 281 -83 281 -238v-1c0 -152 -114 -245 -290 -244h-260zM615 111h142c98 0 162 48 162 132v1c0 83 -61 129 -160 129h-144v-262z" />
    <glyph glyph-name="uni040A" unicode="&#x40a;" horiz-adv-x="1163" 
d="M689 111h141c98 0 162 48 162 132v1c0 83 -60 129 -159 129h-144v-262zM566 0v309h-344v-309h-123v728h123v-305h344v305h123v-245h147c169 0 281 -83 281 -238v-1c0 -152 -114 -245 -290 -244h-261z" />
    <glyph glyph-name="uni040B" unicode="&#x40b;" horiz-adv-x="906" 
d="M627 728v-113h-238v-180c55 13 114 20 165 20c170 0 273 -74 273 -248v-207h-123v191c0 108 -53 153 -163 153c-48 0 -101 -6 -152 -19v-325h-123v615h-223v113h584z" />
    <glyph glyph-name="uni040F" unicode="&#x40f;" horiz-adv-x="798" 
d="M340 -150v150h-241v728h123v-616h351v616h123v-728h-240v-150h-116z" />
    <glyph glyph-name="uni040E" unicode="&#x40e;" horiz-adv-x="754" 
d="M388 785c-99 0 -169 49 -177 137h86c13 -33 39 -52 91 -52s78 19 91 52h86c-8 -88 -78 -137 -177 -137zM315 0h-137l147 251l-293 477h139l223 -368l200 368h137z" />
    <glyph glyph-name="uni0403" unicode="&#x403;" horiz-adv-x="650" 
d="M296 789l115 149l110 -49l-131 -100h-94zM99 0v728h508v-112h-385v-616h-123z" />
    <glyph glyph-name="uni0405" unicode="&#x405;" horiz-adv-x="674" 
d="M353 -10c-112 0 -216 38 -303 116l74 88c70 -61 141 -95 232 -95c81 0 133 38 133 95v2c0 53 -30 82 -167 114c-157 37 -243 84 -243 217v2c0 123 103 209 247 209c107 0 190 -31 264 -91l-67 -93c-65 50 -131 75 -199 75c-77 0 -123 -39 -123 -89v-2
c0 -58 34 -85 177 -118c155 -37 233 -93 233 -212v-2c0 -135 -107 -216 -258 -216z" />
    <glyph glyph-name="uni040C" unicode="&#x40c;" horiz-adv-x="769" 
d="M338 787l115 149l110 -49l-131 -100h-94zM99 0v728h123l-2 -305h85l277 305h155l-333 -352l351 -376h-159l-288 315h-88l2 -315h-123z" />
    <glyph glyph-name="uni0400" unicode="&#x400;" horiz-adv-x="705" 
d="M419 789h-95l-131 100l110 49zM99 0v728h538v-110h-416v-196h369v-110h-369v-202h421v-110h-543z" />
    <glyph glyph-name="uni040D" unicode="&#x40d;" horiz-adv-x="830" 
d="M464 787h-95l-131 100l110 49zM731 0h-123v535l-403 -535h-106v728h123v-521l392 521h117v-728z" />
    <glyph glyph-name="uni0492" unicode="&#x492;" horiz-adv-x="681" 
d="M130 0v305h-78v89h78v334h508v-112h-385v-222h188v-89h-188v-305h-123z" />
    <glyph glyph-name="uni0496" unicode="&#x496;" horiz-adv-x="1139" 
d="M1093 728l-305 -354l227 -262h108v-262h-116v150h-43l-272 316h-68l1 -316h-121l1 316h-72l-271 -316h-145l325 374l-306 354h147l259 -306h63l-1 306h121l-1 -306h63l260 306h146z" />
    <glyph glyph-name="uni0498" unicode="&#x498;" horiz-adv-x="697" 
d="M131 541l-75 83c74 66 164 116 294 116c165 0 267 -77 267 -195v-1c0 -89 -49 -143 -134 -171c90 -22 153 -74 153 -171v-1c0 -109 -89 -193 -239 -210l4 -141h-119l4 141c-103 11 -182 52 -242 104l73 88c63 -50 133 -85 226 -85c97 0 168 42 168 111v1
c0 68 -65 106 -172 105h-130v104h133c90 0 150 40 150 109v1c0 61 -55 102 -144 101c-87 0 -157 -38 -217 -89z" />
    <glyph glyph-name="uni049A" unicode="&#x49a;" horiz-adv-x="777" 
d="M99 0v728h123l-2 -305h85l277 305h155l-333 -352l246 -264h114v-262h-116v150h-52l-288 315h-88l2 -315h-123z" />
    <glyph glyph-name="uni049C" unicode="&#x49c;" horiz-adv-x="804" 
d="M762 728l-271 -348l284 -380h-147l-228 312h-1l2 -205h-80l1 209h-100v-316h-123v728h123v-305h100l-1 211h80l-2 -202h1l219 296h143z" />
    <glyph glyph-name="uni04A0" unicode="&#x4a0;" horiz-adv-x="942" 
d="M43 618v110h352l-2 -305h85l277 305h155l-333 -352l351 -376h-159l-288 315h-88l2 -315h-123v618h-229z" />
    <glyph glyph-name="uni04A2" unicode="&#x4a2;" horiz-adv-x="824" 
d="M99 0v728h123v-305h355v305h123v-616h85v-262h-116v150h-92v309h-355v-309h-123z" />
    <glyph glyph-name="uni04A4" unicode="&#x4a4;" horiz-adv-x="1069" 
d="M551 0v309h-345v-309h-123v728h123v-305h345v305h475v-112h-352v-616h-123z" />
    <glyph glyph-name="uni04AA" unicode="&#x4aa;" horiz-adv-x="777" 
d="M373 -150l4 143c-182 26 -311 179 -311 369v2c0 207 156 376 375 376c134 0 215 -46 285 -113l-80 -91c-58 55 -121 91 -206 91c-141 0 -245 -116 -245 -261v-2c0 -146 103 -263 245 -263c91 0 149 35 212 95l79 -80c-66 -68 -137 -114 -243 -125l5 -141h-120z" />
    <glyph glyph-name="uni04AE" unicode="&#x4ae;" horiz-adv-x="753" 
d="M315 0v287l-291 441h145l208 -327l211 327h141l-291 -438v-290h-123z" />
    <glyph glyph-name="uni04B0" unicode="&#x4b0;" horiz-adv-x="753" 
d="M315 0v208h-180v89h173l-284 431h145l208 -327l211 327h141l-287 -431h174v-89h-178v-208h-123z" />
    <glyph glyph-name="uni04B2" unicode="&#x4b2;" horiz-adv-x="785" 
d="M571 728h141l-256 -356l186 -260h115v-262h-116v150h-63l-197 282l-197 -282h-140l265 370l-255 358h144l186 -267z" />
    <glyph glyph-name="uni04B6" unicode="&#x4b6;" horiz-adv-x="774" 
d="M526 0v259c-55 -14 -120 -22 -172 -22c-168 0 -274 74 -274 248v243h123v-227c0 -108 53 -152 163 -152c52 0 108 7 160 22v357h123v-616h86v-262h-116v150h-93z" />
    <glyph glyph-name="uni04B8" unicode="&#x4b8;" horiz-adv-x="746" 
d="M524 0v259c-38 -10 -81 -17 -121 -20l1 -163h-79v161c-152 8 -247 83 -247 248v243h123v-227c0 -95 41 -140 125 -150l-1 211h79l-1 -212c40 2 82 10 121 21v357h123v-728h-123z" />
    <glyph glyph-name="uni04BA" unicode="&#x4ba;" horiz-adv-x="746" 
d="M217 728v-260c54 15 120 23 173 23c168 0 274 -74 274 -248v-243h-123v227c0 108 -53 152 -163 152c-53 0 -110 -7 -161 -23v-356h-123v728h123z" />
    <glyph glyph-name="uni04C0" unicode="&#x4c0;" horiz-adv-x="335" 
d="M106 0v728h123v-728h-123z" />
    <glyph glyph-name="uni04C1" unicode="&#x4c1;" horiz-adv-x="1129" 
d="M565 787c-99 0 -169 49 -177 137h86c13 -33 39 -52 91 -52s78 19 91 52h86c-8 -88 -78 -137 -177 -137zM36 728h147l259 -306h63l-1 306h121l-1 -306h63l260 306h146l-305 -354l324 -374h-148l-272 316h-68l1 -316h-121l1 316h-72l-271 -316h-145l325 374z" />
    <glyph glyph-name="uni04D0" unicode="&#x4d0;" horiz-adv-x="830" 
d="M415 797c-99 0 -169 49 -177 137h86c13 -33 39 -52 91 -52s78 19 91 52h86c-8 -88 -78 -137 -177 -137zM283 287h260l-130 300zM36 0l322 733h114l321 -733h-129l-76 177h-350l-76 -177h-126z" />
    <glyph glyph-name="uni04D2" unicode="&#x4d2;" horiz-adv-x="830" 
d="M246 799v113h126v-113h-126zM458 799v113h125v-113h-125zM283 287h260l-130 300zM36 0l322 733h114l321 -733h-129l-76 177h-350l-76 -177h-126z" />
    <glyph glyph-name="uni04D4" unicode="&#x4d4;" horiz-adv-x="1095" 
d="M302 287h209v334h-22zM17 0l410 728h600v-110h-394v-196h347v-110h-347v-202h399v-110h-521v177h-268l-99 -177h-127z" />
    <glyph glyph-name="uni04D6" unicode="&#x4d6;" horiz-adv-x="705" 
d="M370 787c-99 0 -169 49 -177 137h86c13 -33 39 -52 91 -52s78 19 91 52h86c-8 -88 -78 -137 -177 -137zM99 0v728h538v-110h-416v-196h369v-110h-369v-202h421v-110h-543z" />
    <glyph glyph-name="uni04D8" unicode="&#x4d8;" horiz-adv-x="837" 
d="M98 603c71 83 171 137 307 137c211 0 365 -154 365 -374v-3c0 -208 -149 -375 -356 -375c-230 0 -348 179 -348 387v1c0 18 1 27 2 43h570c-19 128 -109 208 -233 208c-91 0 -162 -34 -228 -103zM414 99c123 0 208 88 225 214h-442c12 -124 93 -214 217 -214z" />
    <glyph glyph-name="uni04DC" unicode="&#x4dc;" horiz-adv-x="1129" 
d="M396 789v113h126v-113h-126zM608 789v113h125v-113h-125zM36 728h147l259 -306h63l-1 306h121l-1 -306h63l260 306h146l-305 -354l324 -374h-148l-272 316h-68l1 -316h-121l1 316h-72l-271 -316h-145l325 374z" />
    <glyph glyph-name="uni04DE" unicode="&#x4de;" horiz-adv-x="697" 
d="M174 793v113h126v-113h-126zM386 793v113h125v-113h-125zM131 541l-75 83c74 66 164 116 294 116c165 0 267 -77 267 -195v-1c0 -89 -49 -143 -134 -171c90 -22 153 -74 153 -171v-1c0 -122 -111 -213 -296 -213c-129 0 -225 46 -296 107l73 88c63 -50 133 -85 226 -85
c97 0 168 42 168 111v1c0 68 -65 106 -172 105h-130v104h133c90 0 150 40 150 109v1c0 61 -55 102 -144 101c-87 0 -157 -38 -217 -89z" />
    <glyph glyph-name="uni04E2" unicode="&#x4e2;" horiz-adv-x="830" 
d="M230 800v90h370v-90h-370zM731 0h-123v535l-403 -535h-106v728h123v-521l392 521h117v-728z" />
    <glyph glyph-name="uni04E4" unicode="&#x4e4;" horiz-adv-x="830" 
d="M246 787v113h126v-113h-126zM458 787v113h125v-113h-125zM731 0h-123v535l-403 -535h-106v728h123v-521l392 521h117v-728z" />
    <glyph glyph-name="uni04E6" unicode="&#x4e6;" horiz-adv-x="892" 
d="M277 799v113h126v-113h-126zM489 799v113h125v-113h-125zM445 -12c-223 0 -379 170 -379 374v2c0 204 158 376 381 376s379 -170 379 -374v-2c0 -204 -158 -376 -381 -376zM447 101c147 0 250 117 250 261v2c0 144 -105 263 -252 263s-250 -117 -250 -261v-2
c0 -144 105 -263 252 -263z" />
    <glyph glyph-name="uni04E8" unicode="&#x4e8;" horiz-adv-x="888" 
d="M443 -12c-221 0 -377 170 -377 374v2c0 204 158 376 379 376s377 -170 377 -374v-2c0 -204 -158 -376 -379 -376zM443 633c-133 0 -230 -89 -250 -212h501c-22 123 -120 212 -251 212zM445 95c134 0 231 91 250 217h-503c20 -126 120 -217 253 -217z" />
    <glyph glyph-name="uni04EE" unicode="&#x4ee;" horiz-adv-x="754" 
d="M203 800v90h370v-90h-370zM315 0h-137l147 251l-293 477h139l223 -368l200 368h137z" />
    <glyph glyph-name="uni04F0" unicode="&#x4f0;" horiz-adv-x="754" 
d="M219 787v113h126v-113h-126zM431 787v113h125v-113h-125zM315 0h-137l147 251l-293 477h139l223 -368l200 368h137z" />
    <glyph glyph-name="uni04F2" unicode="&#x4f2;" horiz-adv-x="754" 
d="M420 787l116 149l106 -49l-131 -100h-91zM241 787l115 149l107 -49l-131 -100h-91zM315 0h-137l147 251l-293 477h139l223 -368l200 368h137z" />
    <glyph glyph-name="uni04F4" unicode="&#x4f4;" horiz-adv-x="748" 
d="M196 787v113h126v-113h-126zM408 787v113h125v-113h-125zM526 0v259c-55 -14 -120 -22 -172 -22c-168 0 -274 74 -274 248v243h123v-227c0 -108 53 -152 163 -152c52 0 108 7 160 22v357h123v-728h-123z" />
    <glyph glyph-name="uni04F8" unicode="&#x4f8;" horiz-adv-x="1004" 
d="M333 787v113h126v-113h-126zM545 787v113h125v-113h-125zM782 0v728h123v-728h-123zM99 0v728h123v-245h157c169 0 281 -83 281 -238v-1c0 -152 -114 -245 -290 -244h-271zM222 111h151c99 0 163 48 163 132v1c0 83 -61 129 -160 129h-154v-262z" />
    <glyph glyph-name="uni0431.srb" horiz-adv-x="675" 
d="M559 759v-103l-284 1c-29 0 -43 -12 -43 -28c0 -17 12 -27 40 -42l163 -85c113 -57 187 -128 187 -248v-1c0 -144 -113 -266 -288 -265c-165 0 -281 114 -281 261v1c0 126 81 222 220 241l-47 27c-72 39 -110 70 -110 133c0 58 47 108 159 108h284zM338 91
c98 0 165 68 165 163v1c0 94 -73 162 -165 161c-101 0 -166 -75 -166 -165v-1c0 -91 70 -160 166 -159z" />
    <glyph glyph-name="uni0463" unicode="&#x463;" horiz-adv-x="710" 
d="M320 347h142c127 0 208 -60 208 -171v-1c0 -106 -80 -175 -216 -175h-254v445h-168v103h168v211h120v-211h212v-102h-212v-99zM319 254v-159h133c63 0 98 30 98 80v1c0 47 -33 79 -97 78h-134z" />
    <glyph glyph-name="uni0473" unicode="&#x473;" horiz-adv-x="686" 
d="M342 -12c-165 0 -288 127 -288 283v2c0 156 124 286 290 286c165 0 288 -127 288 -284v-2c0 -156 -124 -285 -290 -285zM342 461c-90 0 -156 -58 -172 -140h345c-19 83 -87 140 -173 140zM344 86c90 0 156 58 172 142h-346c18 -84 87 -142 174 -142z" />
    <glyph glyph-name="uni0475" unicode="&#x475;" horiz-adv-x="643" 
d="M251 -4l-219 552h130l145 -408l90 237c47 130 98 174 207 174h17v-101h-2c-52 0 -82 -23 -113 -100l-146 -354h-109z" />
    <glyph glyph-name="uni0491" unicode="&#x491;" horiz-adv-x="530" 
d="M84 0v548h296v134h113v-243h-289v-439h-120z" />
    <glyph glyph-name="uni0454" unicode="&#x454;" horiz-adv-x="606" 
d="M559 475l-65 -83c-43 39 -87 66 -152 66c-85 0 -153 -55 -168 -135l256 1v-98l-257 1c14 -83 81 -138 172 -138c61 0 111 26 155 65l64 -75c-59 -56 -126 -91 -227 -91c-166 0 -283 126 -283 283v2c0 157 117 286 285 286c102 0 165 -33 220 -84z" />
    <glyph glyph-name="uni0456" unicode="&#x456;" horiz-adv-x="303" 
d="M86 636v116h131v-116h-131zM91 0v548h121v-548h-121z" />
    <glyph glyph-name="uni0457" unicode="&#x457;" horiz-adv-x="303" 
d="M-11 619v120h124v-120h-124zM189 619v120h124v-120h-124zM91 0v548h121v-548h-121z" />
    <glyph glyph-name="uni0452" unicode="&#x452;" horiz-adv-x="634" 
d="M382 583h-176v-139c36 10 86 19 132 19c140 0 223 -62 224 -204v-226c0 -136 -65 -203 -191 -203c-28 0 -48 3 -70 8v97c16 -4 32 -6 49 -6c55 0 89 27 91 104v215c0 77 -39 106 -120 106c-43 0 -78 -7 -115 -18v-336h-120v583h-108v96h108v80h120v-80h176v-96z" />
    <glyph glyph-name="uni0458" unicode="&#x458;" horiz-adv-x="303" 
d="M86 636v116h131v-116h-131zM56 -170c-24 0 -40 2 -60 6v96c13 -2 25 -3 36 -3c35 0 59 20 59 68v551h121v-558c0 -109 -57 -160 -156 -160z" />
    <glyph glyph-name="uni0459" unicode="&#x459;" horiz-adv-x="885" 
d="M385 0v453h-3l-244 -453h-126l294 548h199v-172h122c132 0 218 -68 218 -186v-1c0 -114 -82 -189 -226 -189h-234zM504 100h112c71 0 109 31 109 89v1c0 51 -37 89 -108 88h-113v-178z" />
    <glyph glyph-name="uni045A" unicode="&#x45a;" horiz-adv-x="957" 
d="M576 278v-178h112c71 0 109 31 109 89v1c0 51 -37 89 -108 88h-113zM577 548v-172h122c132 0 218 -68 218 -186v-1c0 -114 -82 -189 -226 -189h-234v221h-253v-221h-120v548h120v-216h253v216h120z" />
    <glyph glyph-name="uni045B" unicode="&#x45b;" horiz-adv-x="634" 
d="M206 759v-80h176v-96h-176v-139c36 10 86 19 132 19c140 0 224 -62 224 -204v-259h-121v248c0 77 -39 106 -120 106c-43 0 -78 -7 -115 -18v-336h-120v583h-108v96h108v80h120z" />
    <glyph glyph-name="uni045F" unicode="&#x45f;" horiz-adv-x="670" 
d="M84 0v548h120v-439h261v439h121v-548h-197v-137h-109v137h-196z" />
    <glyph glyph-name="uni045E" unicode="&#x45e;" horiz-adv-x="628" 
d="M315 617c-99 0 -168 54 -175 148h83c12 -38 39 -64 92 -64s80 26 92 64h84c-8 -94 -77 -148 -176 -148zM321 135l146 413h126l-219 -563c-44 -113 -93 -155 -181 -155c-51 0 -89 12 -128 33l41 91c23 -13 48 -22 75 -22c37 0 59 17 82 68l-231 548h129z" />
    <glyph glyph-name="uni0453" unicode="&#x453;" horiz-adv-x="530" 
d="M233 619l107 168l110 -50l-126 -118h-91zM84 0v548h409v-109h-289v-439h-120z" />
    <glyph glyph-name="uni0455" unicode="&#x455;" 
d="M271 -10c-78 0 -164 27 -232 81l55 82c60 -44 123 -68 181 -68c55 0 88 25 88 63v2c0 44 -59 59 -124 79c-81 24 -172 56 -172 160v2c0 103 84 166 193 166c69 0 144 -24 201 -62l-48 -86c-53 32 -109 52 -155 52c-51 0 -80 -24 -80 -57v-2c0 -41 59 -58 125 -80
c80 -25 171 -60 171 -159v-2c0 -114 -89 -171 -203 -171z" />
    <glyph glyph-name="uni045C" unicode="&#x45c;" horiz-adv-x="621" 
d="M271 619l107 168l110 -50l-126 -118h-91zM204 548v-219h67l178 219h148l-231 -268l239 -280h-146l-185 224h-70v-224h-120v548h120z" />
    <glyph glyph-name="uni0450" unicode="&#x450;" horiz-adv-x="635" 
d="M276 619l-126 118l110 50l107 -168h-91zM334 -12c-158 0 -280 115 -280 284v2c0 157 111 285 267 285c173 0 261 -136 261 -294c0 -11 0 -22 -1 -34h-406c13 -93 78 -144 161 -144c63 0 108 23 151 66l72 -63c-53 -62 -124 -102 -225 -102zM173 311h290
c-9 84 -57 149 -143 149c-79 0 -135 -61 -147 -149z" />
    <glyph glyph-name="uni045D" unicode="&#x45d;" horiz-adv-x="672" 
d="M292 619l-126 118l110 50l107 -168h-91zM84 0v548h120v-360l270 360h114v-548h-120v366l-275 -366h-109z" />
    <glyph glyph-name="uni0493" unicode="&#x493;" horiz-adv-x="550" 
d="M104 0v218h-72v74h72v256h409v-109h-289v-147h138v-74h-138v-218h-120z" />
    <glyph glyph-name="uni0497" unicode="&#x497;" horiz-adv-x="942" 
d="M907 548l-226 -268l143 -171h107v-246h-109v137h-49l-183 225h-66l1 -225h-118l1 225h-67l-182 -225h-142l235 274l-226 274h143l176 -220h63l-1 220h118l-1 -220h64l177 220h142z" />
    <glyph glyph-name="uni0499" unicode="&#x499;" horiz-adv-x="589" 
d="M42 66l60 82c55 -39 120 -61 187 -61c81 0 128 29 128 75v1c0 42 -44 69 -121 68h-119v90h118c71 0 107 26 107 69v1c0 43 -41 69 -112 69c-65 0 -123 -21 -178 -62l-63 77c64 52 143 84 247 84c137 0 224 -63 224 -154v-1c0 -67 -43 -104 -98 -124
c64 -17 113 -58 113 -129v-1c0 -78 -70 -146 -195 -159l5 -128h-114l5 128c-77 8 -140 34 -194 75z" />
    <glyph glyph-name="uni049B" unicode="&#x49b;" horiz-adv-x="624" 
d="M204 548v-219h67l178 219h148l-231 -268l146 -171h100v-246h-109v137h-44l-185 224h-70v-224h-120v548h120z" />
    <glyph glyph-name="uni049D" unicode="&#x49d;" horiz-adv-x="670" 
d="M639 548l-204 -261l205 -287h-137l-159 235h-10v-158h-65l1 158h-66v-235h-120v548h120v-219h66l-1 154h65v-154h11l158 219h136z" />
    <glyph glyph-name="uni04A1" unicode="&#x4a1;" horiz-adv-x="737" 
d="M320 548v-219h67l178 219h148l-231 -268l239 -280h-146l-185 224h-70v-224h-120v442h-168v106h288z" />
    <glyph glyph-name="uni04A3" unicode="&#x4a3;" horiz-adv-x="692" 
d="M84 0v548h120v-217h262v217h121v-439h68v-246h-109v137h-80v221h-262v-221h-120z" />
    <glyph glyph-name="uni04A5" unicode="&#x4a5;" horiz-adv-x="892" 
d="M457 0v221h-253v-221h-120v548h120v-216h253v216h399v-109h-279v-439h-120z" />
    <glyph glyph-name="uni04AB" unicode="&#x4ab;" horiz-adv-x="602" 
d="M275 -137l5 131c-133 25 -226 140 -226 277v2c0 156 120 286 284 286c103 0 168 -39 219 -95l-76 -81c-39 41 -80 71 -144 71c-94 0 -163 -81 -163 -179v-2c0 -100 70 -180 169 -180c60 0 104 28 145 69l73 -71c-47 -51 -99 -89 -177 -99l4 -129h-113z" />
    <glyph glyph-name="uni04AF" unicode="&#x4af;" horiz-adv-x="625" 
d="M593 548l-220 -531v-183h-121v186l-220 528h131l150 -401l153 401h127z" />
    <glyph glyph-name="uni04B1" unicode="&#x4b1;" horiz-adv-x="625" 
d="M533 74v-74h-160v-166h-121v166h-160v74h137l-197 474h131l150 -401l153 401h127l-197 -474h137z" />
    <glyph glyph-name="uni04B3" unicode="&#x4b3;" horiz-adv-x="620" 
d="M176 548l130 -187l131 187h129l-195 -267l124 -172h105v-246h-109v137h-49l-139 198l-138 -198h-129l202 279l-194 269h132z" />
    <glyph glyph-name="uni04B7" unicode="&#x4b7;" horiz-adv-x="646" 
d="M420 0v178c-36 -9 -86 -19 -132 -19c-140 0 -223 63 -223 205v184h120v-174c0 -76 39 -106 120 -106c43 0 79 8 115 19v261h121v-439h68v-246h-109v137h-80z" />
    <glyph glyph-name="uni04B9" unicode="&#x4b9;" horiz-adv-x="625" 
d="M420 0v178c-24 -6 -55 -13 -86 -17l1 -110h-65v108c-122 5 -205 63 -205 204v185h120v-172c0 -68 30 -98 85 -106v148h65l-1 -149c31 2 58 9 86 18v261h121v-548h-121z" />
    <glyph glyph-name="uni04BB" unicode="&#x4bb;" horiz-adv-x="652" 
d="M84 0v759h120v-297c36 52 88 97 174 97c124 0 197 -83 197 -211v-348h-121v312c0 87 -44 137 -121 137c-76 0 -129 -52 -129 -139v-310h-120z" />
    <glyph glyph-name="uni04CF" unicode="&#x4cf;" horiz-adv-x="303" 
d="M91 0v759h121v-759h-121z" />
    <glyph glyph-name="uni04C2" unicode="&#x4c2;" horiz-adv-x="932" 
d="M466 617c-99 0 -168 54 -175 148h83c12 -38 39 -64 92 -64s80 26 92 64h84c-8 -94 -77 -148 -176 -148zM525 548l-1 -220h64l177 220h142l-226 -268l234 -280h-142l-183 225h-66l1 -225h-118l1 225h-67l-182 -225h-142l235 274l-226 274h143l176 -220h63l-1 220h118z" />
    <glyph glyph-name="uni04D1" unicode="&#x4d1;" horiz-adv-x="617" 
d="M310 617c-99 0 -168 54 -175 148h83c12 -38 39 -64 92 -64s80 26 92 64h84c-8 -94 -77 -148 -176 -148zM275 77c86 0 151 49 151 120v40c-33 12 -77 22 -129 22c-83 0 -132 -36 -132 -94v-2c0 -55 49 -86 110 -86zM243 -11c-103 0 -196 59 -196 169v2
c0 118 93 176 227 176c62 0 107 -9 150 -23v14c0 80 -49 123 -139 123c-62 0 -108 -13 -158 -34l-32 94c60 27 119 45 206 45c81 0 142 -22 181 -61c40 -39 58 -96 58 -168v-326h-117v70c-37 -45 -95 -81 -180 -81z" />
    <glyph glyph-name="uni04D3" unicode="&#x4d3;" horiz-adv-x="617" 
d="M148 619v120h124v-120h-124zM348 619v120h124v-120h-124zM275 77c86 0 151 49 151 120v40c-33 12 -77 22 -129 22c-83 0 -132 -36 -132 -94v-2c0 -55 49 -86 110 -86zM243 -11c-103 0 -196 59 -196 169v2c0 118 93 176 227 176c62 0 107 -9 150 -23v14
c0 80 -49 123 -139 123c-62 0 -108 -13 -158 -34l-32 94c60 27 119 45 206 45c81 0 142 -22 181 -61c40 -39 58 -96 58 -168v-326h-117v70c-37 -45 -95 -81 -180 -81z" />
    <glyph glyph-name="uni04D5" unicode="&#x4d5;" horiz-adv-x="998" 
d="M536 311h290c-8 84 -57 149 -143 149c-79 0 -135 -61 -147 -149zM253 -11c-112 0 -206 60 -206 169v2c0 118 93 176 225 176c61 0 104 -9 147 -23v14c0 80 -48 123 -136 123c-61 0 -106 -13 -156 -34l-32 94c60 27 117 45 204 45c96 0 160 -32 193 -93
c44 60 112 97 195 97c169 0 259 -136 259 -294c0 -11 -1 -22 -2 -34h-406c13 -93 79 -144 161 -144c63 0 108 23 152 66l71 -63c-53 -62 -124 -102 -225 -102c-86 0 -163 35 -213 95c-60 -53 -136 -94 -231 -94zM273 78c62 0 119 28 167 73c-11 27 -18 55 -21 87
c-33 11 -75 21 -123 21c-83 0 -131 -36 -131 -94v-2c0 -53 49 -85 108 -85z" />
    <glyph glyph-name="uni04D7" unicode="&#x4d7;" horiz-adv-x="635" 
d="M319 617c-99 0 -168 54 -175 148h83c12 -38 39 -64 92 -64s80 26 92 64h84c-8 -94 -77 -148 -176 -148zM334 -12c-158 0 -280 115 -280 284v2c0 157 111 285 267 285c173 0 261 -136 261 -294c0 -11 0 -22 -1 -34h-406c13 -93 78 -144 161 -144c63 0 108 23 151 66
l72 -63c-53 -62 -124 -102 -225 -102zM173 311h290c-9 84 -57 149 -143 149c-79 0 -135 -61 -147 -149z" />
    <glyph glyph-name="uni04D9" unicode="&#x4d9;" horiz-adv-x="635" 
d="M301 560c158 0 280 -115 280 -284v-2c0 -157 -111 -285 -267 -285c-173 0 -261 136 -261 294c0 11 0 22 1 34h406c-13 93 -79 144 -161 144c-63 0 -108 -23 -151 -66l-72 63c53 62 124 102 225 102zM462 237h-290c9 -84 57 -149 143 -149c79 0 135 61 147 149z" />
    <glyph glyph-name="uni04DD" unicode="&#x4dd;" horiz-adv-x="932" 
d="M304 619v120h124v-120h-124zM504 619v120h124v-120h-124zM525 548l-1 -220h64l177 220h142l-226 -268l234 -280h-142l-183 225h-66l1 -225h-118l1 225h-67l-182 -225h-142l235 274l-226 274h143l176 -220h63l-1 220h118z" />
    <glyph glyph-name="uni04DF" unicode="&#x4df;" horiz-adv-x="589" 
d="M131 619v120h124v-120h-124zM331 619v120h124v-120h-124zM42 66l60 82c55 -39 120 -61 187 -61c81 0 128 29 128 75v1c0 42 -44 69 -121 68h-119v90h118c71 0 107 26 107 69v1c0 43 -41 69 -112 69c-65 0 -123 -21 -178 -62l-63 77c64 52 143 84 247 84
c137 0 224 -63 224 -154v-1c0 -67 -43 -104 -98 -124c64 -17 113 -58 113 -129v-1c0 -88 -88 -163 -245 -162c-102 0 -181 28 -248 78z" />
    <glyph glyph-name="uni04E3" unicode="&#x4e3;" horiz-adv-x="672" 
d="M160 632v88h350v-88h-350zM84 0v548h120v-360l270 360h114v-548h-120v366l-275 -366h-109z" />
    <glyph glyph-name="uni04E5" unicode="&#x4e5;" horiz-adv-x="672" 
d="M173 619v120h124v-120h-124zM373 619v120h124v-120h-124zM84 0v548h120v-360l270 360h114v-548h-120v366l-275 -366h-109z" />
    <glyph glyph-name="uni04E7" unicode="&#x4e7;" horiz-adv-x="690" 
d="M183 619v120h124v-120h-124zM383 619v120h124v-120h-124zM344 -12c-167 0 -290 127 -290 283v2c0 156 124 286 292 286c167 0 290 -127 290 -284v-2c0 -156 -124 -285 -292 -285zM346 93c103 0 170 81 170 178v2c0 98 -72 181 -172 181c-103 0 -170 -82 -170 -179v-2
c0 -98 72 -180 172 -180z" />
    <glyph glyph-name="uni04E9" unicode="&#x4e9;" horiz-adv-x="686" 
d="M342 -12c-165 0 -288 127 -288 283v2c0 156 124 286 290 286c165 0 288 -127 288 -284v-2c0 -156 -124 -285 -290 -285zM342 461c-90 0 -156 -58 -172 -140h345c-19 83 -87 140 -173 140zM344 86c90 0 156 58 172 142h-346c18 -84 87 -142 174 -142z" />
    <glyph glyph-name="uni04EF" unicode="&#x4ef;" horiz-adv-x="628" 
d="M140 632v88h350v-88h-350zM321 135l146 413h126l-219 -563c-44 -113 -93 -155 -181 -155c-51 0 -89 12 -128 33l41 91c23 -13 48 -22 75 -22c37 0 59 17 82 68l-231 548h129z" />
    <glyph glyph-name="uni04F1" unicode="&#x4f1;" horiz-adv-x="628" 
d="M153 619v120h124v-120h-124zM353 619v120h124v-120h-124zM321 135l146 413h126l-219 -563c-44 -113 -93 -155 -181 -155c-51 0 -89 12 -128 33l41 91c23 -13 48 -22 75 -22c37 0 59 17 82 68l-231 548h129z" />
    <glyph glyph-name="uni04F3" unicode="&#x4f3;" horiz-adv-x="628" 
d="M172 619l106 168l107 -49l-125 -119h-88zM347 619l107 168l107 -49l-126 -119h-88zM321 135l146 413h126l-219 -563c-44 -113 -93 -155 -181 -155c-51 0 -89 12 -128 33l41 91c23 -13 48 -22 75 -22c37 0 59 17 82 68l-231 548h129z" />
    <glyph glyph-name="uni04F5" unicode="&#x4f5;" horiz-adv-x="625" 
d="M141 619v120h124v-120h-124zM341 619v120h124v-120h-124zM420 0v178c-36 -9 -86 -19 -132 -19c-140 0 -223 63 -223 205v184h120v-174c0 -76 39 -106 120 -106c43 0 79 8 115 19v261h121v-548h-121z" />
    <glyph glyph-name="uni04F9" unicode="&#x4f9;" horiz-adv-x="847" 
d="M261 619v120h124v-120h-124zM461 619v120h124v-120h-124zM642 0v548h121v-548h-121zM204 548v-172h132c133 0 218 -68 218 -186v-1c0 -114 -82 -189 -226 -189h-244v548h120zM203 278v-178h122c72 0 109 31 109 89v1c0 51 -36 89 -108 88h-123z" />
    <glyph glyph-name="zero" unicode="0" horiz-adv-x="760" 
d="M379 -12c-191 0 -315 166 -315 374v2c0 207 126 376 317 376c190 0 315 -166 315 -374v-2c0 -207 -126 -376 -317 -376zM381 99c116 0 188 118 188 263v2c0 145 -75 265 -190 265s-188 -117 -188 -263v-2c0 -145 74 -265 190 -265z" />
    <glyph glyph-name="one" unicode="1" horiz-adv-x="415" 
d="M189 0v608l-131 -37l-27 100l194 62h86v-733h-122z" />
    <glyph glyph-name="two" unicode="2" horiz-adv-x="644" 
d="M55 0v97l252 215c101 87 138 134 138 200c0 73 -53 116 -121 116c-69 0 -115 -37 -171 -110l-87 68c69 97 138 152 267 152c141 0 238 -87 238 -216v-2c0 -114 -59 -176 -188 -282l-155 -130h351v-108h-524z" />
    <glyph glyph-name="three" unicode="3" horiz-adv-x="650" 
d="M327 -12c-126 0 -216 52 -278 127l87 80c52 -62 112 -97 193 -97c74 0 130 45 130 114v2c0 74 -68 115 -172 115h-57l-21 77l201 215h-320v107h479v-92l-206 -213c113 -13 218 -70 218 -204v-2c0 -134 -104 -229 -254 -229z" />
    <glyph glyph-name="three.alt" horiz-adv-x="641" 
d="M327 -12c-119 0 -216 51 -282 127l85 79c51 -58 114 -96 199 -96c81 0 134 43 134 109v2c0 68 -61 106 -165 106h-77v104h81c86 0 141 42 141 108v2c0 58 -49 101 -129 101c-71 0 -121 -36 -168 -94l-86 70c62 82 136 134 256 134c149 0 249 -81 249 -194v-2
c0 -92 -50 -142 -111 -170c75 -28 131 -77 131 -166v-2c0 -123 -98 -218 -258 -218z" />
    <glyph glyph-name="four" unicode="4" horiz-adv-x="715" 
d="M435 0v164h-369l-24 88l406 481h105v-468h105v-101h-105v-164h-118zM188 265h247v298z" />
    <glyph glyph-name="five" unicode="5" horiz-adv-x="654" 
d="M320 -12c-110 0 -198 45 -266 112l76 88c59 -55 121 -89 189 -89c90 0 148 52 148 130v2c0 76 -63 125 -154 125c-53 0 -98 -16 -136 -34l-75 49l21 357h434v-109h-328l-12 -178c35 13 69 22 119 22c141 0 253 -76 253 -228v-2c0 -148 -109 -245 -269 -245z" />
    <glyph glyph-name="six" unicode="6" horiz-adv-x="689" 
d="M354 -12c-88 0 -153 27 -202 76c-55 55 -88 131 -88 278v2c0 223 106 396 311 396c93 0 158 -30 222 -81l-67 -95c-51 41 -95 65 -160 65c-129 0 -178 -134 -180 -242h1c43 46 98 79 178 78c140 0 254 -84 254 -228v-2c0 -145 -116 -247 -269 -247zM351 94
c93 0 149 59 149 135v2c0 75 -60 131 -151 131c-94 0 -152 -61 -152 -132v-2c0 -76 62 -134 154 -134z" />
    <glyph glyph-name="seven" unicode="7" horiz-adv-x="640" 
d="M118 0l327 620h-370v108h509v-92l-328 -636h-138z" />
    <glyph glyph-name="eight" unicode="8" horiz-adv-x="663" 
d="M332 -10c-159 0 -278 83 -278 208v2c0 87 51 144 133 177c-61 33 -108 82 -108 163v2c0 112 109 196 253 196s252 -83 252 -196v-2c0 -81 -46 -130 -108 -163c80 -35 133 -88 133 -174v-2c0 -131 -119 -211 -277 -211zM332 419c77 0 133 45 133 109v3
c0 57 -54 104 -133 104c-80 0 -134 -46 -134 -104v-2c0 -64 56 -110 134 -110zM332 93c98 0 156 50 156 112v2c0 68 -68 113 -156 113c-89 0 -157 -45 -157 -113v-2c0 -61 58 -112 157 -112z" />
    <glyph glyph-name="nine" unicode="9" horiz-adv-x="689" 
d="M341 360c94 0 152 62 152 135v2c0 78 -62 137 -156 137c-93 0 -148 -62 -148 -139v-2c0 -78 60 -133 152 -133zM318 99c130 0 181 135 182 238h-1c-42 -48 -98 -81 -176 -80c-154 0 -257 91 -257 230v2c0 143 110 251 270 251c91 0 150 -26 201 -77
c54 -53 88 -133 88 -278v-2c0 -233 -116 -395 -310 -395c-101 0 -171 36 -232 87l66 94c56 -47 106 -70 169 -70z" />
    <glyph glyph-name="period" unicode="." horiz-adv-x="285" 
d="M76 0v139h133v-139h-133z" />
    <glyph glyph-name="comma" unicode="," horiz-adv-x="285" 
d="M54 -148l-13 51c62 13 91 45 87 97h-52v139h133v-118c0 -112 -53 -160 -155 -169z" />
    <glyph glyph-name="colon" unicode=":" horiz-adv-x="295" 
d="M81 409v139h133v-139h-133zM81 0v139h133v-139h-133z" />
    <glyph glyph-name="semicolon" unicode=";" horiz-adv-x="295" 
d="M81 409v139h133v-139h-133zM59 -148l-13 51c62 13 91 45 87 97h-52v139h133v-118c0 -112 -52 -160 -155 -169z" />
    <glyph glyph-name="ellipsis" unicode="&#x2026;" horiz-adv-x="823" 
d="M76 0v136h130v-136h-130zM347 0v136h130v-136h-130zM617 0v136h131v-136h-131z" />
    <glyph glyph-name="periodcentered" unicode="&#xb7;" horiz-adv-x="285" 
d="M76 248v139h133v-139h-133z" />
    <glyph glyph-name="ampersand" unicode="&#x26;" horiz-adv-x="732" 
d="M606 -15l-99 101c-63 -59 -136 -96 -225 -96c-135 0 -237 81 -237 207v2c0 94 57 162 158 204c-43 54 -62 100 -62 153v2c0 98 79 182 207 182c114 0 192 -77 192 -174v-2c0 -95 -64 -153 -162 -189l130 -132c28 42 54 90 79 143l93 -49c-30 -59 -62 -117 -100 -168
l117 -118zM313 441c77 27 117 63 117 116v2c0 50 -35 84 -85 84c-53 0 -90 -37 -90 -89v-2c0 -37 15 -65 58 -111zM294 91c53 0 100 26 143 67l-166 170c-72 -30 -102 -77 -102 -124v-2c0 -65 52 -111 125 -111z" />
    <glyph glyph-name="exclam" unicode="!" horiz-adv-x="319" 
d="M126 228l-37 461v39h141v-39l-37 -461h-67zM93 0v139h133v-139h-133z" />
    <glyph glyph-name="exclamdown" unicode="&#xa1;" horiz-adv-x="319" 
d="M93 589v139h133v-139h-133zM89 0v39l37 462h67l37 -462v-39h-141z" />
    <glyph glyph-name="question" unicode="?" horiz-adv-x="570" 
d="M221 228l-21 168l5 5c134 5 194 49 194 120v2c0 60 -46 103 -122 103c-67 0 -122 -30 -172 -84l-75 79c60 69 137 116 250 116c145 0 242 -82 242 -211v-2c0 -131 -94 -190 -210 -210l-11 -86h-80zM192 0v139h134v-139h-134z" />
    <glyph glyph-name="questiondown" unicode="&#xbf;" horiz-adv-x="570" 
d="M245 589v139h133v-139h-133zM291 -9c-146 0 -243 82 -243 211v2c0 131 94 190 210 210l11 87h81l20 -169l-5 -5c-134 -5 -194 -49 -194 -120v-2c0 -60 46 -103 122 -103c67 0 122 30 172 84l75 -79c-60 -69 -137 -116 -249 -116z" />
    <glyph glyph-name="quotedblleft" unicode="&#x201c;" horiz-adv-x="522" 
d="M71 446v118c0 112 53 159 155 169l13 -51c-62 -13 -91 -45 -87 -97h52v-139h-133zM308 446v118c0 112 53 159 155 169l13 -51c-62 -13 -91 -45 -86 -97h51v-139h-133z" />
    <glyph glyph-name="quotedblright" unicode="&#x201d;" horiz-adv-x="522" 
d="M59 440l-13 52c62 13 91 45 87 97h-52v139h133v-118c0 -112 -52 -160 -155 -170zM296 440l-13 52c63 13 91 45 87 97h-52v139h134v-118c0 -112 -53 -160 -156 -170z" />
    <glyph glyph-name="quoteleft" unicode="&#x2018;" horiz-adv-x="285" 
d="M71 446v118c0 112 53 159 155 169l13 -51c-62 -13 -91 -45 -87 -97h52v-139h-133z" />
    <glyph glyph-name="quoteright" unicode="&#x2019;" horiz-adv-x="285" 
d="M59 440l-13 52c62 13 91 45 87 97h-52v139h133v-118c0 -112 -52 -160 -155 -170z" />
    <glyph glyph-name="quotedblbase" unicode="&#x201e;" horiz-adv-x="522" 
d="M54 -148l-13 51c62 13 91 45 87 97h-52v139h133v-118c0 -112 -53 -160 -155 -169zM291 -148l-13 51c62 13 91 45 87 97h-52v139h134v-118c0 -112 -53 -160 -156 -169z" />
    <glyph glyph-name="quotesinglbase" unicode="&#x201a;" horiz-adv-x="285" 
d="M54 -148l-13 51c62 13 91 45 87 97h-52v139h133v-118c0 -112 -53 -160 -155 -169z" />
    <glyph glyph-name="guillemotleft" unicode="&#xab;" horiz-adv-x="631" 
d="M229 44l-179 226v8l179 226l85 -44l-131 -185l131 -186zM487 44l-179 226v8l179 226l85 -44l-131 -185l131 -186z" />
    <glyph glyph-name="guillemotright" unicode="&#xbb;" horiz-adv-x="631" 
d="M145 44l-86 44l131 185l-131 186l86 45l178 -226v-8zM403 44l-85 44l130 185l-130 186l85 45l178 -226v-8z" />
    <glyph glyph-name="guilsinglleft" unicode="&#x2039;" horiz-adv-x="373" 
d="M229 44l-179 226v8l179 226l85 -44l-131 -185l131 -186z" />
    <glyph glyph-name="guilsinglright" unicode="&#x203a;" horiz-adv-x="373" 
d="M145 44l-86 44l131 185l-131 186l86 45l178 -226v-8z" />
    <glyph glyph-name="hyphen" unicode="-" horiz-adv-x="432" 
d="M63 258v119h306v-119h-306z" />
    <glyph glyph-name="endash" unicode="&#x2013;" horiz-adv-x="557" 
d="M63 260v115h431v-115h-431z" />
    <glyph glyph-name="emdash" unicode="&#x2014;" horiz-adv-x="942" 
d="M63 260v115h816v-115h-816z" />
    <glyph glyph-name="underscore" unicode="_" horiz-adv-x="632" 
d="M2 -166v94h628v-94h-628z" />
    <glyph glyph-name="slash" unicode="/" horiz-adv-x="548" 
d="M-21 -133l471 963h105l-471 -963h-105z" />
    <glyph glyph-name="backslash" unicode="\" horiz-adv-x="548" 
d="M465 -133l-472 963h105l472 -963h-105z" />
    <glyph glyph-name="bar" unicode="|" horiz-adv-x="349" 
d="M126 -133v963h97v-963h-97z" />
    <glyph glyph-name="parenleft" unicode="(" horiz-adv-x="465" 
d="M358 -147c-189 104 -288 250 -288 445v1c0 194 99 342 288 445l53 -81c-149 -99 -220 -208 -220 -365v-1c0 -154 71 -265 220 -363z" />
    <glyph glyph-name="parenright" unicode=")" horiz-adv-x="465" 
d="M108 -147l-53 81c148 99 220 208 220 364v1c0 155 -72 266 -220 364l53 81c188 -104 288 -250 288 -446v-1c0 -193 -100 -341 -288 -444z" />
    <glyph glyph-name="bracketleft" unicode="[" horiz-adv-x="479" 
d="M96 -135v863h318v-94h-203v-675h203v-94h-318z" />
    <glyph glyph-name="bracketright" unicode="]" horiz-adv-x="479" 
d="M65 -135v94h203v675h-203v94h318v-863h-318z" />
    <glyph glyph-name="braceleft" unicode="{" horiz-adv-x="514" 
d="M437 -147c-189 34 -235 101 -235 208c0 16 2 58 2 76c0 81 -31 115 -118 115h-27v93h27c87 0 118 34 118 115c0 18 -2 60 -2 76c0 107 46 174 235 208l20 -80c-127 -35 -144 -67 -144 -145c0 -21 2 -56 2 -78c0 -81 -39 -121 -108 -143c70 -22 108 -61 108 -143
c0 -21 -2 -56 -2 -77c0 -78 17 -110 144 -145z" />
    <glyph glyph-name="braceright" unicode="}" horiz-adv-x="514" 
d="M77 -147l-20 80c127 35 144 67 144 145c0 21 -3 56 -3 77c0 82 40 122 109 143c-70 23 -109 62 -109 143c0 22 3 57 3 78c0 78 -17 110 -144 145l20 80c189 -34 235 -101 235 -208c0 -16 -2 -58 -2 -76c0 -81 31 -115 118 -115h27v-93h-27c-87 0 -118 -34 -118 -115
c0 -18 2 -60 2 -76c0 -107 -46 -174 -235 -208z" />
    <glyph glyph-name="at" unicode="@" horiz-adv-x="1027" 
d="M523 -168c-266 0 -464 204 -464 453s201 455 456 455c254 0 453 -196 453 -411c0 -175 -95 -258 -201 -258c-80 0 -130 34 -153 74c-38 -40 -89 -74 -162 -74c-104 0 -188 76 -188 195c0 147 116 260 236 260c76 0 120 -37 148 -78l12 63l97 -15l-45 -259
c-3 -19 -5 -37 -5 -47c0 -45 30 -75 82 -75c74 0 138 71 138 214c0 191 -177 373 -412 373c-237 0 -415 -188 -415 -417c0 -230 176 -415 423 -415c103 0 178 24 257 70l19 -30c-81 -49 -168 -78 -276 -78zM479 157c35 0 69 16 94 42c31 31 52 76 52 126
c0 67 -47 114 -111 114c-36 0 -70 -15 -97 -43c-31 -30 -50 -74 -50 -124c0 -73 46 -115 112 -115z" />
    <glyph glyph-name="copyright" unicode="&#xa9;" horiz-adv-x="871" 
d="M435 -12c-212 0 -376 169 -376 374v2c0 205 167 376 378 376s375 -169 375 -374v-2c0 -205 -166 -376 -377 -376zM435 25c192 0 338 153 338 339v2c0 186 -145 337 -336 337c-193 0 -339 -153 -339 -339v-2c0 -186 145 -337 337 -337zM440 166c-114 0 -200 90 -200 201v3
c0 110 85 203 202 203c73 0 116 -26 154 -62l-48 -55c-30 28 -64 48 -106 48c-72 0 -125 -60 -125 -133v-2c0 -73 53 -134 125 -134c47 0 76 19 109 49l48 -48c-41 -43 -86 -70 -159 -70z" />
    <glyph glyph-name="published" unicode="&#x2117;" horiz-adv-x="871" 
d="M435 -12c-212 0 -376 169 -376 374v2c0 205 167 376 378 376s375 -169 375 -374v-2c0 -205 -166 -376 -377 -376zM435 25c192 0 338 153 338 339v2c0 186 -145 337 -336 337c-193 0 -339 -153 -339 -339v-2c0 -186 145 -337 337 -337zM302 175v393h159
c93 0 152 -51 152 -132v-2c0 -89 -74 -134 -160 -134h-76v-125h-75zM377 365h77c52 0 83 27 83 68v2c0 44 -32 67 -83 67h-77v-137z" />
    <glyph glyph-name="registered.alt" horiz-adv-x="871" 
d="M435 -12c-212 0 -376 169 -376 374v2c0 205 167 376 378 376s375 -169 375 -374v-2c0 -205 -166 -376 -377 -376zM435 25c192 0 338 153 338 339v2c0 186 -145 337 -336 337c-193 0 -339 -153 -339 -339v-2c0 -186 145 -337 337 -337zM357 379h99c49 0 80 25 80 63v2
c0 40 -30 62 -79 62h-100v-127zM284 178v393h176c51 0 92 -15 119 -41c20 -20 32 -49 32 -82v-2c0 -63 -38 -102 -93 -119l108 -149h-87l-98 137h-84v-137h-73z" />
    <glyph glyph-name="registered" unicode="&#xae;" horiz-adv-x="408" 
d="M204 374c-102 0 -181 83 -181 181v1c0 99 80 182 181 182c102 0 181 -82 181 -181v-1c0 -98 -80 -182 -181 -182zM204 394c91 0 160 74 160 162v1c0 89 -68 162 -160 162c-90 0 -160 -74 -160 -163v-1c0 -88 69 -161 160 -161zM174 562h40c21 0 33 11 33 27v1
c0 15 -12 26 -33 25h-40v-53zM129 466v188h88c43 0 76 -20 76 -62v-1c0 -28 -17 -50 -42 -57l48 -68h-53l-41 60h-31v-60h-45z" />
    <glyph glyph-name="servicemark" unicode="&#x2120;" horiz-adv-x="741" 
d="M374 408v320h63l99 -154l98 154h62v-320h-57v230l-101 -156h-6l-101 156v-230h-57zM179 402c-52 0 -105 20 -144 52l33 41c33 -27 70 -44 114 -44c39 0 62 17 62 42c0 24 -17 36 -76 49c-71 17 -117 37 -117 95c0 57 47 97 118 97c49 0 92 -15 124 -42l-32 -42
c-28 21 -59 34 -93 34c-38 0 -59 -18 -59 -40c0 -25 18 -37 78 -50c70 -16 115 -40 115 -95c0 -60 -52 -97 -123 -97z" />
    <glyph glyph-name="trademark" unicode="&#x2122;" horiz-adv-x="726" 
d="M130 408v266h-99v54h258v-54h-99v-266h-60zM358 408v320h64l98 -154l99 154h62v-320h-58v230l-101 -156h-5l-101 156v-230h-58z" />
    <glyph glyph-name="asterisk" unicode="*" horiz-adv-x="455" 
d="M192 399l14 128l-104 -77l-36 63l118 52l-118 52l36 62l104 -76l-14 127h71l-14 -127l104 76l36 -62l-118 -52l118 -52l-36 -63l-104 77l14 -128h-71z" />
    <glyph glyph-name="dagger" unicode="&#x2020;" horiz-adv-x="434" 
d="M181 248l8 286l-126 -9v72l125 -9l-11 140h80l-11 -140l126 9v-72l-127 9l9 -286h-73z" />
    <glyph glyph-name="daggerdbl" unicode="&#x2021;" horiz-adv-x="455" 
d="M187 0l12 140l-126 -9v72l126 -9l-8 170l8 170l-126 -9v72l126 -9l-12 140h81l-12 -140l126 9v-72l-126 9l8 -170l-8 -170l126 9v-72l-126 9l12 -140h-81z" />
    <glyph glyph-name="bullet" unicode="&#x2022;" horiz-adv-x="517" 
d="M259 220c-81 0 -146 65 -146 145v2c0 80 66 145 146 145c78 0 145 -65 145 -145v-2c0 -80 -65 -145 -145 -145z" />
    <glyph glyph-name="dollar" unicode="$" horiz-adv-x="675" 
d="M200 536c0 -46 20 -75 105 -101v192c-68 -7 -106 -43 -105 -90v-1zM493 196c0 47 -24 77 -108 102v-197c69 7 108 41 108 93v2zM585 646l-57 -93c-47 34 -95 58 -143 68v-206c157 -39 226 -101 225 -212v-2c0 -114 -89 -189 -221 -201v-102h-88v104
c-91 10 -175 47 -245 104l64 91c59 -49 116 -81 185 -92v212c-152 39 -222 95 -222 211v2c0 111 88 187 218 197v61h88v-63c76 -9 138 -36 196 -79z" />
    <glyph glyph-name="sterling" unicode="&#xa3;" horiz-adv-x="678" 
d="M70 0v77l83 25v190h-83v103h83v98c0 76 22 139 64 181c41 41 100 64 174 64c114 0 180 -50 229 -116l-94 -75c-38 49 -74 78 -134 78c-34 0 -59 -11 -79 -31c-23 -23 -36 -59 -36 -104v-95h262v-103h-262v-185h341v-107h-548z" />
    <glyph glyph-name="Euro" unicode="&#x20ac;" horiz-adv-x="757" 
d="M704 603l-93 -69c-45 63 -89 97 -163 97c-77 0 -136 -52 -166 -133h230v-86h-248c-2 -15 -2 -32 -2 -47v-1c0 -14 0 -28 1 -42h249v-86h-232c29 -86 92 -140 176 -139c71 0 115 38 162 102l88 -64c-59 -86 -133 -147 -251 -147c-153 0 -262 100 -302 248h-94v86h80
c-1 13 -1 27 -1 41v1c0 15 0 32 2 48h-81v86h97c41 140 147 243 295 242c126 0 198 -58 253 -137z" />
    <glyph glyph-name="yen" unicode="&#xa5;" horiz-adv-x="721" 
d="M100 275v89h167l-242 364h143l194 -311l196 311h138l-243 -364h169v-89h-202v-78h202v-89h-202v-108h-118v108h-202v89h202v78h-202z" />
    <glyph glyph-name="cent" unicode="&#xa2;" horiz-adv-x="612" 
d="M177 369c0 -72 34 -133 90 -162l69 343h-1c-90 -2 -159 -81 -158 -179v-2zM456 734l-18 -93c46 -14 88 -41 124 -81l-74 -79c-25 26 -49 43 -75 54l-68 -346h1c58 0 107 28 147 69l70 -70c-54 -61 -122 -105 -225 -105h-10l-17 -89h-88l20 105c-108 40 -185 144 -185 268
v2c0 156 122 286 284 286h9l16 79h89z" />
    <glyph glyph-name="numbersign" unicode="#" horiz-adv-x="736" 
d="M296 462l-33 -192h177l33 192h-177zM652 273v-104h-125l-29 -169h-106l28 169h-173l-29 -169h-106l29 169h-96v104h113l32 186h-106v104h124l28 165h107l-28 -165h173l29 165h106l-28 -165h95v-104h-113l-32 -186h107z" />
    <glyph glyph-name="paragraph" unicode="&#xb6;" horiz-adv-x="582" 
d="M363 0v256h-18c-170 0 -298 81 -298 235v2c0 147 115 235 281 235h159v-728h-124z" />
    <glyph glyph-name="section" unicode="&#xa7;" horiz-adv-x="665" 
d="M407 287c50 0 85 25 85 59v2c0 30 -34 52 -126 75c-52 13 -84 18 -108 18c-50 0 -84 -25 -84 -59v-2c0 -30 33 -52 125 -75c52 -13 84 -18 108 -18zM486 242c38 -23 60 -60 60 -100v-2c0 -91 -76 -150 -203 -150c-101 0 -182 37 -240 98l70 69c47 -46 103 -75 170 -75
c59 0 86 23 86 53v2c0 31 -31 51 -141 76c-161 36 -223 77 -223 151v2c0 67 49 104 114 120c-39 24 -60 60 -60 100v2c0 92 78 150 203 150c101 0 182 -37 240 -98l-69 -69c-48 46 -104 75 -170 75c-57 0 -87 -22 -87 -53v-2c0 -30 27 -49 141 -76c161 -36 223 -75 223 -151
v-2c0 -66 -48 -104 -114 -120z" />
    <glyph glyph-name="ordfeminine" unicode="&#xaa;" horiz-adv-x="414" 
d="M188 472c45 0 80 26 80 63v20c-19 6 -40 11 -67 11c-43 0 -69 -18 -69 -48v-2c0 -28 24 -44 56 -44zM171 419c-57 0 -108 33 -108 94v2c0 65 52 97 125 97c33 0 57 -5 79 -12v5c0 42 -26 65 -73 65c-33 0 -58 -8 -87 -20l-19 55c35 16 67 26 115 26c45 0 78 -12 100 -34
c21 -21 32 -53 32 -92v-179h-68v36c-22 -26 -53 -43 -96 -43zM60 294v59h279v-59h-279z" />
    <glyph glyph-name="ordmasculine" unicode="&#xba;" horiz-adv-x="414" 
d="M206 419c-90 0 -156 69 -156 155v2c0 86 68 157 158 157s155 -69 155 -155v-2c0 -87 -67 -157 -157 -157zM208 482c51 0 84 42 84 92v2c0 51 -35 94 -86 94s-85 -42 -85 -92v-2c0 -51 36 -94 87 -94zM57 294v59h300v-59h-300z" />
    <glyph glyph-name="degree" unicode="&#xb0;" horiz-adv-x="496" 
d="M248 399c-90 0 -172 77 -172 166v3c0 89 82 166 172 166s172 -77 172 -166v-3c0 -89 -82 -166 -172 -166zM248 465c57 0 99 47 99 100v3c0 53 -42 100 -99 100s-99 -47 -99 -100v-3c0 -53 42 -100 99 -100z" />
    <glyph glyph-name="percent" unicode="%" horiz-adv-x="889" 
d="M224 364c-101 0 -170 84 -170 184v2c0 101 70 186 172 186s170 -84 170 -184v-2c0 -100 -69 -186 -172 -186zM414 386l247 342h100l-287 -387l-246 -341h-100zM224 659c-49 0 -80 -49 -80 -107v-2c0 -60 35 -109 82 -109c50 0 80 49 80 107v2c0 60 -34 109 -82 109z
M663 -8c-102 0 -170 84 -170 184v2c0 101 69 186 172 186c102 0 170 -84 170 -184v-2c0 -101 -69 -186 -172 -186zM665 69c50 0 80 49 80 107v2c0 60 -35 109 -82 109c-50 0 -80 -49 -80 -107v-2c0 -61 34 -109 82 -109z" />
    <glyph glyph-name="perthousand" unicode="&#x2030;" horiz-adv-x="1283" 
d="M224 364c-101 0 -170 84 -170 184v2c0 101 70 186 172 186s170 -84 170 -184v-2c0 -100 -69 -186 -172 -186zM761 728l-287 -387l-246 -341h-100l286 386l247 342h100zM226 441c50 0 80 49 80 107v2c0 60 -34 109 -82 109c-49 0 -80 -49 -80 -107v-2
c0 -60 35 -109 82 -109zM1057 -8c-102 0 -170 84 -170 184v2c0 101 69 186 172 186c101 0 170 -84 170 -184v-2c0 -101 -70 -186 -172 -186zM663 -8c-102 0 -170 84 -170 184v2c0 101 69 186 172 186c102 0 170 -84 170 -184v-2c0 -101 -69 -186 -172 -186zM1059 69
c50 0 80 49 80 107v2c0 60 -35 109 -82 109c-50 0 -80 -49 -80 -107v-2c0 -61 34 -109 82 -109zM665 69c50 0 80 49 80 107v2c0 60 -35 109 -82 109c-50 0 -80 -49 -80 -107v-2c0 -61 34 -109 82 -109z" />
    <glyph glyph-name="quotedbl" unicode="&#x22;" horiz-adv-x="509" 
d="M67 420l25 308h137v-5l-99 -303h-63zM292 420l25 308h137v-5l-99 -303h-63z" />
    <glyph glyph-name="quotesingle" unicode="'" horiz-adv-x="285" 
d="M67 420l25 308h139v-5l-100 -303h-64z" />
    <glyph glyph-name="plus" unicode="+" horiz-adv-x="666" 
d="M276 111v200h-201v110h201v200h114v-200h202v-110h-202v-200h-114z" />
    <glyph glyph-name="minus" unicode="&#x2212;" horiz-adv-x="666" 
d="M592 310h-517v113h517v-113z" />
    <glyph glyph-name="divide" unicode="&#xf7;" horiz-adv-x="666" 
d="M266 517v129h134v-129h-134zM592 314h-517v104h517v-104zM266 86v130h134v-130h-134z" />
    <glyph glyph-name="equal" unicode="=" horiz-adv-x="666" 
d="M84 439v112h499v-112h-499zM84 181v112h499v-112h-499z" />
    <glyph glyph-name="multiply" unicode="&#xd7;" horiz-adv-x="666" 
d="M503 119l-171 174l-171 -174l-75 75l174 171l-174 171l78 77l170 -174l171 174l75 -75l-174 -171l174 -171z" />
    <glyph glyph-name="less" unicode="&#x3c;" horiz-adv-x="666" 
d="M569 81l-496 231v108l496 231v-115l-375 -169l375 -170v-116z" />
    <glyph glyph-name="greater" unicode="&#x3e;" horiz-adv-x="666" 
d="M97 81v115l376 169l-376 170v116l496 -231v-108z" />
    <glyph glyph-name="plusminus" unicode="&#xb1;" horiz-adv-x="666" 
d="M585 387h-197v-193h-110l1 193h-197v106h197l-1 193h110v-193h197v-106zM585 0h-503v103h503v-103z" />
    <glyph glyph-name="zero.sup" unicode="&#x2070;" horiz-adv-x="420" 
d="M209 429c-94 0 -161 83 -161 209v4c0 127 69 212 162 212s163 -84 163 -210v-4c0 -127 -71 -211 -164 -211zM209 785c-50 0 -86 -52 -86 -141v-6c0 -89 36 -141 87 -141c50 0 87 52 87 141v6c0 89 -38 141 -88 141z" />
    <glyph glyph-name="one.sup" unicode="&#xb9;" horiz-adv-x="342" 
d="M232 439h-73v333l-83 -31l-20 61l120 47h56v-410z" />
    <glyph glyph-name="one.sup_alt" horiz-adv-x="420" 
d="M368 439h-291v64h114v269l-99 -36l-20 61l136 52h56v-346h104v-64z" />
    <glyph glyph-name="two.sup" unicode="&#xb2;" horiz-adv-x="420" 
d="M59 439v63l145 121c51 43 74 69 74 105c0 35 -29 58 -66 58s-68 -22 -97 -62l-53 41c38 54 81 89 155 89c81 0 137 -50 137 -120c0 -57 -26 -92 -89 -144l-106 -86h198v-65h-298z" />
    <glyph glyph-name="three.sup" unicode="&#xb3;" horiz-adv-x="420" 
d="M207 429c-70 0 -119 27 -158 67l45 53c32 -33 71 -54 114 -54c38 0 72 25 72 62c0 40 -38 61 -90 61h-42l-12 46l119 113h-180v66h272v-57l-121 -113c71 -5 128 -41 128 -114c0 -77 -60 -130 -147 -130z" />
    <glyph glyph-name="four.sup" unicode="&#x2074;" horiz-adv-x="420" 
d="M322 525v-88h-68v88h-196l-10 68l198 255h76v-264h55v-59h-55zM255 584v181l-140 -181h140z" />
    <glyph glyph-name="five.sup" unicode="&#x2075;" horiz-adv-x="420" 
d="M206 429c-64 0 -113 25 -155 62l44 55c36 -32 72 -50 112 -50c48 0 81 28 81 68c0 41 -33 66 -82 66c-31 0 -60 -8 -82 -18l-47 28l16 203h249v-67h-189l-7 -95c19 7 47 12 74 12c79 0 142 -44 142 -125c0 -84 -64 -139 -156 -139z" />
    <glyph glyph-name="six.sup" unicode="&#x2076;" horiz-adv-x="420" 
d="M211 429c-44 0 -82 16 -106 40c-30 30 -52 73 -52 159v2c0 134 62 224 174 224c53 0 86 -16 118 -44l-37 -57c-24 21 -49 34 -84 34c-51 0 -92 -49 -95 -121c23 19 50 34 95 34c72 0 134 -45 134 -130c0 -83 -63 -141 -147 -141zM209 492c45 0 78 30 78 74
c0 46 -30 75 -77 75s-80 -29 -80 -75v-1c0 -42 36 -74 79 -73z" />
    <glyph glyph-name="seven.sup" unicode="&#x2077;" horiz-adv-x="420" 
d="M178 437h-82l176 337h-202v69h286v-56z" />
    <glyph glyph-name="eight.sup" unicode="&#x2078;" horiz-adv-x="420" 
d="M210 429c-90 0 -153 47 -153 119c0 49 27 81 69 101c-33 18 -58 47 -58 92c0 64 59 113 143 113c82 0 141 -49 141 -113c0 -46 -25 -74 -58 -92c41 -20 69 -51 69 -99c0 -75 -64 -121 -153 -121zM210 794c-43 0 -73 -25 -73 -59c0 -37 30 -62 73 -62c42 0 73 25 73 62
c0 34 -30 59 -73 59zM210 617c-49 0 -84 -26 -84 -65c0 -38 33 -65 84 -65s83 26 83 65s-34 65 -83 65z" />
    <glyph glyph-name="nine.sup" unicode="&#x2079;" horiz-adv-x="420" 
d="M210 637c47 0 80 30 80 77v1c0 43 -36 76 -79 75c-45 0 -78 -30 -78 -76c0 -47 30 -77 77 -77zM209 853c44 0 82 -16 106 -40c30 -30 52 -73 52 -158v-2c0 -137 -62 -224 -174 -224c-53 0 -92 18 -125 46l37 57c25 -22 55 -37 91 -37c51 0 91 47 94 117
c-23 -19 -48 -34 -93 -34c-72 0 -135 46 -135 132c0 83 63 143 147 143z" />
    <glyph glyph-name="zero.inf" unicode="&#x2080;" horiz-adv-x="420" 
d="M209 -147c-94 0 -161 83 -161 209v4c0 127 69 212 162 212s163 -84 163 -210v-4c0 -127 -71 -211 -164 -211zM209 209c-50 0 -86 -52 -86 -141v-6c0 -89 36 -141 87 -141c50 0 87 52 87 141v6c0 89 -38 141 -88 141z" />
    <glyph glyph-name="one.inf" unicode="&#x2081;" horiz-adv-x="342" 
d="M232 -137h-73v333l-83 -31l-20 61l120 47h56v-410z" />
    <glyph glyph-name="one.inf_alt" horiz-adv-x="420" 
d="M368 -137h-291v64h114v269l-99 -36l-20 61l136 52h56v-346h104v-64z" />
    <glyph glyph-name="two.inf" unicode="&#x2082;" horiz-adv-x="420" 
d="M59 -137v63l145 121c51 43 74 69 74 105c0 35 -29 58 -66 58s-68 -22 -97 -62l-53 41c38 54 81 89 155 89c81 0 137 -50 137 -120c0 -57 -26 -92 -89 -144l-106 -86h198v-65h-298z" />
    <glyph glyph-name="three.inf" unicode="&#x2083;" horiz-adv-x="420" 
d="M207 -147c-70 0 -119 27 -158 67l45 53c32 -33 71 -54 114 -54c38 0 72 25 72 62c0 40 -38 61 -90 61h-42l-12 46l119 113h-180v66h272v-57l-121 -113c71 -5 128 -41 128 -114c0 -77 -60 -130 -147 -130z" />
    <glyph glyph-name="four.inf" unicode="&#x2084;" horiz-adv-x="420" 
d="M322 -51v-88h-68v88h-196l-10 68l198 255h76v-264h55v-59h-55zM255 8v181l-140 -181h140z" />
    <glyph glyph-name="five.inf" unicode="&#x2085;" horiz-adv-x="420" 
d="M206 -147c-64 0 -113 25 -155 62l44 55c36 -32 72 -50 112 -50c48 0 81 28 81 68c0 41 -33 66 -82 66c-31 0 -60 -8 -82 -18l-47 28l16 203h249v-67h-189l-7 -95c19 7 47 12 74 12c79 0 142 -44 142 -125c0 -84 -64 -139 -156 -139z" />
    <glyph glyph-name="six.inf" unicode="&#x2086;" horiz-adv-x="420" 
d="M211 -147c-44 0 -82 16 -106 40c-30 30 -52 73 -52 159v2c0 134 62 224 174 224c53 0 86 -16 118 -44l-37 -57c-24 21 -49 34 -84 34c-51 0 -92 -49 -95 -121c23 19 50 34 95 34c72 0 134 -45 134 -130c0 -83 -63 -141 -147 -141zM209 -84c45 0 78 30 78 74
c0 46 -30 75 -77 75s-80 -29 -80 -75v-1c0 -42 36 -74 79 -73z" />
    <glyph glyph-name="seven.inf" unicode="&#x2087;" horiz-adv-x="420" 
d="M178 -139h-82l176 337h-202v69h286v-56z" />
    <glyph glyph-name="eight.inf" unicode="&#x2088;" horiz-adv-x="420" 
d="M210 -147c-90 0 -153 47 -153 119c0 49 27 81 69 101c-33 18 -58 47 -58 92c0 64 59 113 143 113c82 0 141 -49 141 -113c0 -46 -25 -74 -58 -92c41 -20 69 -51 69 -99c0 -75 -64 -121 -153 -121zM210 218c-43 0 -73 -25 -73 -59c0 -37 30 -62 73 -62c42 0 73 25 73 62
c0 34 -30 59 -73 59zM210 41c-49 0 -84 -26 -84 -65c0 -38 33 -65 84 -65s83 26 83 65s-34 65 -83 65z" />
    <glyph glyph-name="nine.inf" unicode="&#x2089;" horiz-adv-x="420" 
d="M210 61c47 0 80 30 80 77v1c0 43 -36 76 -79 75c-45 0 -78 -30 -78 -76c0 -47 30 -77 77 -77zM209 277c44 0 82 -16 106 -40c30 -30 52 -73 52 -158v-2c0 -137 -62 -224 -174 -224c-53 0 -92 18 -125 46l37 57c25 -22 55 -37 91 -37c51 0 91 47 94 117
c-23 -19 -48 -34 -93 -34c-72 0 -135 46 -135 132c0 83 63 143 147 143z" />
    <glyph glyph-name="zero.num" horiz-adv-x="420" 
d="M209 313c-94 0 -161 84 -161 210v4c0 127 69 211 162 211s163 -83 163 -209v-4c0 -127 -71 -212 -164 -212zM209 670c-50 0 -86 -52 -86 -141v-6c0 -89 36 -141 87 -141c50 0 87 52 87 141v6c0 89 -38 141 -88 141z" />
    <glyph glyph-name="one.num" horiz-adv-x="342" 
d="M232 324h-73v333l-83 -31l-20 61l120 47h56v-410z" />
    <glyph glyph-name="one.num_alt" horiz-adv-x="420" 
d="M368 324h-291v64h114v269l-99 -37l-20 62l136 52h56v-346h104v-64z" />
    <glyph glyph-name="two.num" horiz-adv-x="420" 
d="M59 324v63l145 121c51 43 74 69 74 105c0 35 -29 58 -66 58s-68 -22 -97 -62l-53 41c38 54 81 88 155 88c81 0 137 -50 137 -119c0 -57 -26 -92 -89 -144l-106 -86h198v-65h-298z" />
    <glyph glyph-name="three.num" horiz-adv-x="420" 
d="M207 313c-70 0 -119 28 -158 68l45 53c32 -33 71 -54 114 -54c38 0 72 24 72 62c0 40 -38 61 -90 61h-42l-12 46l119 113h-180v66h272v-58l-121 -112c71 -5 128 -42 128 -114c0 -78 -60 -131 -147 -131z" />
    <glyph glyph-name="four.num" horiz-adv-x="420" 
d="M322 410v-88h-68v88h-196l-10 68l198 255h76v-264h55v-59h-55zM255 469v181l-140 -181h140z" />
    <glyph glyph-name="five.num" horiz-adv-x="420" 
d="M206 313c-64 0 -113 26 -155 63l44 55c36 -32 72 -50 112 -50c48 0 81 28 81 68c0 41 -33 66 -82 66c-31 0 -60 -8 -82 -18l-47 28l16 203h249v-68h-189l-7 -94c19 7 47 11 74 11c79 0 142 -43 142 -124c0 -84 -64 -140 -156 -140z" />
    <glyph glyph-name="six.num" horiz-adv-x="420" 
d="M211 314c-44 0 -82 16 -106 40c-30 30 -52 73 -52 158v2c0 135 62 224 174 224c53 0 86 -15 118 -43l-37 -57c-24 21 -49 34 -84 34c-51 0 -92 -50 -95 -121c23 19 50 34 95 34c72 0 134 -45 134 -130c0 -83 -63 -141 -147 -141zM209 377c45 0 78 30 78 74
c0 46 -30 74 -77 74s-80 -28 -80 -74v-1c0 -42 36 -74 79 -73z" />
    <glyph glyph-name="seven.num" horiz-adv-x="420" 
d="M178 322h-82l176 337h-202v69h286v-57z" />
    <glyph glyph-name="eight.num" horiz-adv-x="420" 
d="M210 313c-90 0 -153 48 -153 120c0 49 27 81 69 101c-33 18 -58 47 -58 92c0 64 59 112 143 112c82 0 141 -48 141 -112c0 -46 -25 -74 -58 -92c41 -20 69 -51 69 -99c0 -75 -64 -122 -153 -122zM210 679c-43 0 -73 -25 -73 -59c0 -37 30 -62 73 -62c42 0 73 24 73 62
c0 34 -30 59 -73 59zM210 502c-49 0 -84 -26 -84 -65c0 -38 33 -65 84 -65s83 26 83 65s-34 65 -83 65z" />
    <glyph glyph-name="nine.num" horiz-adv-x="420" 
d="M210 522c47 0 80 29 80 77v1c0 43 -36 76 -79 75c-45 0 -78 -30 -78 -76c0 -47 30 -77 77 -77zM209 738c44 0 82 -16 106 -40c30 -30 52 -73 52 -158v-3c0 -136 -62 -224 -174 -224c-53 0 -92 19 -125 46l37 58c25 -22 55 -37 91 -37c51 0 91 47 94 117
c-23 -20 -48 -34 -93 -34c-72 0 -135 46 -135 132c0 83 63 143 147 143z" />
    <glyph glyph-name="zero.den" horiz-adv-x="420" 
d="M209 -10c-94 0 -161 83 -161 209v4c0 127 69 212 162 212s163 -84 163 -210v-4c0 -127 -71 -211 -164 -211zM209 346c-50 0 -86 -52 -86 -141v-6c0 -89 36 -141 87 -141c50 0 87 52 87 141v6c0 89 -38 141 -88 141z" />
    <glyph glyph-name="one.den" horiz-adv-x="342" 
d="M232 0h-73v333l-83 -31l-20 61l120 47h56v-410z" />
    <glyph glyph-name="one.den_alt" horiz-adv-x="420" 
d="M368 0h-291v64h114v269l-99 -36l-20 61l136 52h56v-346h104v-64z" />
    <glyph glyph-name="two.den" horiz-adv-x="420" 
d="M59 0v63l145 121c51 43 74 69 74 105c0 35 -29 58 -66 58s-68 -22 -97 -62l-53 41c38 54 81 89 155 89c81 0 137 -50 137 -120c0 -57 -26 -92 -89 -144l-106 -86h198v-65h-298z" />
    <glyph glyph-name="three.den" horiz-adv-x="420" 
d="M207 -10c-70 0 -119 27 -158 67l45 53c32 -33 71 -54 114 -54c38 0 72 25 72 62c0 40 -38 61 -90 61h-42l-12 46l119 113h-180v66h272v-57l-121 -113c71 -5 128 -41 128 -114c0 -77 -60 -130 -147 -130z" />
    <glyph glyph-name="four.den" horiz-adv-x="420" 
d="M322 86v-88h-68v88h-196l-10 68l198 255h76v-264h55v-59h-55zM255 145v181l-140 -181h140z" />
    <glyph glyph-name="five.den" horiz-adv-x="420" 
d="M206 -10c-64 0 -113 25 -155 62l44 55c36 -32 72 -50 112 -50c48 0 81 28 81 68c0 41 -33 66 -82 66c-31 0 -60 -8 -82 -18l-47 28l16 203h249v-67h-189l-7 -95c19 7 47 12 74 12c79 0 142 -44 142 -125c0 -84 -64 -139 -156 -139z" />
    <glyph glyph-name="six.den" horiz-adv-x="420" 
d="M211 -10c-44 0 -82 16 -106 40c-30 30 -52 73 -52 159v2c0 134 62 224 174 224c53 0 86 -16 118 -44l-37 -57c-24 21 -49 34 -84 34c-51 0 -92 -49 -95 -121c23 19 50 34 95 34c72 0 134 -45 134 -130c0 -83 -63 -141 -147 -141zM209 53c45 0 78 30 78 74
c0 46 -30 75 -77 75s-80 -29 -80 -75v-1c0 -42 36 -74 79 -73z" />
    <glyph glyph-name="seven.den" horiz-adv-x="420" 
d="M178 -2h-82l176 337h-202v69h286v-56z" />
    <glyph glyph-name="eight.den" horiz-adv-x="420" 
d="M210 -10c-90 0 -153 47 -153 119c0 49 27 81 69 101c-33 18 -58 47 -58 92c0 64 59 113 143 113c82 0 141 -49 141 -113c0 -46 -25 -74 -58 -92c41 -20 69 -51 69 -99c0 -75 -64 -121 -153 -121zM210 355c-43 0 -73 -25 -73 -59c0 -37 30 -62 73 -62c42 0 73 25 73 62
c0 34 -30 59 -73 59zM210 178c-49 0 -84 -26 -84 -65c0 -38 33 -65 84 -65s83 26 83 65s-34 65 -83 65z" />
    <glyph glyph-name="nine.den" horiz-adv-x="420" 
d="M210 198c47 0 80 30 80 77v1c0 43 -36 76 -79 75c-45 0 -78 -30 -78 -76c0 -47 30 -77 77 -77zM209 414c44 0 82 -16 106 -40c30 -30 52 -73 52 -158v-2c0 -137 -62 -224 -174 -224c-53 0 -92 18 -125 46l37 57c25 -22 55 -37 91 -37c51 0 91 47 94 117
c-23 -19 -48 -34 -93 -34c-72 0 -135 46 -135 132c0 83 63 143 147 143z" />
    <glyph glyph-name="fraction" unicode="&#x2044;" horiz-adv-x="112" 
d="M-227 0l261 378l233 350h72l-261 -378l-233 -350h-72z" />
    <glyph glyph-name="onehalf" unicode="&#xbd;" horiz-adv-x="867" 
d="M232 324h-73v333l-83 -31l-20 61l120 47h56v-410zM127 0l261 378l233 350h72l-261 -378l-233 -350h-72zM513 0v63l145 121c51 43 74 69 74 105c0 35 -29 58 -66 58s-68 -22 -97 -62l-53 41c38 54 81 89 155 89c81 0 137 -50 137 -120c0 -57 -26 -92 -89 -144l-106 -86
h198v-65h-298z" />
    <glyph glyph-name="onehalf.alt" horiz-adv-x="945" 
d="M365 324h-291v64h114v269l-99 -37l-20 62l136 52h56v-346h104v-64zM210 0l261 378l233 350h72l-261 -378l-233 -350h-72zM591 0v63l145 121c51 43 74 69 74 105c0 35 -29 58 -66 58s-68 -22 -97 -62l-53 41c38 54 81 89 155 89c81 0 137 -50 137 -120
c0 -57 -26 -92 -89 -144l-106 -86h198v-65h-298z" />
    <glyph glyph-name="onethird" unicode="&#x2153;" horiz-adv-x="867" 
d="M232 324h-73v333l-83 -31l-20 61l120 47h56v-410zM115 0l261 378l233 350h72l-261 -378l-233 -350h-72zM661 -10c-70 0 -119 27 -158 67l45 53c32 -33 71 -54 114 -54c38 0 72 25 72 62c0 40 -38 61 -90 61h-42l-12 46l119 113h-180v66h272v-57l-121 -113
c71 -5 128 -41 128 -114c0 -77 -60 -130 -147 -130z" />
    <glyph glyph-name="onethird.alt" horiz-adv-x="945" 
d="M365 324h-291v64h114v269l-99 -37l-20 62l136 52h56v-346h104v-64zM199 0l261 378l233 350h72l-261 -378l-233 -350h-72zM739 -10c-70 0 -119 27 -158 67l45 53c32 -33 71 -54 114 -54c38 0 72 25 72 62c0 40 -38 61 -90 61h-42l-12 46l119 113h-180v66h272v-57
l-121 -113c71 -5 128 -41 128 -114c0 -77 -60 -130 -147 -130z" />
    <glyph glyph-name="twothirds" unicode="&#x2154;" horiz-adv-x="945" 
d="M51 324v63l145 121c51 43 74 69 74 105c0 35 -29 58 -66 58s-68 -22 -97 -62l-53 41c38 54 81 88 155 88c81 0 137 -50 137 -119c0 -57 -26 -92 -89 -144l-106 -86h198v-65h-298zM189 0l261 378l233 350h72l-261 -378l-233 -350h-72zM739 -10c-70 0 -119 27 -158 67
l45 53c32 -33 71 -54 114 -54c38 0 72 25 72 62c0 40 -38 61 -90 61h-42l-12 46l119 113h-180v66h272v-57l-121 -113c71 -5 128 -41 128 -114c0 -77 -60 -130 -147 -130z" />
    <glyph glyph-name="onequarter" unicode="&#xbc;" horiz-adv-x="867" 
d="M232 324h-73v333l-83 -31l-20 61l120 47h56v-410zM137 0l261 378l233 350h72l-261 -378l-233 -350h-72zM766 86v-88h-68v88h-196l-10 68l198 255h76v-264h55v-59h-55zM699 145v181l-140 -181h140z" />
    <glyph glyph-name="onequarter.alt" horiz-adv-x="945" 
d="M365 324h-291v64h114v269l-99 -37l-20 62l136 52h56v-346h104v-64zM215 0l261 378l233 350h72l-261 -378l-233 -350h-72zM844 86v-88h-68v88h-196l-10 68l198 255h76v-264h55v-59h-55zM777 145v181l-140 -181h140z" />
    <glyph glyph-name="threequarters" unicode="&#xbe;" horiz-adv-x="945" 
d="M210 0l261 378l233 350h72l-261 -378l-233 -350h-72zM209 313c-70 0 -119 28 -158 68l45 53c32 -33 71 -54 114 -54c38 0 72 24 72 62c0 40 -38 61 -90 61h-42l-12 46l119 113h-180v66h272v-58l-121 -112c71 -5 128 -42 128 -114c0 -78 -60 -131 -147 -131zM844 86v-88
h-68v88h-196l-10 68l198 255h76v-264h55v-59h-55zM777 145v181l-140 -181h140z" />
    <glyph glyph-name="onefifth" unicode="&#x2155;" horiz-adv-x="867" 
d="M232 324h-73v333l-83 -31l-20 61l120 47h56v-410zM120 0l261 378l233 350h72l-261 -378l-233 -350h-72zM660 -10c-64 0 -113 25 -155 62l44 55c36 -32 72 -50 112 -50c48 0 81 28 81 68c0 41 -33 66 -82 66c-31 0 -60 -8 -82 -18l-47 28l16 203h249v-67h-189l-7 -95
c19 7 47 12 74 12c79 0 142 -44 142 -125c0 -84 -64 -139 -156 -139z" />
    <glyph glyph-name="onefifth.alt" horiz-adv-x="945" 
d="M365 324h-291v64h114v269l-99 -37l-20 62l136 52h56v-346h104v-64zM205 0l261 378l233 350h72l-261 -378l-233 -350h-72zM738 -10c-64 0 -113 25 -155 62l44 55c36 -32 72 -50 112 -50c48 0 81 28 81 68c0 41 -33 66 -82 66c-31 0 -60 -8 -82 -18l-47 28l16 203h249v-67
h-189l-7 -95c19 7 47 12 74 12c79 0 142 -44 142 -125c0 -84 -64 -139 -156 -139z" />
    <glyph glyph-name="twofifths" unicode="&#x2156;" horiz-adv-x="945" 
d="M51 324v63l145 121c51 43 74 69 74 105c0 35 -29 58 -66 58s-68 -22 -97 -62l-53 41c38 54 81 88 155 88c81 0 137 -50 137 -119c0 -57 -26 -92 -89 -144l-106 -86h198v-65h-298zM199 0l261 378l233 350h72l-261 -378l-233 -350h-72zM738 -10c-64 0 -113 25 -155 62
l44 55c36 -32 72 -50 112 -50c48 0 81 28 81 68c0 41 -33 66 -82 66c-31 0 -60 -8 -82 -18l-47 28l16 203h249v-67h-189l-7 -95c19 7 47 12 74 12c79 0 142 -44 142 -125c0 -84 -64 -139 -156 -139z" />
    <glyph glyph-name="threefifths" unicode="&#x2157;" horiz-adv-x="945" 
d="M184 0l261 378l233 350h72l-261 -378l-233 -350h-72zM199 313c-70 0 -119 28 -158 68l45 53c32 -33 71 -54 114 -54c38 0 72 24 72 62c0 40 -38 61 -90 61h-42l-12 46l119 113h-180v66h272v-58l-121 -112c71 -5 128 -42 128 -114c0 -78 -60 -131 -147 -131zM738 -10
c-64 0 -113 25 -155 62l44 55c36 -32 72 -50 112 -50c48 0 81 28 81 68c0 41 -33 66 -82 66c-31 0 -60 -8 -82 -18l-47 28l16 203h249v-67h-189l-7 -95c19 7 47 12 74 12c79 0 142 -44 142 -125c0 -84 -64 -139 -156 -139z" />
    <glyph glyph-name="fourfifths" unicode="&#x2158;" horiz-adv-x="945" 
d="M314 410v-88h-68v88h-196l-10 68l198 255h76v-264h55v-59h-55zM199 0l261 378l233 350h72l-261 -378l-233 -350h-72zM247 469v181l-140 -181h140zM738 -10c-64 0 -113 25 -155 62l44 55c36 -32 72 -50 112 -50c48 0 81 28 81 68c0 41 -33 66 -82 66c-31 0 -60 -8 -82 -18
l-47 28l16 203h249v-67h-189l-7 -95c19 7 47 12 74 12c79 0 142 -44 142 -125c0 -84 -64 -139 -156 -139z" />
    <glyph glyph-name="onesixth" unicode="&#x2159;" horiz-adv-x="867" 
d="M232 324h-73v333l-83 -31l-20 61l120 47h56v-410zM127 0l261 378l233 350h72l-261 -378l-233 -350h-72zM665 -10c-44 0 -82 16 -106 40c-30 30 -52 73 -52 159v2c0 134 62 224 174 224c53 0 86 -16 118 -44l-37 -57c-24 21 -49 34 -84 34c-51 0 -92 -49 -95 -121
c23 19 50 34 95 34c72 0 134 -45 134 -130c0 -83 -63 -141 -147 -141zM663 53c45 0 78 30 78 74c0 46 -30 75 -77 75s-80 -29 -80 -75v-1c0 -42 36 -74 79 -73z" />
    <glyph glyph-name="onesixth.alt" horiz-adv-x="945" 
d="M365 324h-291v64h114v269l-99 -37l-20 62l136 52h56v-346h104v-64zM205 0l261 378l233 350h72l-261 -378l-233 -350h-72zM743 -10c-44 0 -82 16 -106 40c-30 30 -52 73 -52 159v2c0 134 62 224 174 224c53 0 86 -16 118 -44l-37 -57c-24 21 -49 34 -84 34
c-51 0 -92 -49 -95 -121c23 19 50 34 95 34c72 0 134 -45 134 -130c0 -83 -63 -141 -147 -141zM741 53c45 0 78 30 78 74c0 46 -30 75 -77 75s-80 -29 -80 -75v-1c0 -42 36 -74 79 -73z" />
    <glyph glyph-name="fivesixths" unicode="&#x215a;" horiz-adv-x="945" 
d="M189 0l261 378l233 350h72l-261 -378l-233 -350h-72zM198 313c-64 0 -113 26 -155 63l44 55c36 -32 72 -50 112 -50c48 0 81 28 81 68c0 41 -33 66 -82 66c-31 0 -60 -8 -82 -18l-47 28l16 203h249v-68h-189l-7 -94c19 7 47 11 74 11c79 0 142 -43 142 -124
c0 -84 -64 -140 -156 -140zM743 -10c-44 0 -82 16 -106 40c-30 30 -52 73 -52 159v2c0 134 62 224 174 224c53 0 86 -16 118 -44l-37 -57c-24 21 -49 34 -84 34c-51 0 -92 -49 -95 -121c23 19 50 34 95 34c72 0 134 -45 134 -130c0 -83 -63 -141 -147 -141zM741 53
c45 0 78 30 78 74c0 46 -30 75 -77 75s-80 -29 -80 -75v-1c0 -42 36 -74 79 -73z" />
    <glyph glyph-name="oneeighth" unicode="&#x215b;" horiz-adv-x="867" 
d="M232 324h-73v333l-83 -31l-20 61l120 47h56v-410zM123 0l261 378l233 350h72l-261 -378l-233 -350h-72zM664 -10c-90 0 -153 47 -153 119c0 49 27 81 69 101c-33 18 -58 47 -58 92c0 64 59 113 143 113c82 0 141 -49 141 -113c0 -46 -25 -74 -58 -92
c41 -20 69 -51 69 -99c0 -75 -64 -121 -153 -121zM664 355c-43 0 -73 -25 -73 -59c0 -37 30 -62 73 -62c42 0 73 25 73 62c0 34 -30 59 -73 59zM664 178c-49 0 -84 -26 -84 -65c0 -38 33 -65 84 -65s83 26 83 65s-34 65 -83 65z" />
    <glyph glyph-name="oneeighth.alt" horiz-adv-x="945" 
d="M365 324h-291v64h114v269l-99 -37l-20 62l136 52h56v-346h104v-64zM205 0l261 378l233 350h72l-261 -378l-233 -350h-72zM742 -10c-90 0 -153 47 -153 119c0 49 27 81 69 101c-33 18 -58 47 -58 92c0 64 59 113 143 113c82 0 141 -49 141 -113c0 -46 -25 -74 -58 -92
c41 -20 69 -51 69 -99c0 -75 -64 -121 -153 -121zM742 355c-43 0 -73 -25 -73 -59c0 -37 30 -62 73 -62c42 0 73 25 73 62c0 34 -30 59 -73 59zM742 178c-49 0 -84 -26 -84 -65c0 -38 33 -65 84 -65s83 26 83 65s-34 65 -83 65z" />
    <glyph glyph-name="threeeighths" unicode="&#x215c;" horiz-adv-x="945" 
d="M189 0l261 378l233 350h72l-261 -378l-233 -350h-72zM199 313c-70 0 -119 28 -158 68l45 53c32 -33 71 -54 114 -54c38 0 72 24 72 62c0 40 -38 61 -90 61h-42l-12 46l119 113h-180v66h272v-58l-121 -112c71 -5 128 -42 128 -114c0 -78 -60 -131 -147 -131zM742 -10
c-90 0 -153 47 -153 119c0 49 27 81 69 101c-33 18 -58 47 -58 92c0 64 59 113 143 113c82 0 141 -49 141 -113c0 -46 -25 -74 -58 -92c41 -20 69 -51 69 -99c0 -75 -64 -121 -153 -121zM742 355c-43 0 -73 -25 -73 -59c0 -37 30 -62 73 -62c42 0 73 25 73 62
c0 34 -30 59 -73 59zM742 178c-49 0 -84 -26 -84 -65c0 -38 33 -65 84 -65s83 26 83 65s-34 65 -83 65z" />
    <glyph glyph-name="fiveeighths" unicode="&#x215d;" horiz-adv-x="945" 
d="M189 0l261 378l233 350h72l-261 -378l-233 -350h-72zM198 313c-64 0 -113 26 -155 63l44 55c36 -32 72 -50 112 -50c48 0 81 28 81 68c0 41 -33 66 -82 66c-31 0 -60 -8 -82 -18l-47 28l16 203h249v-68h-189l-7 -94c19 7 47 11 74 11c79 0 142 -43 142 -124
c0 -84 -64 -140 -156 -140zM742 -10c-90 0 -153 47 -153 119c0 49 27 81 69 101c-33 18 -58 47 -58 92c0 64 59 113 143 113c82 0 141 -49 141 -113c0 -46 -25 -74 -58 -92c41 -20 69 -51 69 -99c0 -75 -64 -121 -153 -121zM742 355c-43 0 -73 -25 -73 -59
c0 -37 30 -62 73 -62c42 0 73 25 73 62c0 34 -30 59 -73 59zM742 178c-49 0 -84 -26 -84 -65c0 -38 33 -65 84 -65s83 26 83 65s-34 65 -83 65z" />
    <glyph glyph-name="seveneighths" unicode="&#x215e;" horiz-adv-x="945" 
d="M158 0l261 378l233 350h72l-261 -378l-233 -350h-72zM180 322h-82l176 337h-202v69h286v-57zM742 -10c-90 0 -153 47 -153 119c0 49 27 81 69 101c-33 18 -58 47 -58 92c0 64 59 113 143 113c82 0 141 -49 141 -113c0 -46 -25 -74 -58 -92c41 -20 69 -51 69 -99
c0 -75 -64 -121 -153 -121zM742 355c-43 0 -73 -25 -73 -59c0 -37 30 -62 73 -62c42 0 73 25 73 62c0 34 -30 59 -73 59zM742 178c-49 0 -84 -26 -84 -65c0 -38 33 -65 84 -65s83 26 83 65s-34 65 -83 65z" />
    <glyph glyph-name="zero.tab" horiz-adv-x="630" 
d="M314 -12c-157 0 -264 140 -264 368v13c0 230 108 371 265 371c156 0 265 -140 265 -368v-13c0 -230 -110 -371 -266 -371zM314 635c-85 0 -145 -88 -145 -264v-12c0 -176 60 -266 146 -266c85 0 146 89 146 264v12c0 176 -61 266 -147 266z" />
    <glyph glyph-name="one.tab" horiz-adv-x="630" 
d="M587 0h-502v101h202v506l-179 -64l-29 101l242 89h83v-632h183v-101z" />
    <glyph glyph-name="two.tab" horiz-adv-x="630" 
d="M565 0h-511v95l246 220c98 88 135 135 135 200c0 72 -53 114 -122 114s-117 -37 -172 -112l-83 70c68 96 137 151 263 151c143 0 238 -87 238 -213v-2c0 -102 -53 -165 -148 -250l-188 -166h342v-107z" />
    <glyph glyph-name="three.tab" horiz-adv-x="630" 
d="M309 -12c-120 0 -203 46 -267 115l78 87c54 -57 111 -93 191 -93c72 0 135 45 135 117v2c0 73 -62 111 -163 111h-66l-24 76l211 219h-325v106h476v-97l-213 -214c120 -8 225 -64 225 -195v-3c0 -135 -109 -231 -258 -231z" />
    <glyph glyph-name="three.tab_alt" horiz-adv-x="630" 
d="M313 -12c-111 0 -206 49 -269 124l81 77c49 -58 111 -94 193 -94c83 0 137 45 137 114c0 71 -61 109 -165 109h-74v100h83c87 0 142 42 142 111c0 61 -49 104 -128 104c-78 0 -128 -36 -175 -94l-81 70c57 76 138 131 258 131c150 0 247 -78 247 -199
c0 -87 -55 -140 -116 -168c74 -28 129 -75 129 -172c0 -125 -106 -213 -262 -213z" />
    <glyph glyph-name="four.tab" horiz-adv-x="630" 
d="M393 0v160h-339l-22 111l335 461h137v-475h96v-97h-96v-160h-111zM394 255v348l-252 -348h252z" />
    <glyph glyph-name="five.tab" horiz-adv-x="630" 
d="M305 -12c-112 0 -194 44 -261 105l71 89c60 -53 120 -87 193 -87c85 0 147 50 147 130v3c0 74 -58 124 -153 124c-59 0 -104 -15 -141 -32l-74 47l24 361h431v-109h-331l-13 -184c36 13 74 21 123 21c138 0 253 -74 253 -224v-2c0 -146 -114 -242 -269 -242z" />
    <glyph glyph-name="six.tab" horiz-adv-x="630" 
d="M346 467c123 0 230 -81 230 -228v-3c0 -146 -110 -248 -252 -248c-78 0 -140 28 -180 68c-55 55 -87 128 -87 284v4c0 235 100 396 295 396c81 0 144 -27 197 -71l-57 -95c-43 34 -86 58 -143 58c-127 0 -172 -134 -174 -239h1c40 46 97 75 170 74zM320 89
c84 0 139 61 139 142v1c0 81 -56 137 -137 136c-88 0 -142 -59 -142 -138v-1c0 -81 60 -141 140 -140z" />
    <glyph glyph-name="seven.tab" horiz-adv-x="630" 
d="M437 618h-365v110h502v-94l-318 -634h-135z" />
    <glyph glyph-name="eight.tab" horiz-adv-x="630" 
d="M315 -11c-151 0 -263 84 -263 208v3c0 88 48 145 126 178c-60 32 -106 83 -106 163v2c0 112 105 196 243 196c137 0 242 -84 242 -196v-2c0 -80 -46 -131 -106 -163c76 -34 127 -89 127 -176v-2c0 -130 -113 -211 -263 -211zM315 418c72 0 127 46 127 112v2
c0 61 -52 108 -127 108s-128 -46 -128 -107v-3c0 -65 55 -112 128 -112zM315 88c92 0 145 51 145 117v2c0 70 -62 116 -145 116s-146 -46 -146 -116v-2c0 -66 54 -117 146 -117z" />
    <glyph glyph-name="nine.tab" horiz-adv-x="630" 
d="M310 639c-84 0 -139 -62 -139 -145v-1c0 -84 56 -140 137 -139c88 0 142 60 142 141v1c0 83 -60 144 -140 143zM284 255c-124 0 -230 81 -230 231v3c0 149 110 251 252 251c78 0 140 -28 180 -68c55 -55 87 -128 87 -284v-4c0 -235 -100 -396 -295 -396
c-84 0 -153 30 -207 76l57 95c49 -39 96 -63 153 -63c124 0 170 129 174 232h-1c-41 -46 -98 -74 -170 -73z" />
    <glyph glyph-name="dollar.tab" horiz-adv-x="630" 
d="M185 533c0 -43 23 -79 110 -105l26 207h-11c-80 0 -126 -41 -125 -101v-1zM467 198c0 47 -26 82 -111 106l-26 -210h1c85 0 137 40 136 103v1zM422 811l-12 -91c56 -12 106 -35 151 -67l-49 -89c-37 26 -76 46 -118 58l-26 -212c139 -38 207 -101 207 -204v-1
c0 -126 -103 -208 -249 -207h-3l-15 -121h-84l16 130c-74 15 -140 48 -195 91l54 87c48 -39 100 -68 157 -82l27 219c-140 39 -206 98 -206 203v1c0 124 101 205 240 204h10l11 81h84z" />
    <glyph glyph-name="sterling.tab" horiz-adv-x="630" 
d="M141 396v97c0 77 19 137 65 183c39 39 94 62 168 62c97 0 161 -44 205 -100l-81 -79c-34 42 -72 68 -122 68c-36 0 -61 -11 -81 -31c-22 -22 -34 -56 -34 -103v-97h242v-101h-242v-190h317v-105h-516v75l79 24v196h-78v101h78z" />
    <glyph glyph-name="Euro.tab" horiz-adv-x="630" 
d="M38 413v81h85c34 147 132 246 272 246c92 0 154 -41 200 -96l-71 -80c-36 44 -77 72 -131 72c-73 0 -128 -53 -152 -142h200v-81h-213c-1 -15 -2 -30 -2 -45v-6c0 -14 0 -29 1 -42h214v-81h-202c23 -92 78 -147 152 -147c59 0 97 28 137 75l70 -73
c-49 -61 -115 -106 -212 -106c-135 0 -233 96 -266 251h-82v81h73c-1 13 -1 26 -1 40v7c0 15 0 31 1 46h-73z" />
    <glyph glyph-name="yen.tab" horiz-adv-x="630" 
d="M87 187h171v89h-171v82h149l-220 370h132l169 -304l169 304h128l-222 -370h151v-82h-171v-89h171v-82h-171v-105h-114v105h-171v82z" />
    <glyph glyph-name="cent.tab" horiz-adv-x="630" 
d="M175 362c0 -78 38 -136 98 -162l69 352h-1c-94 -2 -167 -78 -166 -188v-2zM463 734l-20 -98c53 -16 92 -45 126 -83l-68 -73c-26 27 -50 47 -81 59l-70 -353h1c63 1 113 32 154 75l65 -65c-54 -62 -130 -107 -229 -107h-6l-19 -95h-88l21 110c-107 36 -184 134 -184 259
v2c0 158 119 284 283 284h10l17 85h88z" />
    <glyph glyph-name="numbersign.tab" horiz-adv-x="630" 
d="M252 464l-28 -196h154l28 196h-154zM35 271h97l28 190h-93v99h107l25 168h93l-24 -168h150l24 168h94l-24 -168h83v-99h-98l-27 -190h93v-99h-107l-25 -172h-94l25 172h-150l-25 -172h-94l25 172h-83v99z" />
    <glyph glyph-name="paragraph.tab" horiz-adv-x="630" 
d="M399 0v256h-46c-169 0 -295 81 -295 235v1c0 147 117 237 287 236h178v-728h-124z" />
    <glyph glyph-name="section.tab" horiz-adv-x="630" 
d="M237 442c-47 1 -77 -22 -77 -55v-1c0 -33 29 -53 111 -75c77 -21 96 -25 122 -25c47 -1 77 22 77 55v1c0 33 -29 53 -111 75c-77 21 -97 25 -122 25zM322 -10c-92 0 -169 32 -225 86l61 74c48 -43 102 -69 165 -69c53 0 77 23 77 52v1c0 31 -26 52 -129 80
c-158 45 -216 81 -216 156v1c0 62 49 105 122 118c-37 25 -60 56 -60 105v1c0 79 77 144 191 143c92 0 169 -32 225 -86l-61 -74c-48 43 -102 69 -165 69c-53 0 -77 -23 -77 -52v-1c0 -31 26 -52 129 -80c158 -45 216 -81 216 -156v-1c0 -62 -49 -105 -122 -118
c37 -25 60 -56 60 -105v-1c0 -79 -77 -144 -191 -143z" />
    <glyph glyph-name="degree.tab" horiz-adv-x="630" 
d="M314 315c-116 0 -214 95 -214 211v1c0 114 100 211 216 210c116 0 214 -95 214 -211v-1c0 -114 -100 -211 -216 -210zM316 387c80 0 136 62 136 139v1c0 76 -58 140 -138 139c-80 0 -136 -62 -136 -140v-1c0 -75 58 -139 138 -138z" />
    <glyph glyph-name="percent.tab" horiz-adv-x="630" 
d="M157 735c74 0 124 -73 124 -183v-8c0 -110 -50 -184 -124 -184c-73 0 -123 73 -123 183v8c0 111 50 184 123 184zM466 728h68l-199 -376l-171 -352h-68l199 376zM157 667c-33 0 -53 -39 -53 -112v-15c0 -72 20 -112 53 -112c34 0 53 40 53 112v15c0 73 -19 112 -53 112z
M473 368c73 0 123 -73 123 -183v-8c0 -111 -50 -184 -123 -184c-74 0 -124 73 -124 183v8c0 110 50 184 124 184zM473 300c-34 0 -53 -40 -53 -112v-15c0 -73 19 -112 53 -112c33 0 53 39 53 112v15c0 72 -20 112 -53 112z" />
    <glyph glyph-name="quotedbl.tab" horiz-adv-x="630" 
d="M113 420l50 308h137v-5l-124 -303h-63zM356 420l49 308h138v-5l-124 -303h-63z" />
    <glyph glyph-name="quotesingle.tab" horiz-adv-x="315" 
d="M77 420l49 308h139v-5l-124 -303h-64z" />
    <glyph glyph-name="period.tab" horiz-adv-x="315" 
d="M87 0v145h142v-145h-142z" />
    <glyph glyph-name="comma.tab" horiz-adv-x="315" 
d="M69 -148l-13 51c63 13 91 45 87 97h-56v145h142v-124c0 -112 -57 -160 -160 -169z" />
    <glyph glyph-name="colon.tab" horiz-adv-x="315" 
d="M88 405v143h140v-143h-140zM88 0v143h140v-143h-140z" />
    <glyph glyph-name="semicolon.tab" horiz-adv-x="315" 
d="M88 405v143h140v-143h-140zM69 -148l-13 51c63 13 91 45 87 97h-55v143h140v-122c0 -112 -56 -160 -159 -169z" />
    <glyph glyph-name="twodotleader.tab" horiz-adv-x="630" 
d="M91 0v138h136v-138h-136zM403 0v138h136v-138h-136z" />
    <glyph glyph-name="periodcentered.tab" horiz-adv-x="315" 
d="M87 245v146h142v-146h-142z" />
    <glyph glyph-name="slash.tab" horiz-adv-x="630" 
d="M616 830l-512 -963h-105l512 963h105z" />
    <glyph glyph-name="bar.tab" horiz-adv-x="315" 
d="M109 -133v963h98v-963h-98z" />
    <glyph glyph-name="underscore.tab" horiz-adv-x="630" 
d="M1 -166v94h628v-94h-628z" />
    <glyph glyph-name="plus.tab" horiz-adv-x="630" 
d="M563 313h-194l1 -197h-110l1 197h-194v106h194l-1 197h110l-1 -197h194v-106z" />
    <glyph glyph-name="minus.tab" horiz-adv-x="630" 
d="M563 310h-496v113h496v-113z" />
    <glyph glyph-name="divide.tab" horiz-adv-x="630" 
d="M248 517v129h134v-129h-134zM563 314h-496v104h496v-104zM248 86v130h134v-130h-134z" />
    <glyph glyph-name="equal.tab" horiz-adv-x="630" 
d="M546 438h-462v108h462v-108zM546 186h-462v108h462v-108z" />
    <glyph glyph-name="multiply.tab" horiz-adv-x="630" 
d="M478 126l-164 167l-164 -167l-75 75l167 164l-167 164l77 77l164 -167l164 167l75 -75l-167 -164l167 -164z" />
    <glyph glyph-name="less.tab" horiz-adv-x="630" 
d="M538 84l-468 229v107l468 228v-114l-353 -167l353 -167v-116z" />
    <glyph glyph-name="greater.tab" horiz-adv-x="630" 
d="M560 313l-468 -229v115l353 166l-353 167v116l468 -228v-107z" />
    <glyph glyph-name="plusminus.tab" horiz-adv-x="630" 
d="M563 387h-194l1 -190h-110l1 190h-194v106h194l-1 190h110l-1 -190h194v-106zM563 0h-496v103h496v-103z" />
    <glyph glyph-name="baht" unicode="&#xe3f;" horiz-adv-x="677" 
d="M313 -123h-82l14 123h-161v728h249l10 83h82l-11 -86c115 -13 192 -78 192 -182v-1c0 -94 -57 -141 -117 -166c80 -30 138 -76 138 -174v-1c0 -131 -104 -201 -258 -201h-43zM194 412h106l26 214h-132v-214zM494 523c0 56 -36 92 -98 101l-26 -212c76 4 124 41 124 110v1
zM194 102h69l26 220h-95v-220zM367 322h-7l-26 -220h38c89 0 143 38 143 110v1c0 68 -51 110 -148 109z" />
    <glyph glyph-name="colonmonetary" unicode="&#x20a1;" horiz-adv-x="646" 
d="M294 116c26 -11 55 -16 87 -16l74 514c-24 9 -49 14 -77 14h-11zM164 357c0 -97 29 -166 78 -209l67 468c-86 -30 -145 -118 -145 -251v-8zM480 811h62l-15 -113c27 -12 51 -28 73 -46l-47 -102c-15 13 -30 25 -46 36l-68 -479c39 12 71 35 105 67l61 -79
c-51 -48 -105 -81 -178 -92l-17 -126h-63l17 123c-29 0 -56 4 -82 11l-18 -134h-63l22 158c-103 55 -172 169 -172 324v9c0 196 114 330 271 356l12 87h62l-12 -82c31 -1 58 -4 83 -10z" />
    <glyph glyph-name="florin" unicode="&#x192;" horiz-adv-x="555" 
d="M104 -5c-24 0 -40 1 -57 5v99c14 -3 27 -4 41 -4c44 0 69 21 78 71l36 206h-85v101h103l19 100c20 105 70 160 180 160c39 0 68 -4 94 -12v-101c-25 6 -50 11 -71 11c-50 0 -76 -25 -86 -82l-13 -76h134v-101h-152l-41 -223c-20 -110 -75 -154 -180 -154z" />
    <glyph glyph-name="naira" unicode="&#x20a6;" horiz-adv-x="874" 
d="M259 558v-263h165l-162 263h-3zM612 184h3v253h-159zM834 220h-105v-220h-127l-136 220h-205v-220h-116v220h-105v78h105v136h-105v78h105v216h137l132 -216h199v216h116v-216h105v-78h-105v-136h105v-78z" />
    <glyph glyph-name="peso" unicode="&#x20b1;" horiz-adv-x="782" 
d="M141 0v439h-105v75h105v214h241c155 0 258 -87 274 -214h100v-75h-100c-18 -141 -142 -219 -289 -219h-103v-220h-123zM261 622v-112h272c-14 72 -75 112 -164 112h-108zM369 324c92 0 152 48 164 119h-272v-119h108z" />
    <glyph glyph-name="R_p" horiz-adv-x="1255" 
d="M201 361h140c87 0 144 49 144 130v4c0 85 -56 127 -146 127h-138v-261zM964 89c74 0 134 67 134 180v11c0 111 -61 180 -134 180c-72 0 -137 -69 -137 -179v-12c0 -110 65 -180 137 -180zM86 0v728h261c156 0 255 -85 255 -229v-3c0 -112 -64 -183 -152 -214l174 -282
h-134l-158 259h-131v-259h-115zM716 -166v715h113v-90c35 54 85 101 165 101c111 0 218 -94 218 -278v-14c0 -183 -106 -279 -218 -279c-81 0 -131 47 -165 97v-252h-113z" />
    <glyph glyph-name="rupee" unicode="&#x20a8;" horiz-adv-x="1148" 
d="M201 361h140c87 0 144 49 144 130v4c0 85 -56 127 -146 127h-138v-261zM86 0v728h261c156 0 255 -85 255 -229v-3c0 -112 -64 -183 -152 -214l174 -282h-134l-158 259h-131v-259h-115zM900 -10c-82 0 -159 27 -224 75l51 81c57 -41 115 -64 176 -64c51 0 89 25 89 63v2
c0 34 -21 51 -117 83c-115 37 -174 77 -174 163v2c0 100 84 162 192 162c66 0 134 -22 190 -58l-44 -85c-49 30 -99 50 -149 50c-51 0 -84 -26 -84 -59v-2c0 -34 25 -53 120 -84c115 -37 171 -77 171 -163v-2c0 -107 -89 -164 -197 -164z" />
    <glyph glyph-name="won" unicode="&#x20a9;" horiz-adv-x="1166" 
d="M580 591l-78 -290h160l-77 290h-5zM811 132h6l68 296h-152zM353 132h5l78 296h-153zM1081 728l-61 -223h105v-81h-127l-32 -120h159v-80h-181l-61 -226h-139l-63 226h-197l-62 -226h-140l-62 226h-179v80h158l-33 120h-125v81h103l-60 223h132l53 -223h185l61 225h140
l60 -225h186l53 223h127z" />
    <glyph glyph-name="hryvnia" unicode="&#x20b4;" horiz-adv-x="674" 
d="M58 445l7 57l305 -37c46 37 67 62 67 98c0 43 -33 72 -93 72c-54 0 -108 -22 -166 -69l-64 83c65 55 142 91 240 91c136 0 215 -76 215 -170c0 -46 -19 -84 -56 -122l125 -15l-8 -58l-174 21l-87 -74l249 -30l-7 -57l-302 36c-62 -50 -76 -75 -76 -107
c0 -46 39 -71 100 -71c58 0 119 24 180 71l64 -84c-69 -54 -151 -92 -253 -92c-147 0 -224 78 -224 169c0 46 20 88 64 132l-126 15l8 58l176 -22l88 74z" />
    <glyph glyph-name="numero" unicode="&#x2116;" horiz-adv-x="1181" 
d="M926 291c-114 0 -192 94 -192 217v7c0 124 79 217 193 217s192 -93 192 -217v-6c0 -124 -79 -218 -193 -218zM927 370c61 0 102 60 102 137v7c0 78 -41 139 -103 139c-61 0 -102 -60 -102 -137v-7c0 -78 41 -139 103 -139zM84 0v728h107l328 -495v495h113v-728h-98
l-337 511v-511h-113zM742 140v71h368v-71h-368z" />
    <glyph glyph-name="sheqel" unicode="&#x20aa;" horiz-adv-x="660" 
d="M362 359c0 61 -31 89 -92 89h-106v-448h-94v548h216c92 0 143 -47 143 -140v-201h-67v152zM247 145l-30 200h67l25 -157c10 -61 41 -88 102 -88h85v448h93v-548h-179c-98 0 -149 46 -163 145z" />
    <glyph glyph-name="Delta" unicode="&#x2206;" horiz-adv-x="827" 
d="M62 0l-10 89l298 644h127l298 -644l-10 -89h-703zM412 597l-221 -488h440z" />
    <glyph glyph-name="Omega" unicode="&#x2126;" horiz-adv-x="912" 
d="M457 740c228 0 369 -147 369 -340v-1c0 -132 -70 -223 -168 -294l188 1v-106h-317v103c96 66 168 143 168 283v1c0 141 -93 241 -242 240c-147 0 -240 -98 -240 -238v-1c0 -133 68 -215 168 -285v-103h-317v106l187 -1c-98 73 -167 162 -167 295v1c0 183 140 340 371 339
z" />
    <glyph glyph-name="mu" unicode="&#xb5;" horiz-adv-x="702" 
d="M675 98v-96c-18 -5 -38 -9 -70 -9c-70 0 -112 24 -131 79c-34 -52 -83 -80 -140 -80c-60 0 -118 29 -145 88h-2c8 -46 15 -80 15 -127v-119h-118v714h120v-312c0 -86 50 -141 126 -141s128 55 128 141v312h120v-394c2 -42 23 -60 62 -60c14 0 26 1 35 4z" />
    <glyph glyph-name="asciicircum" unicode="^" 
d="M63 513l158 216h86l158 -216h-94l-108 140l-108 -140h-92z" />
    <glyph glyph-name="asciitilde" unicode="~" horiz-adv-x="520" 
d="M339 250c-30 0 -59 11 -85 22c-24 9 -46 19 -63 19c-30 0 -42 -16 -57 -51l-67 20c22 83 52 127 114 127c30 0 60 -12 86 -22c23 -10 45 -19 62 -19c30 0 42 15 57 51l67 -20c-22 -83 -52 -127 -114 -127z" />
    <glyph glyph-name="hcoslug" horiz-adv-x="694" 
d="M644 700v-800h-594v800h594zM247 428c0 17 11 29 27 29c17 0 29 -15 29 -38c0 -17 -7 -33 -18 -50c-23 22 -38 36 -38 59zM312 342c19 13 33 24 42 34c23 -23 18 -47 -1 -80c-13 15 -25 30 -41 46zM261 219c-30 0 -52 23 -52 54c0 15 5 29 16 40c18 -17 46 -47 74 -82
c-11 -9 -23 -12 -38 -12zM382 264c15 20 31 33 46 42c9 -15 25 -25 43 -25c28 0 50 23 50 54s-22 52 -50 52c-25 0 -44 -14 -60 -38c-2 27 -22 38 -49 37c6 10 9 21 9 34c0 35 -33 74 -95 74c-67 0 -109 -42 -109 -85c0 -29 10 -47 31 -69c-53 -18 -82 -49 -82 -91
c0 -53 49 -93 109 -93c42 0 76 14 104 45c33 -34 55 -45 85 -45c43 0 78 36 80 94l-7 2c-10 -17 -22 -29 -43 -29c-20 0 -37 12 -62 41zM286 124l-12 -2v-9h-7v-7h7v-20c0 -8 4 -13 12 -13s12 4 14 13l-5 2c-1 -5 -3 -7 -5 -7c-3 0 -4 2 -4 5v20h13v7h-13v11zM174 94
c0 -13 9 -21 21 -21s21 9 21 21s-9 20 -21 20s-21 -8 -21 -20zM203 94c0 -12 -3 -16 -8 -16s-8 4 -8 16c0 11 3 15 8 15s8 -4 8 -15zM219 81v-7h22v7h-4v15c0 6 3 10 7 10s6 -3 6 -7v-18h-4v-7h22v7h-6v19c0 8 -3 14 -12 14c-7 0 -11 -4 -14 -11v10h-17v-7h6v-25h-6zM379 93
c0 -8 -2 -13 -7 -13c-6 0 -8 5 -8 13c0 7 2 13 8 13c5 0 7 -5 7 -13zM125 81v-7h30v7h-10v16h4c5 0 5 -1 6 -8h7v23h-7c-1 -7 -1 -8 -6 -8h-4v18h12c7 0 9 -2 11 -13h8v20h-51v-7h7v-41h-7zM302 88v-14h7l1 4c3 -2 6 -5 13 -5c9 0 14 6 14 13c0 16 -24 10 -24 18
c0 2 2 4 5 4c4 0 7 -3 10 -7h7v13h-6l-2 -5c-2 3 -6 5 -11 5c-9 0 -14 -6 -14 -12c0 -16 24 -11 24 -19c0 -2 -2 -4 -5 -4c-5 0 -8 3 -12 9h-7zM352 125v-52h6l4 8c3 -5 7 -8 14 -8c12 0 16 12 16 21c0 12 -6 20 -15 20c-6 0 -11 -3 -13 -9v27h-18v-7h6zM405 65
c3 3 2 10 -5 10c-4 0 -7 -3 -7 -7c0 -5 4 -9 11 -9c9 0 14 6 18 16l13 31h5v7h-17v-7h5l-8 -20l-9 20h6v7h-25v-7h5s12 -23 16 -33c-1 -5 -4 -8 -8 -8zM294 39v3c0 10 3 12 6 12c2 0 3 -1 3 -1s-1 -1 -1 -3c0 -4 3 -6 6 -6v-5h-14zM464 33h-18v-7h6c-1 -3 -4 -7 -6 -9
c-4 4 -7 8 -12 13c7 3 11 6 11 12s-5 12 -14 12c-10 0 -17 -7 -17 -14c0 -5 2 -8 6 -12c-7 -2 -13 -7 -13 -15s6 -14 18 -14c6 0 11 2 15 6c4 -5 7 -6 12 -6c8 0 11 5 13 12l-5 1c-1 -4 -2 -5 -4 -5s-4 2 -6 5c3 4 6 8 9 14h5v7zM469 27c0 -17 11 -28 29 -28
c15 0 23 9 24 23h-8c-1 -9 -6 -16 -14 -16c-10 0 -16 7 -16 22c0 16 6 22 14 22s11 -4 15 -16h8v22h-8l-1 -6c-4 4 -9 7 -16 7c-14 0 -27 -12 -27 -30zM431 33c-4 4 -6 7 -6 10s2 5 5 5c4 0 6 -3 6 -6c0 -4 -2 -7 -5 -9zM340 18h26c1 13 -5 22 -19 22c-11 0 -20 -9 -20 -21
s8 -20 21 -20c11 0 16 6 18 14h-7c-1 -5 -4 -7 -9 -7c-7 0 -10 3 -10 12zM525 20c0 -13 9 -21 21 -21s21 9 21 21s-9 20 -21 20s-21 -8 -21 -20zM189 20c0 -13 9 -21 21 -21s21 9 21 21s-9 20 -21 20s-21 -8 -21 -20zM247 18h26c1 13 -5 22 -19 22c-11 0 -20 -9 -20 -21
s8 -20 21 -20c11 0 16 6 18 14h-7c-1 -5 -4 -7 -9 -7c-7 0 -10 3 -10 12zM340 23c0 9 3 12 7 12c5 0 7 -4 7 -12h-14zM554 20c0 -12 -3 -16 -8 -16s-8 4 -8 16c0 11 3 15 8 15s8 -4 8 -15zM218 20c0 -12 -3 -16 -8 -16s-8 4 -8 16c0 11 3 15 8 15s8 -4 8 -15zM247 23
c0 9 3 12 7 12c5 0 7 -4 7 -12h-14zM368 7v-7h26v7h-8v16c2 5 5 9 7 9v-1c0 -4 3 -6 6 -6c4 0 7 3 7 7c0 5 -3 8 -8 8s-9 -3 -12 -11v10h-18v-7h6v-25h-6zM276 7v-7h23v7h-5v25h14v-25h-5v-7h23v7h-6v52l-10 -2c-2 1 -6 2 -9 2c-10 0 -19 -6 -19 -19v-1h-7v-7h7v-25h-6z
M124 7v-7h29v7h-8v18h22v-18h-8v-7h29v7h-8v41h8v7h-29v-7h8v-16h-22v16h8v7h-29v-7h8v-41h-8zM437 9c-3 -2 -6 -3 -8 -3c-6 0 -10 4 -10 10c0 4 2 7 4 9c5 -5 9 -10 14 -16zM583 6c0 4 -3 7 -7 7s-7 -3 -7 -7s3 -7 7 -7s7 3 7 7z" />
    <glyph glyph-name="space" unicode=" " horiz-adv-x="320" 
 />
    <glyph glyph-name="uni00A0" unicode="&#xa0;" horiz-adv-x="320" 
 />
    <glyph glyph-name="emspace" unicode="&#x2003;" horiz-adv-x="1000" 
 />
    <glyph glyph-name="enspace" unicode="&#x2002;" horiz-adv-x="500" 
 />
    <glyph glyph-name="threeperemspace" unicode="&#x2004;" horiz-adv-x="333" 
 />
    <glyph glyph-name="fourperemspace" unicode="&#x2005;" horiz-adv-x="250" 
 />
    <glyph glyph-name="thinspace" unicode="&#x2009;" horiz-adv-x="133" 
 />
    <glyph glyph-name="hairspace" unicode="&#x200a;" horiz-adv-x="75" 
 />
    <glyph glyph-name="space.tab" horiz-adv-x="315" 
 />
    <glyph glyph-name="figurespace" unicode="&#x2007;" horiz-adv-x="630" 
 />
    <glyph glyph-name="NUL" horiz-adv-x="0" 
 />
    <glyph glyph-name="acute" unicode="&#xb4;" 
d="M175 619l107 168l110 -50l-126 -118h-91z" />
    <glyph glyph-name="hungarumlaut" unicode="&#x2dd;" 
d="M73 619l106 168l107 -49l-125 -119h-88zM248 619l107 168l107 -49l-126 -119h-88z" />
    <glyph glyph-name="grave" unicode="`" 
d="M262 619l-126 118l110 50l107 -168h-91z" />
    <glyph glyph-name="caron.alt" 
d="M215 612l13 195h96v-4l-58 -191h-51z" />
    <glyph glyph-name="circumflex" unicode="&#x2c6;" 
d="M89 619l119 150h112l120 -150h-97l-80 69l-80 -69h-94z" />
    <glyph glyph-name="caron" unicode="&#x2c7;" 
d="M440 769l-120 -150h-112l-119 150h96l80 -69l80 69h95z" />
    <glyph glyph-name="breve" unicode="&#x2d8;" 
d="M264 617c-99 0 -168 54 -175 148h83c12 -38 39 -64 92 -64s80 26 92 64h84c-8 -94 -77 -148 -176 -148z" />
    <glyph glyph-name="tilde" unicode="&#x2dc;" 
d="M343 619c-30 0 -59 11 -85 22c-24 10 -46 19 -63 19c-30 0 -42 -16 -57 -51l-67 20c22 83 52 127 114 127c30 0 59 -11 85 -22c24 -10 46 -19 63 -19c30 0 42 16 57 51l67 -20c-22 -83 -52 -127 -114 -127z" />
    <glyph glyph-name="macron" unicode="&#xaf;" 
d="M89 632v88h350v-88h-350z" />
    <glyph glyph-name="dieresis" unicode="&#xa8;" 
d="M102 619v120h124v-120h-124zM302 619v120h124v-120h-124z" />
    <glyph glyph-name="dotaccent" unicode="&#x2d9;" 
d="M200 619v121h128v-121h-128z" />
    <glyph glyph-name="ring" unicode="&#x2da;" 
d="M264 617c-66 0 -120 51 -120 115s54 116 120 116s120 -52 120 -116s-54 -115 -120 -115zM264 662c38 0 70 32 70 70s-32 70 -70 70s-70 -32 -70 -70s32 -70 70 -70z" />
    <glyph glyph-name="commaaccent" unicode="&#x326;" 
d="M195 -279l-8 40c51 6 75 29 72 69h-55v103h120v-88c0 -83 -45 -120 -129 -124z" />
    <glyph glyph-name="cedilla" unicode="&#xb8;" 
d="M249 -171l-106 45l97 143h90z" />
    <glyph glyph-name="ogonek" unicode="&#x2db;" 
d="M362 -112v-59c-11 -1 -22 -2 -31 -2c-89 2 -136 38 -136 88c0 35 21 65 55 98l81 -6c-32 -29 -44 -51 -44 -74c0 -29 24 -45 75 -45z" />
    <glyph glyph-name="uni0384" unicode="&#x384;" 
d="M188 619l71 175l108 -47l-99 -128h-80z" />
    <glyph glyph-name="uni0385" unicode="&#x385;" 
d="M204 619l44 198l105 -23l-80 -175h-69zM61 619v119h111v-119h-111zM356 619v119h111v-119h-111z" />
    <glyph glyph-name="uni0387" unicode="&#x387;" horiz-adv-x="295" 
d="M81 409v139h133v-139h-133z" />
    <glyph glyph-name="descendercyrillic" 
d="M197 12h86c36 -30 56 -59 56 -94c0 -54 -48 -91 -134 -91c-14 0 -29 1 -42 3v59c4 -1 7 -1 11 -1c45 -1 73 15 73 46c0 21 -11 44 -50 78z" />
    <glyph glyph-name="acute.cap" 
d="M170 789l115 149l110 -49l-131 -100h-94z" />
    <glyph glyph-name="hungarumlaut.cap" 
d="M245 789l116 149l106 -49l-131 -100h-91zM66 789l115 149l107 -49l-131 -100h-91z" />
    <glyph glyph-name="grave.cap" 
d="M357 789h-95l-131 100l110 49z" />
    <glyph glyph-name="circumflex.cap" 
d="M83 789l124 138h114l124 -138h-102l-80 60l-80 -60h-100z" />
    <glyph glyph-name="caron.cap" 
d="M445 927l-124 -138h-114l-124 138h102l80 -60l80 60h100z" />
    <glyph glyph-name="breve.cap" 
d="M264 787c-99 0 -169 49 -177 137h86c13 -33 39 -52 91 -52s78 19 91 52h86c-8 -88 -78 -137 -177 -137z" />
    <glyph glyph-name="tilde.cap" 
d="M345 789c-30 0 -62 12 -91 23c-23 9 -44 17 -60 17c-30 0 -43 -16 -58 -50l-68 20c23 80 53 126 115 126c30 0 62 -12 91 -24c23 -9 44 -17 60 -17c30 0 42 16 57 50l68 -20c-22 -80 -53 -125 -114 -125z" />
    <glyph glyph-name="macron.cap" 
d="M79 802v90h370v-90h-370z" />
    <glyph glyph-name="dieresis.cap" 
d="M95 789v113h126v-113h-126zM307 789v113h125v-113h-125z" />
    <glyph glyph-name="dotaccent.cap" 
d="M199 789v113h130v-113h-130z" />
    <glyph glyph-name="ring.cap" 
d="M264 787c-66 0 -122 45 -122 109c0 63 56 109 122 109s122 -46 122 -109c0 -64 -56 -109 -122 -109zM264 835c40 0 67 27 67 61s-27 60 -67 60s-67 -26 -67 -60s27 -61 67 -61z" />
    <glyph glyph-name="uni0384.cap" 
d="M158 526l14 202h121l-71 -202h-64z" />
    <glyph glyph-name="commaaccent.rot" 
d="M333 831l8 -40c-51 -6 -75 -29 -72 -69h55v-103h-120v88c0 83 45 120 129 124z" />
    <glyph glyph-name="acute.altlc" 
d="M173 881l113 142l108 -50l-130 -92h-91z" />
    <glyph glyph-name="acute.altuc" 
d="M169 914l120 132l109 -48l-134 -84h-95z" />
    <glyph glyph-name="caron.alt.cap" 
d="M215 612l13 195h96v-4l-58 -191h-51z" />
    <glyph glyph-name="cedilla.cap" 
d="M249 -171l-106 45l97 143h90z" />
    <glyph glyph-name="commaaccent.cap" 
d="M195 -279l-8 40c51 6 75 29 72 69h-55v103h120v-88c0 -83 -45 -120 -129 -124z" />
    <glyph glyph-name="ogonek.cap" 
d="M362 -112v-59c-11 -1 -22 -2 -31 -2c-89 2 -136 38 -136 88c0 35 21 65 55 98l81 -6c-32 -29 -44 -51 -44 -74c0 -29 24 -45 75 -45z" />
    <glyph glyph-name="uni0385.cap" 
d="M204 619l44 198l105 -23l-80 -175h-69zM61 619v119h111v-119h-111zM356 619v119h111v-119h-111z" />
    </font>
</defs>
</svg>
