<?xml version="1.0" standalone="no"?>
<!DOCTYPE svg PUBLIC "-//W3C//DTD SVG 1.1//EN" "http://www.w3.org/Graphics/SVG/1.1/DTD/svg11.dtd" >
<svg xmlns="http://www.w3.org/2000/svg" xmlns:xlink="http://www.w3.org/1999/xlink" version="1.1">
<metadata>
Created by FontForge 20190801 at Tue Apr 21 18:02:58 2015
 By Jimmy Wärting
Copyright C 2010, 2014 Hoefler &#38; Co. http:www.typography.com
</metadata>
<defs>
<font id="GothamSSm-Light" horiz-adv-x="420" >
  <font-face 
    font-family="Gotham SSm"
    font-weight="300"
    font-stretch="normal"
    units-per-em="1000"
    panose-1="0 0 0 0 0 0 0 0 0 0"
    ascent="800"
    descent="-200"
    x-height="534"
    cap-height="728"
    bbox="-216 -245 1204 1030"
    underline-thickness="50"
    underline-position="-100"
    stemh="62"
    stemv="72"
    unicode-range="U+0020-FB04"
  />
<missing-glyph horiz-adv-x="500" 
d="M0 -200v1000h500v-1000h-500zM71 750l179 -390l179 390h-358zM450 676l-172 -376l172 -376v752zM50 -76l172 376l-172 376v-752zM250 240l-179 -390h358z" />
    <glyph glyph-name="f_f" unicode="ff" horiz-adv-x="769" 
d="M508 0v474h-75v60h75v49c0 61 17 108 47 138c27 27 65 42 114 42c35 0 59 -5 84 -13v-60c-29 9 -51 13 -78 13c-68 0 -100 -40 -100 -123v-46h177v-60h-177v-474h-67zM128 0v474h-75v60h75v49c0 61 17 108 47 138c27 27 65 42 114 42c35 0 59 -5 84 -13v-60
c-29 9 -51 13 -78 13c-68 0 -100 -40 -100 -123v-46h177v-60h-177v-474h-67z" />
    <glyph glyph-name="fi" unicode="fi" horiz-adv-x="657" 
d="M479 661v81h79v-81h-79zM128 0v474h-75v60h75v49c0 61 17 108 47 138c27 27 65 42 114 42c35 0 59 -5 84 -13v-60c-29 9 -51 13 -78 13c-68 0 -100 -40 -100 -123v-46h177v-60h-177v-474h-67zM485 0v534h67v-534h-67z" />
    <glyph glyph-name="fl" unicode="fl" horiz-adv-x="657" 
d="M485 0v759h67v-759h-67zM128 0v474h-75v60h75v49c0 61 17 108 47 138c27 27 65 42 114 42c35 0 59 -5 84 -13v-60c-29 9 -51 13 -78 13c-68 0 -100 -40 -100 -123v-46h177v-60h-177v-474h-67z" />
    <glyph glyph-name="f_f_i" unicode="ffi" horiz-adv-x="1036" 
d="M858 661v81h79v-81h-79zM508 0v474h-75v60h75v49c0 61 17 108 47 138c27 27 65 42 114 42c35 0 59 -5 84 -13v-60c-29 9 -51 13 -78 13c-68 0 -100 -40 -100 -123v-46h177v-60h-177v-474h-67zM128 0v474h-75v60h75v49c0 61 17 108 47 138c27 27 65 42 114 42
c35 0 59 -5 84 -13v-60c-29 9 -51 13 -78 13c-68 0 -100 -40 -100 -123v-46h177v-60h-177v-474h-67zM864 0v534h67v-534h-67z" />
    <glyph glyph-name="f_f_l" unicode="ffl" horiz-adv-x="1036" 
d="M864 0v759h67v-759h-67zM508 0v474h-75v60h75v49c0 61 17 108 47 138c27 27 65 42 114 42c35 0 59 -5 84 -13v-60c-29 9 -51 13 -78 13c-68 0 -100 -40 -100 -123v-46h177v-60h-177v-474h-67zM128 0v474h-75v60h75v49c0 61 17 108 47 138c27 27 65 42 114 42
c35 0 59 -5 84 -13v-60c-29 9 -51 13 -78 13c-68 0 -100 -40 -100 -123v-46h177v-60h-177v-474h-67z" />
    <glyph glyph-name=".notdef" horiz-adv-x="500" 
d="M0 -200v1000h500v-1000h-500zM71 750l179 -390l179 390h-358zM450 676l-172 -376l172 -376v752zM50 -76l172 376l-172 376v-752zM250 240l-179 -390h358z" />
    <glyph glyph-name="A" unicode="A" horiz-adv-x="832" 
d="M237 261h355l-177 393zM48 0l335 733h66l335 -733h-76l-88 198h-411l-89 -198h-72z" />
    <glyph glyph-name="B" unicode="B" horiz-adv-x="761" 
d="M110 0v728h306c83 0 149 -24 190 -64c30 -31 47 -70 47 -116v-2c0 -97 -61 -146 -120 -171c87 -24 160 -74 160 -174v-2c0 -124 -104 -199 -262 -199h-321zM582 537v2c0 75 -61 126 -170 126h-233v-267h227c103 0 176 49 176 139zM623 204c0 83 -72 132 -206 132h-238
v-273h253c117 0 191 53 191 139v2z" />
    <glyph glyph-name="C" unicode="C" horiz-adv-x="782" 
d="M441 -12c-208 0 -363 165 -363 374v2c0 206 154 376 366 376c131 0 210 -47 284 -115l-48 -52c-63 60 -133 104 -237 104c-167 0 -292 -137 -292 -311v-2c0 -175 127 -313 293 -313c102 0 170 40 242 109l46 -45c-77 -77 -160 -127 -291 -127z" />
    <glyph glyph-name="D" unicode="D" horiz-adv-x="823" 
d="M110 0v728h249c228 0 386 -157 386 -362v-2c0 -205 -158 -364 -386 -364h-249zM359 664h-179v-600h179c192 0 314 131 314 298v2c0 166 -122 300 -314 300z" />
    <glyph glyph-name="E" unicode="E" horiz-adv-x="707" 
d="M110 0v728h523v-64h-453v-265h406v-64h-406v-271h458v-64h-528z" />
    <glyph glyph-name="F" unicode="F" horiz-adv-x="692" 
d="M110 0v728h519v-64h-449v-277h402v-64h-402v-323h-70z" />
    <glyph glyph-name="G" unicode="G" horiz-adv-x="825" 
d="M446 -12c-229 0 -368 167 -368 374v2c0 198 145 376 363 376c120 0 196 -35 269 -96l-45 -53c-57 50 -121 86 -228 86c-167 0 -286 -143 -286 -311v-2c0 -180 113 -314 298 -314c87 0 169 35 220 77v194h-231v63h298v-286c-67 -59 -169 -110 -290 -110z" />
    <glyph glyph-name="H" unicode="H" horiz-adv-x="800" 
d="M110 0v728h70v-330h440v330h70v-728h-70v334h-440v-334h-70z" />
    <glyph glyph-name="I" unicode="I" horiz-adv-x="305" 
d="M117 0v728h70v-728h-70z" />
    <glyph glyph-name="J" unicode="J" horiz-adv-x="583" 
d="M263 -10c-109 0 -178 55 -223 132l53 41c44 -72 92 -110 172 -110c85 0 149 63 149 184v491h71v-489c0 -84 -26 -149 -67 -190c-40 -39 -94 -59 -155 -59z" />
    <glyph glyph-name="K" unicode="K" horiz-adv-x="756" 
d="M110 0v728h70v-454l438 454h93l-316 -319l329 -409h-89l-289 359l-166 -168v-191h-70z" />
    <glyph glyph-name="L" unicode="L" horiz-adv-x="649" 
d="M110 0v728h70v-664h418v-64h-488z" />
    <glyph glyph-name="M" unicode="M" horiz-adv-x="913" 
d="M110 0v728h69l277 -412l277 412h70v-728h-70v609l-276 -403h-4l-275 402v-608h-68z" />
    <glyph glyph-name="N" unicode="N" horiz-adv-x="832" 
d="M110 0v728h66l478 -606v606h68v-728h-55l-489 619v-619h-68z" />
    <glyph glyph-name="O" unicode="O" horiz-adv-x="894" 
d="M446 -12c-221 0 -368 174 -368 374v2c0 200 149 376 370 376s368 -174 368 -374v-2c0 -200 -149 -376 -370 -376zM448 51c172 0 295 139 295 311v2c0 172 -125 313 -297 313s-295 -139 -295 -311v-2c0 -172 125 -313 297 -313z" />
    <glyph glyph-name="P" unicode="P" horiz-adv-x="705" 
d="M110 0v728h269c162 0 272 -85 272 -227v-2c0 -155 -132 -236 -286 -236h-185v-263h-70zM180 327h189c127 0 212 68 212 169v2c0 109 -84 166 -207 166h-194v-337z" />
    <glyph glyph-name="Q" unicode="Q" horiz-adv-x="894" 
d="M825 31l-48 -53l-99 90c-62 -50 -141 -80 -232 -80c-221 0 -368 174 -368 374v2c0 200 149 376 370 376s368 -174 368 -374v-2c0 -93 -33 -182 -90 -249zM448 51c69 0 131 22 179 60l-138 119l48 54l138 -126c43 55 68 126 68 204v2c0 172 -125 313 -297 313
s-295 -139 -295 -311v-2c0 -172 125 -313 297 -313z" />
    <glyph glyph-name="Q.alt" horiz-adv-x="894" 
d="M756 -105l-142 131c-49 -24 -106 -38 -168 -38c-221 0 -368 174 -368 374v2c0 200 149 376 370 376s368 -174 368 -374v-2c0 -117 -51 -226 -137 -296l180 -170v-3h-103zM448 51c172 0 295 139 295 311v2c0 172 -125 313 -297 313s-295 -139 -295 -311v-2
c0 -172 125 -313 297 -313z" />
    <glyph glyph-name="R" unicode="R" horiz-adv-x="762" 
d="M180 354h233c115 0 199 58 199 157v2c0 93 -73 151 -197 151h-235v-310zM110 0v728h310c90 0 162 -28 206 -72c35 -35 56 -85 56 -140v-2c0 -121 -86 -191 -205 -211l231 -303h-86l-221 291h-221v-291h-70z" />
    <glyph glyph-name="S" unicode="S" horiz-adv-x="676" 
d="M358 -10c-115 0 -208 38 -295 116l44 52c78 -71 151 -106 255 -106c102 0 172 56 172 134v2c0 71 -38 112 -197 145c-171 36 -245 92 -245 208v2c0 112 100 195 237 195c106 0 179 -29 253 -89l-42 -54c-68 57 -136 81 -213 81c-100 0 -165 -57 -165 -127v-2
c0 -72 38 -114 204 -149c165 -35 238 -94 238 -204v-2c0 -121 -103 -202 -246 -202z" />
    <glyph glyph-name="T" unicode="T" horiz-adv-x="675" 
d="M303 0v663h-249v65h567v-65h-248v-663h-70z" />
    <glyph glyph-name="U" unicode="U" horiz-adv-x="800" 
d="M400 -11c-178 0 -301 110 -301 315v424h70v-419c0 -164 87 -257 233 -257c140 0 229 85 229 252v424h70v-418c0 -211 -122 -321 -301 -321z" />
    <glyph glyph-name="V" unicode="V" horiz-adv-x="790" 
d="M364 -5l-316 733h77l271 -646l272 646h74l-316 -733h-62z" />
    <glyph glyph-name="W" unicode="W" horiz-adv-x="1159" 
d="M316 -5l-262 733h77l217 -625l206 627h56l205 -627l217 625h73l-261 -733h-59l-205 609l-206 -609h-58z" />
    <glyph glyph-name="X" unicode="X" horiz-adv-x="762" 
d="M616 728h81l-273 -357l284 -371h-83l-245 324l-244 -324h-81l284 371l-274 357h83l234 -310z" />
    <glyph glyph-name="Y" unicode="Y" horiz-adv-x="755" 
d="M342 0v288l-307 440h86l257 -376l259 376h82l-307 -439v-289h-70z" />
    <glyph glyph-name="Z" unicode="Z" horiz-adv-x="729" 
d="M75 0v44l483 621h-466v63h563v-44l-484 -621h484v-63h-580z" />
    <glyph glyph-name="a" unicode="a" horiz-adv-x="610" 
d="M268 45c103 0 190 63 190 153v56c-43 11 -98 23 -169 23c-105 0 -164 -46 -164 -116v-3c0 -71 67 -113 143 -113zM259 -12c-100 0 -203 57 -203 167v2c0 112 94 173 231 173c71 0 120 -9 169 -23v21c0 101 -61 154 -166 154c-64 0 -115 -17 -165 -41l-21 56
c58 27 116 45 192 45c74 0 132 -20 171 -58c36 -37 55 -87 55 -154v-330h-66v84c-37 -50 -100 -96 -197 -96z" />
    <glyph glyph-name="a.alt" horiz-adv-x="699" 
d="M333 50c104 0 204 87 204 216v2c0 130 -100 217 -204 217c-109 0 -198 -81 -198 -216v-2c0 -132 92 -217 198 -217zM322 -12c-128 0 -257 103 -257 277v2c0 175 129 280 257 280c103 0 169 -57 212 -121v108h67v-534h-67v113c-45 -67 -110 -125 -212 -125z" />
    <glyph glyph-name="b" unicode="b" horiz-adv-x="699" 
d="M377 -12c-103 0 -169 57 -212 120v-108h-67v759h67v-337c45 67 110 125 212 125c128 0 257 -103 257 -278v-2c0 -175 -129 -279 -257 -279zM366 50c109 0 197 80 197 215v2c0 133 -91 218 -197 218c-105 0 -204 -88 -204 -217v-2c0 -129 99 -216 204 -216z" />
    <glyph glyph-name="c" unicode="c" horiz-adv-x="604" 
d="M336 -12c-155 0 -273 127 -273 277v2c0 150 119 280 274 280c100 0 163 -45 213 -98l-45 -47c-44 45 -94 84 -170 84c-114 0 -202 -97 -202 -217v-2c0 -121 91 -218 207 -218c72 0 127 36 170 84l44 -41c-54 -61 -118 -104 -218 -104z" />
    <glyph glyph-name="d" unicode="d" horiz-adv-x="699" 
d="M333 50c104 0 204 87 204 216v2c0 130 -100 217 -204 217c-109 0 -198 -81 -198 -216v-2c0 -132 92 -217 198 -217zM322 -12c-128 0 -257 103 -257 277v2c0 175 129 280 257 280c103 0 169 -57 212 -121v333h67v-759h-67v113c-45 -67 -110 -125 -212 -125z" />
    <glyph glyph-name="e" unicode="e" horiz-adv-x="622" 
d="M328 -12c-144 0 -265 112 -265 278v2c0 155 109 279 255 279c154 0 248 -125 248 -282c0 -10 0 -14 -2 -24h-432c11 -123 99 -194 198 -194c77 0 131 34 175 80l43 -39c-54 -59 -119 -100 -220 -100zM132 295h364c-8 102 -66 193 -180 193c-99 0 -174 -82 -184 -193z" />
    <glyph glyph-name="f" unicode="f" horiz-adv-x="390" 
d="M128 0v474h-75v60h75v49c0 61 17 108 47 138c27 27 65 42 114 42c35 0 59 -5 84 -13v-60c-29 9 -51 13 -78 13c-68 0 -100 -40 -100 -123v-46h177v-60h-177v-474h-67z" />
    <glyph glyph-name="g" unicode="g" horiz-adv-x="699" 
d="M330 102c105 0 207 77 207 191v2c0 115 -102 190 -207 190c-106 0 -195 -73 -195 -190v-2c0 -113 91 -191 195 -191zM333 -168c-88 0 -171 26 -244 77l34 53c63 -46 133 -71 211 -71c119 0 200 67 200 198v69c-46 -64 -113 -118 -215 -118c-129 0 -254 98 -254 252v2
c0 155 126 253 254 253c103 0 171 -54 215 -114v101h67v-445c0 -81 -25 -143 -68 -186c-47 -47 -117 -71 -200 -71z" />
    <glyph glyph-name="h" unicode="h" horiz-adv-x="649" 
d="M98 0v759h67v-320c35 60 93 108 187 108c132 0 209 -90 209 -217v-330h-67v314c0 105 -58 171 -158 171c-97 0 -171 -73 -171 -178v-307h-67z" />
    <glyph glyph-name="i" unicode="i" horiz-adv-x="277" 
d="M99 661v81h79v-81h-79zM105 0v534h67v-534h-67z" />
    <glyph glyph-name="j" unicode="j" horiz-adv-x="277" 
d="M99 661v81h79v-81h-79zM49 -170c-17 0 -30 2 -47 5v57c13 -3 29 -4 41 -4c37 0 62 23 62 73v573h67v-572c0 -90 -47 -132 -123 -132z" />
    <glyph glyph-name="k" unicode="k" horiz-adv-x="597" 
d="M98 0v759h67v-544l307 319h86l-229 -232l236 -302h-82l-200 254l-118 -119v-135h-67z" />
    <glyph glyph-name="l" unicode="l" horiz-adv-x="277" 
d="M105 0v759h67v-759h-67z" />
    <glyph glyph-name="m" unicode="m" horiz-adv-x="999" 
d="M98 0v534h67v-92c34 54 82 105 175 105c89 0 146 -50 175 -111c37 59 94 111 190 111c125 0 202 -86 202 -219v-328h-67v314c0 109 -55 171 -147 171c-85 0 -157 -64 -157 -176v-309h-67v317c0 105 -56 168 -146 168c-89 0 -158 -76 -158 -178v-307h-67z" />
    <glyph glyph-name="n" unicode="n" horiz-adv-x="649" 
d="M98 0v534h67v-95c35 60 93 108 187 108c132 0 209 -90 209 -217v-330h-67v314c0 105 -58 171 -158 171c-97 0 -171 -73 -171 -178v-307h-67z" />
    <glyph glyph-name="o" unicode="o" horiz-adv-x="679" 
d="M339 -12c-160 0 -276 127 -276 277v2c0 151 117 280 278 280c159 0 276 -127 276 -278v-2c0 -150 -118 -279 -278 -279zM341 49c120 0 205 98 205 216v2c0 121 -90 219 -207 219c-121 0 -206 -98 -206 -217v-2c0 -121 90 -218 208 -218z" />
    <glyph glyph-name="p" unicode="p" horiz-adv-x="699" 
d="M366 50c109 0 197 80 197 215v2c0 133 -91 218 -197 218c-105 0 -204 -88 -204 -217v-2c0 -129 99 -216 204 -216zM98 -166v700h67v-112c45 67 110 125 212 125c128 0 257 -103 257 -278v-2c0 -175 -129 -279 -257 -279c-103 0 -169 57 -212 120v-274h-67z" />
    <glyph glyph-name="q" unicode="q" horiz-adv-x="699" 
d="M534 -166v279c-45 -67 -110 -125 -212 -125c-128 0 -257 103 -257 277v2c0 175 129 280 257 280c103 0 169 -57 212 -121v108h67v-700h-67zM333 50c104 0 204 87 204 216v2c0 130 -100 217 -204 217c-109 0 -198 -81 -198 -216v-2c0 -132 92 -217 198 -217z" />
    <glyph glyph-name="r" unicode="r" horiz-adv-x="429" 
d="M98 0v534h67v-145c40 92 123 158 226 154v-72h-5c-120 0 -221 -89 -221 -255v-216h-67z" />
    <glyph glyph-name="s" unicode="s" horiz-adv-x="528" 
d="M273 -10c-77 0 -162 30 -221 78l36 50c59 -45 123 -69 188 -69c68 0 119 36 119 92v2c0 58 -65 79 -137 99c-85 25 -179 53 -179 149v2c0 90 74 152 179 152c64 0 137 -23 191 -60l-32 -52c-50 32 -108 53 -161 53c-68 0 -112 -36 -112 -85v-2c0 -55 69 -76 143 -97
c84 -25 174 -57 174 -152v-2c0 -99 -83 -158 -188 -158z" />
    <glyph glyph-name="t" unicode="t" horiz-adv-x="428" 
d="M276 -9c-84 0 -150 43 -150 149v334h-76v60h76v166h67v-166h178v-60h-178v-326c0 -70 40 -96 97 -96c27 0 49 6 78 19v-60c-28 -13 -55 -20 -92 -20z" />
    <glyph glyph-name="u" unicode="u" horiz-adv-x="649" 
d="M297 -12c-132 0 -209 89 -209 217v329h67v-314c0 -104 58 -171 158 -171c97 0 171 73 171 178v307h67v-534h-67v96c-35 -60 -93 -108 -187 -108z" />
    <glyph glyph-name="v" unicode="v" horiz-adv-x="618" 
d="M280 -4l-236 538h76l189 -458l191 458h74l-236 -538h-58z" />
    <glyph glyph-name="w" unicode="w" horiz-adv-x="905" 
d="M243 -4l-191 538h73l149 -446l152 449h55l152 -449l150 446h70l-191 -538h-58l-151 437l-152 -437h-58z" />
    <glyph glyph-name="x" unicode="x" horiz-adv-x="605" 
d="M136 534l167 -216l168 216h77l-206 -260l215 -274h-80l-176 229l-176 -229h-77l214 272l-205 262h79z" />
    <glyph glyph-name="y" unicode="y" horiz-adv-x="623" 
d="M325 74l180 460h73l-228 -552c-46 -112 -99 -152 -177 -152c-43 0 -75 9 -111 26l23 55c27 -13 51 -20 87 -20c51 0 84 28 120 111l-249 532h75z" />
    <glyph glyph-name="z" unicode="z" horiz-adv-x="588" 
d="M64 0v41l369 435h-355v58h449v-41l-369 -435h369v-58h-463z" />
    <glyph glyph-name="uni0391" unicode="&#x391;" horiz-adv-x="832" 
d="M237 261h355l-177 393zM48 0l335 733h66l335 -733h-76l-88 198h-411l-89 -198h-72z" />
    <glyph glyph-name="uni0392" unicode="&#x392;" horiz-adv-x="761" 
d="M110 0v728h306c83 0 149 -24 190 -64c30 -31 47 -70 47 -116v-2c0 -97 -61 -146 -120 -171c87 -24 160 -74 160 -174v-2c0 -124 -104 -199 -262 -199h-321zM582 537v2c0 75 -61 126 -170 126h-233v-267h227c103 0 176 49 176 139zM623 204c0 83 -72 132 -206 132h-238
v-273h253c117 0 191 53 191 139v2z" />
    <glyph glyph-name="uni0393" unicode="&#x393;" horiz-adv-x="649" 
d="M110 0v728h488v-64h-418v-664h-70z" />
    <glyph glyph-name="uni0394" unicode="&#x394;" horiz-adv-x="831" 
d="M62 0l-6 52l325 681h69l325 -681l-6 -52h-707zM414 655l-279 -591h557z" />
    <glyph glyph-name="uni0395" unicode="&#x395;" horiz-adv-x="707" 
d="M110 0v728h523v-64h-453v-265h406v-64h-406v-271h458v-64h-528z" />
    <glyph glyph-name="uni0396" unicode="&#x396;" horiz-adv-x="729" 
d="M75 0v44l483 621h-466v63h563v-44l-484 -621h484v-63h-580z" />
    <glyph glyph-name="uni0397" unicode="&#x397;" horiz-adv-x="800" 
d="M110 0v728h70v-330h440v330h70v-728h-70v334h-440v-334h-70z" />
    <glyph glyph-name="uni0398" unicode="&#x398;" horiz-adv-x="894" 
d="M446 -12c-221 0 -368 174 -368 374v2c0 200 149 376 370 376s368 -174 368 -374v-2c0 -200 -149 -376 -370 -376zM448 51c173 0 296 138 296 311v2c0 173 -125 313 -298 313s-296 -138 -296 -311v-2c0 -173 125 -313 298 -313zM646 399v-66h-398v66h398z" />
    <glyph glyph-name="uni0399" unicode="&#x399;" horiz-adv-x="305" 
d="M117 0v728h70v-728h-70z" />
    <glyph glyph-name="uni039A" unicode="&#x39a;" horiz-adv-x="756" 
d="M110 0v728h70v-454l438 454h93l-316 -319l329 -409h-89l-289 359l-166 -168v-191h-70z" />
    <glyph glyph-name="uni039B" unicode="&#x39b;" horiz-adv-x="813" 
d="M437 733l328 -733h-78l-282 643l-283 -643h-74l326 733h63z" />
    <glyph glyph-name="uni039C" unicode="&#x39c;" horiz-adv-x="913" 
d="M110 0v728h69l277 -412l277 412h70v-728h-70v609l-276 -403h-4l-275 402v-608h-68z" />
    <glyph glyph-name="uni039D" unicode="&#x39d;" horiz-adv-x="832" 
d="M110 0v728h66l478 -606v606h68v-728h-55l-489 619v-619h-68z" />
    <glyph glyph-name="uni039E" unicode="&#x39e;" horiz-adv-x="707" 
d="M633 662h-559v66h559v-66zM604 334h-501v66h501v-66zM638 0h-569v66h569v-66z" />
    <glyph glyph-name="uni039E.alt" horiz-adv-x="787" 
d="M718 64v-64h-649v64h290v271h-256v64h256v265h-285v64h638v-64h-284v-265h256v-64h-256v-271h290z" />
    <glyph glyph-name="uni039F" unicode="&#x39f;" horiz-adv-x="894" 
d="M446 -12c-221 0 -368 174 -368 374v2c0 200 149 376 370 376s368 -174 368 -374v-2c0 -200 -149 -376 -370 -376zM448 51c172 0 295 139 295 311v2c0 172 -125 313 -297 313s-295 -139 -295 -311v-2c0 -172 125 -313 297 -313z" />
    <glyph glyph-name="uni03A0" unicode="&#x3a0;" horiz-adv-x="800" 
d="M110 0v728h580v-728h-70v664h-440v-664h-70z" />
    <glyph glyph-name="uni03A1" unicode="&#x3a1;" horiz-adv-x="705" 
d="M110 0v728h269c162 0 272 -85 272 -227v-2c0 -155 -132 -236 -286 -236h-185v-263h-70zM180 327h189c127 0 212 68 212 169v2c0 109 -84 166 -207 166h-194v-337z" />
    <glyph glyph-name="uni03A3" unicode="&#x3a3;" horiz-adv-x="706" 
d="M465 364l-292 -301h471v-63h-569v52l301 312l-299 312v52h560v-63h-462z" />
    <glyph glyph-name="uni03A4" unicode="&#x3a4;" horiz-adv-x="675" 
d="M303 0v663h-249v65h567v-65h-248v-663h-70z" />
    <glyph glyph-name="uni03A5" unicode="&#x3a5;" horiz-adv-x="755" 
d="M342 0v288l-307 440h86l257 -376l259 376h82l-307 -439v-289h-70z" />
    <glyph glyph-name="uni03A6" unicode="&#x3a6;" horiz-adv-x="953" 
d="M441 -15v91c-238 4 -375 118 -375 291v1c0 167 135 287 375 290v85h70v-85c238 -4 376 -118 376 -291v-1c0 -167 -137 -287 -376 -290v-91h-70zM814 368c0 128 -98 225 -304 228v-458c203 3 304 96 304 229v1zM138 366c0 -129 98 -226 305 -228v458
c-204 -3 -305 -96 -305 -229v-1z" />
    <glyph glyph-name="uni03A7" unicode="&#x3a7;" horiz-adv-x="762" 
d="M616 728h81l-273 -357l284 -371h-83l-245 324l-244 -324h-81l284 371l-274 357h83l234 -310z" />
    <glyph glyph-name="uni03A8" unicode="&#x3a8;" horiz-adv-x="900" 
d="M814 728v-250c0 -206 -133 -293 -329 -296v-182h-70v182c-196 4 -329 89 -329 293v253h70v-250c0 -162 96 -229 259 -232v482h69v-482c165 3 260 69 260 229v253h70z" />
    <glyph glyph-name="uni03A9" unicode="&#x3a9;" horiz-adv-x="913" 
d="M457 740c216 0 360 -150 360 -348v-1c0 -138 -71 -243 -196 -330l221 2v-63h-310v59c126 83 212 172 212 329v1c0 168 -116 289 -288 288c-171 0 -287 -119 -287 -288v-1c0 -150 84 -245 212 -329v-59h-310v63l220 -2c-122 87 -195 188 -195 331v1c0 191 143 348 361 347
z" />
    <glyph glyph-name="uni03B1" unicode="&#x3b1;" horiz-adv-x="738" 
d="M333 50c104 0 204 87 204 216v2c0 130 -100 217 -204 217c-109 0 -198 -81 -198 -216v-2c0 -132 92 -217 198 -217zM714 56v-58c-15 -3 -29 -6 -52 -6c-78 0 -120 38 -126 115c-45 -65 -115 -119 -213 -119c-129 0 -258 103 -258 277v2c0 175 129 280 257 280
c103 0 169 -57 212 -121v108h67v-402c0 -54 23 -81 73 -81c16 0 29 2 40 5z" />
    <glyph glyph-name="uni03B2" unicode="&#x3b2;" horiz-adv-x="684" 
d="M165 505v-99h124c143 0 230 59 230 159c0 82 -64 141 -167 141c-117 0 -187 -76 -187 -201zM290 351h-125v-84c0 -136 95 -219 217 -219c106 0 169 61 169 139c0 100 -81 164 -261 164zM165 -166h-67v671c0 163 98 261 254 261c148 0 237 -83 237 -200v-1
c0 -96 -64 -161 -163 -182c111 -24 195 -78 195 -199v-1c0 -103 -82 -196 -232 -195c-106 0 -180 52 -224 120v-274z" />
    <glyph glyph-name="uni03B3" unicode="&#x3b3;" horiz-adv-x="618" 
d="M574 534l-232 -527v-173h-67v175l-231 525h76l189 -455l191 455h74z" />
    <glyph glyph-name="uni03B4" unicode="&#x3b4;" horiz-adv-x="665" 
d="M527 701l-307 1l190 -154c125 -101 190 -182 190 -298c0 -141 -107 -262 -271 -262s-266 117 -266 258c0 140 79 222 248 303l-191 161v49h407v-58zM368 503l-8 6c-172 -80 -230 -155 -230 -263c0 -111 78 -199 199 -199c124 0 203 90 203 201c0 97 -50 160 -164 255z
" />
    <glyph glyph-name="uni03B5" unicode="&#x3b5;" horiz-adv-x="587" 
d="M415 242h-120c-112 0 -161 -43 -161 -94v-1c0 -59 63 -100 169 -100c76 0 144 22 205 59l32 -50c-70 -44 -148 -68 -239 -68c-157 0 -236 67 -236 154v1c0 70 56 113 119 128c-58 18 -104 53 -104 124v2c0 80 77 149 224 149c98 0 168 -28 229 -69l-36 -51
c-51 36 -117 62 -193 62c-102 0 -155 -44 -155 -97v-1c0 -59 53 -91 145 -91h121v-57z" />
    <glyph glyph-name="uni03B6" unicode="&#x3b6;" horiz-adv-x="567" 
d="M461 -133v121l-128 16c-185 21 -269 100 -269 213c0 91 40 149 175 285l198 198h-332v59h422v-53l-241 -246c-112 -114 -152 -162 -152 -240c0 -84 70 -137 212 -153l179 -22v-178h-64z" />
    <glyph glyph-name="uni03B7" unicode="&#x3b7;" horiz-adv-x="649" 
d="M561 -166h-67v480c0 105 -58 171 -158 171c-97 0 -171 -73 -171 -178v-307h-67v534h67v-95c35 60 93 108 187 108c132 0 209 -90 209 -217v-496z" />
    <glyph glyph-name="uni03B8" unicode="&#x3b8;" horiz-adv-x="695" 
d="M347 -12c-178 0 -275 176 -275 374v26c0 199 98 375 276 375s275 -176 275 -375v-26c0 -198 -98 -374 -276 -374zM347 702c-126 0 -203 -129 -206 -296h413c-4 167 -84 296 -207 296zM349 48c125 0 202 131 205 299h-413c3 -169 83 -299 208 -299z" />
    <glyph glyph-name="uni03B9" unicode="&#x3b9;" horiz-adv-x="302" 
d="M96 130v404h67v-402c0 -54 23 -81 72 -81c16 0 30 2 41 5v-58c-15 -3 -30 -6 -52 -6c-85 0 -128 46 -128 138z" />
    <glyph glyph-name="uni03BA" unicode="&#x3ba;" horiz-adv-x="597" 
d="M165 534v-324l310 324h87l-230 -236l233 -298h-82l-198 252l-120 -121v-131h-67v534h67z" />
    <glyph glyph-name="uni03BB" unicode="&#x3bb;" horiz-adv-x="629" 
d="M101 689v58c23 10 48 15 73 15c88 0 116 -45 163 -161l248 -601h-74l-190 470l-203 -470h-73l243 547l-13 34c-37 88 -57 121 -112 121c-17 0 -38 -4 -62 -13z" />
    <glyph glyph-name="uni03BC" unicode="&#x3bc;" horiz-adv-x="701" 
d="M676 56v-58c-15 -3 -29 -6 -52 -6c-72 0 -114 33 -124 100c-38 -65 -98 -104 -169 -104c-77 0 -137 38 -173 111h-1c7 -59 7 -88 7 -133v-132h-66v700h67v-308c0 -99 71 -178 166 -178s165 79 165 178v308h67v-410c2 -49 25 -73 73 -73c16 0 29 2 40 5z" />
    <glyph glyph-name="uni03BD" unicode="&#x3bd;" horiz-adv-x="618" 
d="M280 -4l-236 538h76l189 -458l191 458h74l-236 -538h-58z" />
    <glyph glyph-name="uni03BE" unicode="&#x3be;" horiz-adv-x="580" 
d="M552 683l-39 -52c-51 43 -110 74 -182 74c-99 0 -164 -56 -164 -144c0 -98 84 -150 186 -150h98v-58h-111c-129 0 -207 -60 -207 -143c0 -97 91 -129 225 -144l174 -21v-178h-64v121l-122 15c-164 16 -283 70 -283 202c0 104 83 159 165 181c-43 15 -131 65 -131 177
c0 110 89 203 234 203c93 0 161 -35 221 -83z" />
    <glyph glyph-name="uni03BF" unicode="&#x3bf;" horiz-adv-x="679" 
d="M339 -12c-160 0 -276 127 -276 277v2c0 151 117 280 278 280c159 0 276 -127 276 -278v-2c0 -150 -118 -279 -278 -279zM341 49c120 0 205 98 205 216v2c0 121 -90 219 -207 219c-121 0 -206 -98 -206 -217v-2c0 -121 90 -218 208 -218z" />
    <glyph glyph-name="uni03C0" unicode="&#x3c0;" horiz-adv-x="727" 
d="M32 534h643v-60h-110v-342c0 -54 23 -81 73 -81c16 0 29 2 40 5v-58c-15 -3 -29 -6 -52 -6c-85 0 -128 46 -128 138v344h-289v-474h-67v474h-110v60z" />
    <glyph glyph-name="uni03C1" unicode="&#x3c1;" horiz-adv-x="686" 
d="M355 50c107 0 195 80 195 215v2c0 133 -88 218 -194 218c-115 0 -202 -88 -202 -217v-2c0 -129 97 -216 201 -216zM85 -166v431c0 161 113 282 269 282c144 0 267 -107 267 -278v-2c0 -174 -129 -279 -257 -279c-103 0 -171 56 -212 125v-279h-67z" />
    <glyph glyph-name="uni03C3" unicode="&#x3c3;" horiz-adv-x="706" 
d="M671 474l-184 1c80 -45 127 -123 127 -215v-1c0 -149 -117 -271 -277 -271c-158 0 -274 120 -274 271v2c0 150 114 273 285 273h323v-60zM339 49c121 0 205 91 205 210v1c0 122 -88 213 -207 213c-120 0 -204 -92 -204 -211v-1c0 -121 89 -212 206 -212z" />
    <glyph glyph-name="uni03C2" unicode="&#x3c2;" horiz-adv-x="603" 
d="M467 -133v122l-109 13c-188 23 -295 116 -295 278v1c0 144 110 267 270 266c106 0 169 -46 220 -102l-48 -49c-45 52 -98 90 -174 90c-114 0 -198 -88 -198 -205v-1c0 -130 91 -197 238 -215l161 -20v-178h-65z" />
    <glyph glyph-name="uni03C4" unicode="&#x3c4;" horiz-adv-x="587" 
d="M543 474h-229v-312c0 -87 37 -112 102 -112c25 0 48 3 76 13v-57c-25 -10 -52 -15 -83 -15c-103 0 -162 42 -162 169v314h-219v60h515v-60z" />
    <glyph glyph-name="uni03C5" unicode="&#x3c5;" horiz-adv-x="652" 
d="M325 -12c-141 0 -235 82 -235 238v308h67v-305c0 -123 68 -181 169 -181s169 57 169 180v306h67v-306c0 -157 -94 -240 -237 -240z" />
    <glyph glyph-name="uni03C6" unicode="&#x3c6;" horiz-adv-x="867" 
d="M467 -166h-67v163c-222 4 -338 118 -338 269v1c0 149 117 267 338 270v222h67v-222c221 -4 338 -119 338 -269v-1c0 -150 -118 -267 -338 -270v-163zM132 266c0 -119 88 -207 269 -209v421c-182 -3 -269 -90 -269 -211v-1zM735 268c0 119 -88 208 -269 210v-421
c182 3 269 90 269 210v1z" />
    <glyph glyph-name="uni03C7" unicode="&#x3c7;" horiz-adv-x="630" 
d="M137 534l179 -281l180 281h79l-220 -330l247 -370h-82l-206 319l-207 -319h-78l244 368l-218 332h82z" />
    <glyph glyph-name="uni03C8" unicode="&#x3c8;" horiz-adv-x="844" 
d="M456 -166h-67v163c-195 2 -301 110 -301 272v265h67v-263c0 -129 81 -212 234 -214v702h66v-702c151 1 234 84 234 214v263h67v-262c0 -164 -108 -272 -300 -275v-163z" />
    <glyph glyph-name="uni03C9" unicode="&#x3c9;" horiz-adv-x="926" 
d="M430 432h66v-155c0 -134 49 -229 151 -229c83 0 140 71 140 192c0 123 -62 218 -132 294h81c60 -68 119 -168 119 -295c0 -158 -83 -251 -204 -251c-106 0 -166 74 -189 157c-22 -82 -81 -157 -189 -157c-121 0 -202 91 -202 251c0 127 61 227 119 295h80
c-71 -75 -131 -171 -131 -294c0 -119 58 -192 137 -192c105 0 154 95 154 229v155z" />
    <glyph glyph-name="uni0410" unicode="&#x410;" horiz-adv-x="832" 
d="M237 261h355l-177 393zM48 0l335 733h66l335 -733h-76l-88 198h-411l-89 -198h-72z" />
    <glyph glyph-name="uni0411" unicode="&#x411;" horiz-adv-x="739" 
d="M110 0v728h510v-64h-441v-250h236c156 0 266 -65 266 -200v-2c0 -146 -128 -212 -278 -212h-293zM179 64h227c119 0 205 50 205 145v2c0 100 -83 140 -199 140h-233v-287z" />
    <glyph glyph-name="uni0412" unicode="&#x412;" horiz-adv-x="761" 
d="M110 0v728h306c83 0 149 -24 190 -64c30 -31 47 -70 47 -116v-2c0 -97 -61 -146 -120 -171c87 -24 160 -74 160 -174v-2c0 -124 -104 -199 -262 -199h-321zM582 537v2c0 75 -61 126 -170 126h-233v-267h227c103 0 176 49 176 139zM623 204c0 83 -72 132 -206 132h-238
v-273h253c117 0 191 53 191 139v2z" />
    <glyph glyph-name="uni0413" unicode="&#x413;" horiz-adv-x="649" 
d="M110 0v728h488v-64h-418v-664h-70z" />
    <glyph glyph-name="uni0414" unicode="&#x414;" horiz-adv-x="892" 
d="M445 653l-259 -590h516zM45 64h68l297 669h72l297 -669h68v-217h-68v153h-666v-153h-68v217z" />
    <glyph glyph-name="uni0415" unicode="&#x415;" horiz-adv-x="707" 
d="M110 0v728h523v-64h-453v-265h406v-64h-406v-271h458v-64h-528z" />
    <glyph glyph-name="uni0401" unicode="&#x401;" horiz-adv-x="707" 
d="M235 794v87h88v-87h-88zM425 794v87h87v-87h-87zM110 0v728h523v-64h-453v-265h406v-64h-406v-271h458v-64h-528z" />
    <glyph glyph-name="uni0416" unicode="&#x416;" horiz-adv-x="1107" 
d="M37 728h87l294 -323h101v323h69v-323h101l294 323h87l-322 -351l329 -377h-86l-300 342h-103v-342h-69v342h-107l-298 -342h-84l329 377z" />
    <glyph glyph-name="uni0417" unicode="&#x417;" horiz-adv-x="693" 
d="M102 583l-42 47c63 57 153 110 285 110c152 0 258 -77 258 -193v-1c0 -83 -52 -149 -150 -176c99 -21 166 -84 166 -173v-2c0 -118 -110 -207 -284 -207c-126 0 -217 43 -285 100l41 51c64 -51 139 -89 244 -89c126 0 212 62 212 146v2c0 90 -84 138 -219 138h-123v61
h124c114 0 202 48 202 143v2c0 80 -73 136 -187 136c-104 0 -181 -43 -242 -95z" />
    <glyph glyph-name="uni0418" unicode="&#x418;" horiz-adv-x="832" 
d="M722 0h-70v621l-486 -621h-56v728h70v-607l475 607h67v-728z" />
    <glyph glyph-name="uni0419" unicode="&#x419;" horiz-adv-x="832" 
d="M416 788c-82 0 -141 41 -147 112h55c12 -34 41 -54 92 -54s80 20 92 54h55c-6 -71 -65 -112 -147 -112zM722 0h-70v621l-486 -621h-56v728h70v-607l475 607h67v-728z" />
    <glyph glyph-name="uni041A" unicode="&#x41a;" horiz-adv-x="758" 
d="M110 0v728h70v-323h130l312 323h91l-344 -351l360 -377h-95l-322 341h-132v-341h-70z" />
    <glyph glyph-name="uni041B" unicode="&#x41b;" horiz-adv-x="813" 
d="M437 733l328 -733h-78l-282 643l-283 -643h-74l326 733h63z" />
    <glyph glyph-name="uni041C" unicode="&#x41c;" horiz-adv-x="913" 
d="M110 0v728h69l277 -412l277 412h70v-728h-70v609l-276 -403h-4l-275 402v-608h-68z" />
    <glyph glyph-name="uni041D" unicode="&#x41d;" horiz-adv-x="800" 
d="M110 0v728h70v-330h440v330h70v-728h-70v334h-440v-334h-70z" />
    <glyph glyph-name="uni041E" unicode="&#x41e;" horiz-adv-x="894" 
d="M446 -12c-221 0 -368 174 -368 374v2c0 200 149 376 370 376s368 -174 368 -374v-2c0 -200 -149 -376 -370 -376zM448 51c172 0 295 139 295 311v2c0 172 -125 313 -297 313s-295 -139 -295 -311v-2c0 -172 125 -313 297 -313z" />
    <glyph glyph-name="uni041F" unicode="&#x41f;" horiz-adv-x="800" 
d="M110 0v728h580v-728h-70v664h-440v-664h-70z" />
    <glyph glyph-name="uni0420" unicode="&#x420;" horiz-adv-x="705" 
d="M110 0v728h269c162 0 272 -85 272 -227v-2c0 -155 -132 -236 -286 -236h-185v-263h-70zM180 327h189c127 0 212 68 212 169v2c0 109 -84 166 -207 166h-194v-337z" />
    <glyph glyph-name="uni0421" unicode="&#x421;" horiz-adv-x="782" 
d="M441 -12c-208 0 -363 165 -363 374v2c0 206 154 376 366 376c131 0 210 -47 284 -115l-48 -52c-63 60 -133 104 -237 104c-167 0 -292 -137 -292 -311v-2c0 -175 127 -313 293 -313c102 0 170 40 242 109l46 -45c-77 -77 -160 -127 -291 -127z" />
    <glyph glyph-name="uni0422" unicode="&#x422;" horiz-adv-x="675" 
d="M303 0v663h-249v65h567v-65h-248v-663h-70z" />
    <glyph glyph-name="uni0423" unicode="&#x423;" horiz-adv-x="745" 
d="M279 0h-78l153 252l-313 476h81l270 -416l241 416h79z" />
    <glyph glyph-name="uni0424" unicode="&#x424;" horiz-adv-x="953" 
d="M441 -15v91c-238 4 -375 118 -375 291v1c0 167 135 287 375 290v85h70v-85c238 -4 376 -118 376 -291v-1c0 -167 -137 -287 -376 -290v-91h-70zM814 368c0 128 -98 225 -304 228v-458c203 3 304 96 304 229v1zM138 366c0 -129 98 -226 305 -228v458
c-204 -3 -305 -96 -305 -229v-1z" />
    <glyph glyph-name="uni0424.bgr" horiz-adv-x="969" 
d="M449 -104v103c-221 7 -371 162 -371 363v2c0 197 149 356 371 365v103h70v-103c223 -7 372 -165 372 -363v-2c0 -198 -150 -357 -372 -365v-103h-70zM150 364c0 -172 127 -295 300 -303v606c-176 -8 -300 -133 -300 -301v-2zM819 364c0 168 -126 294 -300 302v-605
c175 9 300 131 300 301v2z" />
    <glyph glyph-name="uni0425" unicode="&#x425;" horiz-adv-x="762" 
d="M616 728h81l-273 -357l284 -371h-83l-245 324l-244 -324h-81l284 371l-274 357h83l234 -310z" />
    <glyph glyph-name="uni0426" unicode="&#x426;" horiz-adv-x="812" 
d="M693 -153v153h-583v728h70v-664h440v664h70v-664h71v-217h-68z" />
    <glyph glyph-name="uni0427" unicode="&#x427;" horiz-adv-x="746" 
d="M566 0v293c-67 -20 -145 -30 -203 -30c-170 0 -272 69 -272 243v222h70v-209c0 -140 67 -192 208 -192c57 0 130 10 197 31v370h70v-728h-70z" />
    <glyph glyph-name="uni0428" unicode="&#x428;" horiz-adv-x="1150" 
d="M110 0v728h70v-664h360v664h70v-664h359v664h70v-728h-929z" />
    <glyph glyph-name="uni0429" unicode="&#x429;" horiz-adv-x="1162" 
d="M110 0v728h70v-664h360v664h70v-664h359v664h70v-664h72v-217h-68v153h-933z" />
    <glyph glyph-name="uni042A" unicode="&#x42a;" horiz-adv-x="890" 
d="M295 0v664h-245v64h315v-269h198c161 0 273 -81 273 -224v-2c0 -152 -129 -233 -285 -233h-256zM365 64h189c125 0 212 65 212 166v2c0 107 -84 164 -207 164h-194v-332z" />
    <glyph glyph-name="uni042B" unicode="&#x42b;" horiz-adv-x="976" 
d="M796 0v728h70v-728h-70zM110 0v728h70v-269h198c161 0 273 -81 273 -224v-2c0 -152 -129 -233 -285 -233h-256zM180 64h189c126 0 212 65 212 166v2c0 107 -84 164 -207 164h-194v-332z" />
    <glyph glyph-name="uni042C" unicode="&#x42c;" horiz-adv-x="706" 
d="M110 0v728h70v-269h198c161 0 273 -81 273 -224v-2c0 -152 -129 -233 -285 -233h-256zM180 64h189c125 0 212 65 212 166v2c0 107 -84 164 -207 164h-194v-332z" />
    <glyph glyph-name="uni042D" unicode="&#x42d;" horiz-adv-x="785" 
d="M58 622c73 68 163 118 291 118c211 0 358 -161 358 -374v-2c0 -207 -147 -376 -366 -376c-123 0 -214 48 -287 122l46 48c71 -70 145 -107 241 -107c164 0 282 122 293 285h-415v62h414c-13 162 -128 279 -285 279c-100 0 -177 -40 -246 -102z" />
    <glyph glyph-name="uni042E" unicode="&#x42e;" horiz-adv-x="1140" 
d="M110 0v728h70v-330h172c16 182 154 342 356 342c214 0 354 -178 354 -374v-2c0 -196 -143 -376 -356 -376c-204 0 -341 161 -354 346h-172v-334h-70zM708 51c165 0 282 143 282 311v2c0 168 -119 313 -284 313c-166 0 -282 -143 -282 -311v-2c0 -168 118 -313 284 -313z
" />
    <glyph glyph-name="uni042F" unicode="&#x42f;" horiz-adv-x="762" 
d="M582 354v310h-236c-123 0 -196 -60 -196 -151v-2c0 -105 90 -157 210 -157h222zM290 298c-121 18 -210 91 -210 215v1c0 129 104 214 270 214h302v-728h-70v291h-214l-228 -291h-86z" />
    <glyph glyph-name="uni0430" unicode="&#x430;" horiz-adv-x="610" 
d="M268 45c103 0 190 63 190 153v56c-43 11 -98 23 -169 23c-105 0 -164 -46 -164 -116v-3c0 -71 67 -113 143 -113zM259 -12c-100 0 -203 57 -203 167v2c0 112 94 173 231 173c71 0 120 -9 169 -23v21c0 101 -61 154 -166 154c-64 0 -115 -17 -165 -41l-21 56
c58 27 116 45 192 45c74 0 132 -20 171 -58c36 -37 55 -87 55 -154v-330h-66v84c-37 -50 -100 -96 -197 -96z" />
    <glyph glyph-name="uni0431" unicode="&#x431;" horiz-adv-x="680" 
d="M346 -12c-80 0 -143 28 -187 71c-55 56 -85 140 -85 251v1c0 291 91 396 292 429l174 30l12 -63l-177 -29c-158 -28 -217 -96 -234 -273c45 70 124 115 221 115c156 0 255 -112 255 -258v-1c0 -147 -109 -274 -271 -273zM347 48c119 0 200 92 200 212v1
c0 117 -77 202 -193 201c-122 0 -210 -81 -210 -198c0 -132 91 -216 203 -216z" />
    <glyph glyph-name="uni0432" unicode="&#x432;" horiz-adv-x="631" 
d="M98 0v534h268c111 0 180 -51 180 -137c0 -67 -40 -105 -99 -124c72 -18 120 -57 120 -130c0 -91 -78 -143 -200 -143h-269zM478 392c0 53 -42 86 -117 86h-197v-180h188c82 0 126 38 126 94zM498 145c0 60 -49 98 -141 98h-193v-187h202c85 0 132 36 132 89z" />
    <glyph glyph-name="uni0432.bgr" horiz-adv-x="674" 
d="M88 259v246c0 163 97 261 253 261c146 0 238 -82 238 -200v-1c0 -98 -66 -161 -164 -182c112 -23 196 -74 196 -192v-1c0 -108 -91 -203 -256 -202c-166 0 -267 83 -267 271zM154 505v-99h125c142 0 230 59 230 159c0 82 -64 141 -168 141c-116 0 -187 -76 -187 -201z
M280 351h-126v-92c0 -134 61 -211 203 -211c116 0 184 64 184 147c0 96 -81 156 -261 156z" />
    <glyph glyph-name="uni0433" unicode="&#x433;" horiz-adv-x="519" 
d="M98 0v534h385v-61h-318v-473h-67z" />
    <glyph glyph-name="uni0433.bgr" horiz-adv-x="538" 
d="M249 -10c-117 0 -183 53 -183 141v2c0 87 65 125 188 166c128 42 151 65 151 108v2c0 42 -31 77 -109 77c-64 0 -129 -24 -181 -57l-32 52c63 40 141 64 214 64c114 0 175 -58 175 -138v-2c0 -82 -62 -117 -192 -160c-103 -33 -147 -57 -147 -111v-2
c0 -59 44 -83 120 -83c64 0 137 25 198 69l33 -50c-67 -47 -147 -78 -235 -78z" />
    <glyph glyph-name="uni0434" unicode="&#x434;" horiz-adv-x="685" 
d="M342 472l-179 -412h356zM308 539h69l215 -478h61v-204h-62v143h-497v-143h-62v204h61z" />
    <glyph glyph-name="uni0434.bgr" horiz-adv-x="699" 
d="M330 102c105 0 207 77 207 191v2c0 115 -102 190 -207 190c-106 0 -195 -73 -195 -190v-2c0 -113 91 -191 195 -191zM333 -168c-88 0 -171 26 -244 77l34 53c63 -46 133 -71 211 -71c119 0 200 67 200 198v69c-46 -64 -113 -118 -215 -118c-129 0 -254 98 -254 252v2
c0 155 126 253 254 253c103 0 171 -54 215 -114v101h67v-445c0 -81 -25 -143 -68 -186c-47 -47 -117 -71 -200 -71z" />
    <glyph glyph-name="uni0435" unicode="&#x435;" horiz-adv-x="622" 
d="M328 -12c-144 0 -265 112 -265 278v2c0 155 109 279 255 279c154 0 248 -125 248 -282c0 -10 0 -14 -2 -24h-432c11 -123 99 -194 198 -194c77 0 131 34 175 80l43 -39c-54 -59 -119 -100 -220 -100zM132 295h364c-8 102 -66 193 -180 193c-99 0 -174 -82 -184 -193z" />
    <glyph glyph-name="uni0451" unicode="&#x451;" horiz-adv-x="622" 
d="M188 619v92h84v-92h-84zM364 619v92h84v-92h-84zM328 -12c-144 0 -265 112 -265 278v2c0 155 109 279 255 279c154 0 248 -125 248 -282c0 -10 0 -14 -2 -24h-432c11 -123 99 -194 198 -194c77 0 131 34 175 80l43 -39c-54 -59 -119 -100 -220 -100zM132 295h364
c-8 102 -66 193 -180 193c-99 0 -174 -82 -184 -193z" />
    <glyph glyph-name="uni0436" unicode="&#x436;" horiz-adv-x="906" 
d="M486 534v-234h97l202 234h83l-231 -263l238 -271h-83l-208 240h-98v-240h-66v240h-101l-206 -240h-83l238 270l-230 264h83l201 -234h98v234h66z" />
    <glyph glyph-name="uni0436.bgr" horiz-adv-x="906" 
d="M486 759v-459h97l202 234h83l-231 -263l238 -271h-83l-208 240h-98v-240h-66v240h-101l-206 -240h-83l238 270l-230 264h83l201 -234h98v459h66z" />
    <glyph glyph-name="uni0437" unicode="&#x437;" horiz-adv-x="587" 
d="M48 58l36 52c51 -36 122 -63 200 -63c104 0 167 41 167 101v1c0 59 -62 93 -159 93h-122v57h121c92 0 146 38 146 95v1c0 56 -54 93 -147 93c-66 0 -136 -23 -200 -67l-35 49c66 46 145 77 236 77c135 0 215 -61 215 -148v-2c0 -70 -56 -108 -112 -124
c68 -12 126 -55 126 -128v-1c0 -85 -82 -156 -235 -156c-95 0 -179 29 -237 70z" />
    <glyph glyph-name="uni0438" unicode="&#x438;" horiz-adv-x="673" 
d="M98 0v534h67v-435l344 435h66v-534h-67v435l-346 -435h-64z" />
    <glyph glyph-name="uni0438.bgr" horiz-adv-x="649" 
d="M297 -12c-132 0 -209 89 -209 217v329h67v-314c0 -104 58 -171 158 -171c97 0 171 73 171 178v307h67v-534h-67v96c-35 -60 -93 -108 -187 -108z" />
    <glyph glyph-name="uni0439" unicode="&#x439;" horiz-adv-x="673" 
d="M336 617c-82 0 -141 46 -147 124h50c13 -39 43 -66 97 -66s84 27 97 66h50c-6 -78 -65 -124 -147 -124zM98 0v534h67v-435l344 435h66v-534h-67v435l-346 -435h-64z" />
    <glyph glyph-name="uni0439.bgr" horiz-adv-x="649" 
d="M319 617c-82 0 -141 46 -147 124h50c13 -39 43 -66 97 -66s84 27 97 66h50c-6 -78 -65 -124 -147 -124zM297 -12c-132 0 -209 89 -209 217v329h67v-314c0 -104 58 -171 158 -171c97 0 171 73 171 178v307h67v-534h-67v96c-35 -60 -93 -108 -187 -108z" />
    <glyph glyph-name="uni043A" unicode="&#x43a;" horiz-adv-x="599" 
d="M165 534v-234h107l209 234h84l-237 -261l243 -273h-86l-210 240h-110v-240h-67v534h67z" />
    <glyph glyph-name="uni043A.bgr" horiz-adv-x="599" 
d="M165 759v-459h107l209 234h84l-237 -261l243 -273h-86l-210 240h-110v-240h-67v759h67z" />
    <glyph glyph-name="uni043B" unicode="&#x43b;" horiz-adv-x="640" 
d="M351 539l245 -539h-75l-202 455l-201 -455h-74l246 539h61z" />
    <glyph glyph-name="uni043C" unicode="&#x43c;" horiz-adv-x="763" 
d="M98 0v534h70l214 -313l213 313h70v-534h-68v427l-215 -309h-3l-215 308v-426h-66z" />
    <glyph glyph-name="uni043D" unicode="&#x43d;" horiz-adv-x="669" 
d="M98 0v534h67v-234h339v234h67v-534h-67v239h-339v-239h-67z" />
    <glyph glyph-name="uni043E" unicode="&#x43e;" horiz-adv-x="679" 
d="M339 -12c-160 0 -276 127 -276 277v2c0 151 117 280 278 280c159 0 276 -127 276 -278v-2c0 -150 -118 -279 -278 -279zM341 49c120 0 205 98 205 216v2c0 121 -90 219 -207 219c-121 0 -206 -98 -206 -217v-2c0 -121 90 -218 208 -218z" />
    <glyph glyph-name="uni043F" unicode="&#x43f;" horiz-adv-x="667" 
d="M98 0v534h472v-534h-67v473h-338v-473h-67z" />
    <glyph glyph-name="uni043F.bgr" horiz-adv-x="649" 
d="M98 0v534h67v-95c35 60 93 108 187 108c132 0 209 -90 209 -217v-330h-67v314c0 105 -58 171 -158 171c-97 0 -171 -73 -171 -178v-307h-67z" />
    <glyph glyph-name="uni0440" unicode="&#x440;" horiz-adv-x="699" 
d="M366 50c109 0 197 80 197 215v2c0 133 -91 218 -197 218c-105 0 -204 -88 -204 -217v-2c0 -129 99 -216 204 -216zM98 -166v700h67v-112c45 67 110 125 212 125c128 0 257 -103 257 -278v-2c0 -175 -129 -279 -257 -279c-103 0 -169 57 -212 120v-274h-67z" />
    <glyph glyph-name="uni0441" unicode="&#x441;" horiz-adv-x="604" 
d="M336 -12c-155 0 -273 127 -273 277v2c0 150 119 280 274 280c100 0 163 -45 213 -98l-45 -47c-44 45 -94 84 -170 84c-114 0 -202 -97 -202 -217v-2c0 -121 91 -218 207 -218c72 0 127 36 170 84l44 -41c-54 -61 -118 -104 -218 -104z" />
    <glyph glyph-name="uni0442" unicode="&#x442;" horiz-adv-x="577" 
d="M255 0v474h-221v60h510v-60h-222v-474h-67z" />
    <glyph glyph-name="uni0442.bgr" horiz-adv-x="999" 
d="M98 0v534h67v-92c34 54 82 105 175 105c89 0 146 -50 175 -111c37 59 94 111 190 111c125 0 202 -86 202 -219v-328h-67v314c0 109 -55 171 -147 171c-85 0 -157 -64 -157 -176v-309h-67v317c0 105 -56 168 -146 168c-89 0 -158 -76 -158 -178v-307h-67z" />
    <glyph glyph-name="uni0443" unicode="&#x443;" horiz-adv-x="623" 
d="M325 74l180 460h73l-228 -552c-46 -112 -99 -152 -177 -152c-43 0 -75 9 -111 26l23 55c27 -13 51 -20 87 -20c51 0 84 28 120 111l-249 532h75z" />
    <glyph glyph-name="uni0444" unicode="&#x444;" horiz-adv-x="867" 
d="M467 -166h-67v163c-222 4 -338 118 -338 269v1c0 149 117 267 338 270v222h67v-222c221 -4 338 -119 338 -269v-1c0 -150 -118 -267 -338 -270v-163zM132 266c0 -119 88 -207 269 -209v421c-182 -3 -269 -90 -269 -211v-1zM735 268c0 119 -88 208 -269 210v-421
c182 3 269 90 269 210v1z" />
    <glyph glyph-name="uni0445" unicode="&#x445;" horiz-adv-x="605" 
d="M136 534l167 -216l168 216h77l-206 -260l215 -274h-80l-176 229l-176 -229h-77l214 272l-205 262h79z" />
    <glyph glyph-name="uni0446" unicode="&#x446;" horiz-adv-x="681" 
d="M570 -143v143h-472v534h67v-473h338v473h67v-473h63v-204h-63z" />
    <glyph glyph-name="uni0446.bgr" horiz-adv-x="663" 
d="M297 -12c-132 0 -209 89 -209 217v329h67v-314c0 -104 58 -171 158 -171c97 0 171 73 171 178v307h67v-473h64v-204h-63v143h-68v96c-35 -60 -93 -108 -187 -108z" />
    <glyph glyph-name="uni0447" unicode="&#x447;" horiz-adv-x="620" 
d="M455 0v192c-45 -12 -107 -23 -161 -23c-137 0 -217 57 -217 199v166h67v-161c0 -102 50 -141 157 -141c54 0 104 8 154 23v279h67v-534h-67z" />
    <glyph glyph-name="uni0448" unicode="&#x448;" horiz-adv-x="967" 
d="M98 0v534h67v-473h285v473h67v-473h285v473h67v-534h-771z" />
    <glyph glyph-name="uni0448.bgr" horiz-adv-x="999" 
d="M901 534v-534h-67v92c-35 -54 -82 -104 -175 -104c-89 0 -146 50 -175 110c-37 -59 -94 -110 -191 -110c-124 0 -201 86 -201 219v327h67v-314c0 -109 55 -171 147 -171c85 0 157 64 157 176v309h67v-317c0 -105 56 -168 146 -168c89 0 158 77 158 179v306h67z" />
    <glyph glyph-name="uni0449" unicode="&#x449;" horiz-adv-x="981" 
d="M98 0v534h67v-473h285v473h67v-473h285v473h67v-473h63v-204h-63v143h-771z" />
    <glyph glyph-name="uni0449.bgr" horiz-adv-x="1013" 
d="M902 -143v143h-68v92c-35 -54 -82 -104 -175 -104c-89 0 -146 50 -175 110c-37 -59 -94 -110 -191 -110c-124 0 -201 86 -201 219v327h67v-314c0 -109 55 -171 147 -171c85 0 157 64 157 176v309h67v-317c0 -105 56 -168 146 -168c89 0 158 77 158 179v306h67v-473h64
v-204h-63z" />
    <glyph glyph-name="uni044A" unicode="&#x44a;" horiz-adv-x="712" 
d="M29 534h250v-189h176c130 0 208 -67 208 -171v-2c0 -103 -77 -172 -210 -172h-240v474h-184v60zM279 287v-228h173c97 0 142 43 142 113v1c0 69 -46 114 -141 114h-174z" />
    <glyph glyph-name="uni044B" unicode="&#x44b;" horiz-adv-x="816" 
d="M651 0v534h67v-534h-67zM165 534v-189h175c131 0 209 -67 209 -171v-2c0 -103 -78 -172 -211 -172h-240v534h67zM165 287v-228h172c97 0 143 43 143 113v1c0 69 -47 114 -142 114h-173z" />
    <glyph glyph-name="uni044C" unicode="&#x44c;" horiz-adv-x="597" 
d="M165 534v-189h175c131 0 209 -67 209 -171v-2c0 -103 -78 -172 -211 -172h-240v534h67zM165 287v-228h172c97 0 143 43 143 113v1c0 69 -47 114 -142 114h-173z" />
    <glyph glyph-name="uni044D" unicode="&#x44d;" horiz-adv-x="607" 
d="M90 127c49 -50 108 -79 183 -79c109 0 195 85 201 194h-299v58h299c-10 107 -91 186 -201 186c-77 0 -135 -33 -182 -77l-40 47c55 50 124 91 225 91c155 0 268 -118 268 -280v-2c0 -148 -114 -277 -270 -277c-95 0 -165 32 -226 92z" />
    <glyph glyph-name="uni044E" unicode="&#x44e;" horiz-adv-x="906" 
d="M165 239v-239h-67v534h67v-233h139c15 136 122 246 270 246c158 0 269 -127 269 -278v-2c0 -150 -112 -279 -271 -279c-150 0 -257 112 -269 251h-138zM574 49c119 0 199 98 199 216v2c0 121 -85 219 -201 219c-120 0 -200 -98 -200 -217v-2c0 -121 85 -218 202 -218z
" />
    <glyph glyph-name="uni044E.bgr" horiz-adv-x="906" 
d="M572 -12c-150 0 -257 112 -269 251h-138v-239h-67v759h67v-458h139c15 136 122 246 270 246c158 0 269 -127 269 -278v-2c0 -150 -112 -279 -271 -279zM574 49c119 0 199 98 199 216v2c0 121 -85 219 -201 219c-120 0 -200 -98 -200 -217v-2c0 -121 85 -218 202 -218z
" />
    <glyph glyph-name="uni044F" unicode="&#x44f;" horiz-adv-x="643" 
d="M478 477h-193c-83 0 -138 -46 -138 -108v-1c0 -67 52 -109 138 -109h193v218zM478 203h-183l-154 -203h-82l162 210c-90 18 -142 76 -142 158v1c0 97 81 165 207 165h259v-534h-67v203z" />
    <glyph glyph-name="Aacute" unicode="&#xc1;" horiz-adv-x="832" 
d="M388 804l101 129l73 -34l-116 -95h-58zM237 261h355l-177 393zM48 0l335 733h66l335 -733h-76l-88 198h-411l-89 -198h-72z" />
    <glyph glyph-name="aacute" unicode="&#xe1;" horiz-adv-x="610" 
d="M278 619l95 145l74 -35l-115 -110h-54zM268 45c103 0 190 63 190 153v56c-43 11 -98 23 -169 23c-105 0 -164 -46 -164 -116v-3c0 -71 67 -113 143 -113zM259 -12c-100 0 -203 57 -203 167v2c0 112 94 173 231 173c71 0 120 -9 169 -23v21c0 101 -61 154 -166 154
c-64 0 -115 -17 -165 -41l-21 56c58 27 116 45 192 45c74 0 132 -20 171 -58c36 -37 55 -87 55 -154v-330h-66v84c-37 -50 -100 -96 -197 -96z" />
    <glyph glyph-name="aacute.alt" horiz-adv-x="699" 
d="M325 619l95 145l74 -35l-115 -110h-54zM333 50c104 0 204 87 204 216v2c0 130 -100 217 -204 217c-109 0 -198 -81 -198 -216v-2c0 -132 92 -217 198 -217zM322 -12c-128 0 -257 103 -257 277v2c0 175 129 280 257 280c103 0 169 -57 212 -121v108h67v-534h-67v113
c-45 -67 -110 -125 -212 -125z" />
    <glyph glyph-name="Abreve" unicode="&#x102;" horiz-adv-x="832" 
d="M416 802c-82 0 -141 41 -147 112h55c12 -34 41 -54 92 -54s80 20 92 54h55c-6 -71 -65 -112 -147 -112zM237 261h355l-177 393zM48 0l335 733h66l335 -733h-76l-88 198h-411l-89 -198h-72z" />
    <glyph glyph-name="abreve" unicode="&#x103;" horiz-adv-x="610" 
d="M305 617c-82 0 -141 46 -147 124h50c13 -39 43 -66 97 -66s84 27 97 66h50c-6 -78 -65 -124 -147 -124zM268 45c103 0 190 63 190 153v56c-43 11 -98 23 -169 23c-105 0 -164 -46 -164 -116v-3c0 -71 67 -113 143 -113zM259 -12c-100 0 -203 57 -203 167v2
c0 112 94 173 231 173c71 0 120 -9 169 -23v21c0 101 -61 154 -166 154c-64 0 -115 -17 -165 -41l-21 56c58 27 116 45 192 45c74 0 132 -20 171 -58c36 -37 55 -87 55 -154v-330h-66v84c-37 -50 -100 -96 -197 -96z" />
    <glyph glyph-name="abreve.alt" horiz-adv-x="699" 
d="M352 617c-82 0 -141 46 -147 124h50c13 -39 43 -66 97 -66s84 27 97 66h50c-6 -78 -65 -124 -147 -124zM333 50c104 0 204 87 204 216v2c0 130 -100 217 -204 217c-109 0 -198 -81 -198 -216v-2c0 -132 92 -217 198 -217zM322 -12c-128 0 -257 103 -257 277v2
c0 175 129 280 257 280c103 0 169 -57 212 -121v108h67v-534h-67v113c-45 -67 -110 -125 -212 -125z" />
    <glyph glyph-name="Acircumflex" unicode="&#xc2;" horiz-adv-x="832" 
d="M273 804l111 118h64l111 -118h-67l-77 63l-77 -63h-65zM237 261h355l-177 393zM48 0l335 733h66l335 -733h-76l-88 198h-411l-89 -198h-72z" />
    <glyph glyph-name="acircumflex" unicode="&#xe2;" horiz-adv-x="610" 
d="M169 619l107 132h58l108 -132h-60l-78 70l-78 -70h-57zM268 45c103 0 190 63 190 153v56c-43 11 -98 23 -169 23c-105 0 -164 -46 -164 -116v-3c0 -71 67 -113 143 -113zM259 -12c-100 0 -203 57 -203 167v2c0 112 94 173 231 173c71 0 120 -9 169 -23v21
c0 101 -61 154 -166 154c-64 0 -115 -17 -165 -41l-21 56c58 27 116 45 192 45c74 0 132 -20 171 -58c36 -37 55 -87 55 -154v-330h-66v84c-37 -50 -100 -96 -197 -96z" />
    <glyph glyph-name="acircumflex.alt" horiz-adv-x="699" 
d="M216 619l107 132h58l108 -132h-60l-78 70l-78 -70h-57zM333 50c104 0 204 87 204 216v2c0 130 -100 217 -204 217c-109 0 -198 -81 -198 -216v-2c0 -132 92 -217 198 -217zM322 -12c-128 0 -257 103 -257 277v2c0 175 129 280 257 280c103 0 169 -57 212 -121v108h67
v-534h-67v113c-45 -67 -110 -125 -212 -125z" />
    <glyph glyph-name="Adieresis" unicode="&#xc4;" horiz-adv-x="832" 
d="M278 804v87h88v-87h-88zM468 804v87h87v-87h-87zM237 261h355l-177 393zM48 0l335 733h66l335 -733h-76l-88 198h-411l-89 -198h-72z" />
    <glyph glyph-name="adieresis" unicode="&#xe4;" horiz-adv-x="610" 
d="M175 619v92h84v-92h-84zM351 619v92h84v-92h-84zM268 45c103 0 190 63 190 153v56c-43 11 -98 23 -169 23c-105 0 -164 -46 -164 -116v-3c0 -71 67 -113 143 -113zM259 -12c-100 0 -203 57 -203 167v2c0 112 94 173 231 173c71 0 120 -9 169 -23v21
c0 101 -61 154 -166 154c-64 0 -115 -17 -165 -41l-21 56c58 27 116 45 192 45c74 0 132 -20 171 -58c36 -37 55 -87 55 -154v-330h-66v84c-37 -50 -100 -96 -197 -96z" />
    <glyph glyph-name="adieresis.alt" horiz-adv-x="699" 
d="M222 619v92h84v-92h-84zM398 619v92h84v-92h-84zM333 50c104 0 204 87 204 216v2c0 130 -100 217 -204 217c-109 0 -198 -81 -198 -216v-2c0 -132 92 -217 198 -217zM322 -12c-128 0 -257 103 -257 277v2c0 175 129 280 257 280c103 0 169 -57 212 -121v108h67v-534h-67
v113c-45 -67 -110 -125 -212 -125z" />
    <glyph glyph-name="Agrave" unicode="&#xc0;" horiz-adv-x="832" 
d="M444 804h-58l-116 95l73 34zM237 261h355l-177 393zM48 0l335 733h66l335 -733h-76l-88 198h-411l-89 -198h-72z" />
    <glyph glyph-name="agrave" unicode="&#xe0;" horiz-adv-x="610" 
d="M279 619l-115 110l74 35l95 -145h-54zM268 45c103 0 190 63 190 153v56c-43 11 -98 23 -169 23c-105 0 -164 -46 -164 -116v-3c0 -71 67 -113 143 -113zM259 -12c-100 0 -203 57 -203 167v2c0 112 94 173 231 173c71 0 120 -9 169 -23v21c0 101 -61 154 -166 154
c-64 0 -115 -17 -165 -41l-21 56c58 27 116 45 192 45c74 0 132 -20 171 -58c36 -37 55 -87 55 -154v-330h-66v84c-37 -50 -100 -96 -197 -96z" />
    <glyph glyph-name="agrave.alt" horiz-adv-x="699" 
d="M326 619l-115 110l74 35l95 -145h-54zM333 50c104 0 204 87 204 216v2c0 130 -100 217 -204 217c-109 0 -198 -81 -198 -216v-2c0 -132 92 -217 198 -217zM322 -12c-128 0 -257 103 -257 277v2c0 175 129 280 257 280c103 0 169 -57 212 -121v108h67v-534h-67v113
c-45 -67 -110 -125 -212 -125z" />
    <glyph glyph-name="Amacron" unicode="&#x100;" horiz-adv-x="832" 
d="M249 828v60h334v-60h-334zM237 261h355l-177 393zM48 0l335 733h66l335 -733h-76l-88 198h-411l-89 -198h-72z" />
    <glyph glyph-name="amacron" unicode="&#x101;" horiz-adv-x="610" 
d="M147 643v57h316v-57h-316zM268 45c103 0 190 63 190 153v56c-43 11 -98 23 -169 23c-105 0 -164 -46 -164 -116v-3c0 -71 67 -113 143 -113zM259 -12c-100 0 -203 57 -203 167v2c0 112 94 173 231 173c71 0 120 -9 169 -23v21c0 101 -61 154 -166 154
c-64 0 -115 -17 -165 -41l-21 56c58 27 116 45 192 45c74 0 132 -20 171 -58c36 -37 55 -87 55 -154v-330h-66v84c-37 -50 -100 -96 -197 -96z" />
    <glyph glyph-name="amacron.alt" horiz-adv-x="699" 
d="M194 643v57h316v-57h-316zM333 50c104 0 204 87 204 216v2c0 130 -100 217 -204 217c-109 0 -198 -81 -198 -216v-2c0 -132 92 -217 198 -217zM322 -12c-128 0 -257 103 -257 277v2c0 175 129 280 257 280c103 0 169 -57 212 -121v108h67v-534h-67v113
c-45 -67 -110 -125 -212 -125z" />
    <glyph glyph-name="Aogonek" unicode="&#x104;" horiz-adv-x="832" 
d="M793 -128v-43h-7c-87 3 -132 35 -132 83c0 34 19 61 53 90v1l-87 195h-411l-89 -198h-72l335 733h66l335 -733h-15c-37 -31 -54 -51 -54 -79c0 -29 22 -45 78 -49zM237 261h355l-177 393z" />
    <glyph glyph-name="aogonek" unicode="&#x105;" horiz-adv-x="610" 
d="M536 -171h-7c-87 3 -132 35 -132 83c0 36 21 64 59 95v77c-37 -50 -100 -96 -197 -96c-100 0 -203 57 -203 167v2c0 112 94 173 231 173c71 0 120 -9 169 -23v21c0 101 -61 154 -166 154c-64 0 -115 -17 -165 -41l-21 56c58 27 116 45 192 45c74 0 132 -20 171 -58
c36 -37 55 -87 55 -154v-330h-10c-37 -31 -54 -51 -54 -79c0 -29 22 -45 78 -49v-43zM268 45c103 0 190 63 190 153v56c-43 11 -98 23 -169 23c-105 0 -164 -46 -164 -116v-3c0 -71 67 -113 143 -113z" />
    <glyph glyph-name="aogonek.alt" horiz-adv-x="699" 
d="M616 -171h-7c-87 3 -132 35 -132 83c0 35 20 63 57 93v108c-45 -67 -110 -125 -212 -125c-128 0 -257 103 -257 277v2c0 175 129 280 257 280c103 0 169 -57 212 -121v108h67v-534h-9c-37 -31 -54 -51 -54 -79c0 -29 22 -45 78 -49v-43zM333 50c104 0 204 87 204 216v2
c0 130 -100 217 -204 217c-109 0 -198 -81 -198 -216v-2c0 -132 92 -217 198 -217z" />
    <glyph glyph-name="Aring" unicode="&#xc5;" horiz-adv-x="832" 
d="M416 717c39 0 70 28 70 64c0 37 -31 65 -70 65c-40 0 -70 -28 -70 -65c0 -36 30 -64 70 -64zM237 261h355l-177 393zM48 0l315 692c-36 17 -60 49 -60 89c0 58 51 102 113 102s113 -44 113 -102c0 -40 -25 -73 -61 -90l316 -691h-76l-88 198h-411l-89 -198h-72z" />
    <glyph glyph-name="aring" unicode="&#xe5;" horiz-adv-x="610" 
d="M305 617c-61 0 -111 48 -111 106c0 59 50 107 111 107s111 -48 111 -107c0 -58 -50 -106 -111 -106zM305 651c39 0 72 33 72 72c0 40 -33 73 -72 73s-72 -33 -72 -73c0 -39 33 -72 72 -72zM268 45c103 0 190 63 190 153v56c-43 11 -98 23 -169 23
c-105 0 -164 -46 -164 -116v-3c0 -71 67 -113 143 -113zM259 -12c-100 0 -203 57 -203 167v2c0 112 94 173 231 173c71 0 120 -9 169 -23v21c0 101 -61 154 -166 154c-64 0 -115 -17 -165 -41l-21 56c58 27 116 45 192 45c74 0 132 -20 171 -58c36 -37 55 -87 55 -154v-330
h-66v84c-37 -50 -100 -96 -197 -96z" />
    <glyph glyph-name="aring.alt" horiz-adv-x="699" 
d="M352 617c-61 0 -111 48 -111 106c0 59 50 107 111 107s111 -48 111 -107c0 -58 -50 -106 -111 -106zM352 651c39 0 72 33 72 72c0 40 -33 73 -72 73s-72 -33 -72 -73c0 -39 33 -72 72 -72zM333 50c104 0 204 87 204 216v2c0 130 -100 217 -204 217
c-109 0 -198 -81 -198 -216v-2c0 -132 92 -217 198 -217zM322 -12c-128 0 -257 103 -257 277v2c0 175 129 280 257 280c103 0 169 -57 212 -121v108h67v-534h-67v113c-45 -67 -110 -125 -212 -125z" />
    <glyph glyph-name="aring.alt2" horiz-adv-x="610" 
d="M233 615c0 -39 33 -72 72 -72s72 33 72 72s-33 72 -72 72s-72 -33 -72 -72zM268 45c103 0 190 63 190 153v56c-43 11 -98 23 -169 23c-105 0 -164 -46 -164 -116v-3c0 -71 67 -113 143 -113zM259 -12c-100 0 -203 57 -203 167v2c0 112 94 173 231 173
c71 0 120 -9 169 -23v21c0 101 -61 154 -166 154c-64 0 -115 -17 -165 -41l-21 56c41 18 81 34 128 41c-23 18 -38 45 -38 77c0 59 50 106 111 106s111 -47 111 -106c0 -34 -17 -63 -43 -81c38 -9 69 -27 94 -50c36 -37 55 -87 55 -154v-330h-66v84
c-37 -50 -100 -96 -197 -96z" />
    <glyph glyph-name="Aringacute" unicode="&#x1fa;" horiz-adv-x="832" 
d="M384 913l102 117l71 -33l-115 -84h-58zM416 717c39 0 70 28 70 64c0 37 -31 65 -70 65c-40 0 -70 -28 -70 -65c0 -36 30 -64 70 -64zM237 261h355l-177 393zM48 0l315 692c-36 17 -60 49 -60 89c0 58 51 102 113 102s113 -44 113 -102c0 -40 -25 -73 -61 -90l316 -691
h-76l-88 198h-411l-89 -198h-72z" />
    <glyph glyph-name="aringacute" unicode="&#x1fb;" horiz-adv-x="610" 
d="M276 859l97 127l73 -35l-113 -92h-57zM305 617c-61 0 -111 48 -111 106c0 59 50 107 111 107s111 -48 111 -107c0 -58 -50 -106 -111 -106zM305 651c39 0 72 33 72 72c0 40 -33 73 -72 73s-72 -33 -72 -73c0 -39 33 -72 72 -72zM268 45c103 0 190 63 190 153v56
c-43 11 -98 23 -169 23c-105 0 -164 -46 -164 -116v-3c0 -71 67 -113 143 -113zM259 -12c-100 0 -203 57 -203 167v2c0 112 94 173 231 173c71 0 120 -9 169 -23v21c0 101 -61 154 -166 154c-64 0 -115 -17 -165 -41l-21 56c58 27 116 45 192 45c74 0 132 -20 171 -58
c36 -37 55 -87 55 -154v-330h-66v84c-37 -50 -100 -96 -197 -96z" />
    <glyph glyph-name="aringacute.alt" horiz-adv-x="699" 
d="M323 859l97 127l73 -35l-113 -92h-57zM352 617c-61 0 -111 48 -111 106c0 59 50 107 111 107s111 -48 111 -107c0 -58 -50 -106 -111 -106zM352 651c39 0 72 33 72 72c0 40 -33 73 -72 73s-72 -33 -72 -73c0 -39 33 -72 72 -72zM333 50c104 0 204 87 204 216v2
c0 130 -100 217 -204 217c-109 0 -198 -81 -198 -216v-2c0 -132 92 -217 198 -217zM322 -12c-128 0 -257 103 -257 277v2c0 175 129 280 257 280c103 0 169 -57 212 -121v108h67v-534h-67v113c-45 -67 -110 -125 -212 -125z" />
    <glyph glyph-name="aringacute.alt2" horiz-adv-x="610" 
d="M276 759l97 127l73 -35l-113 -92h-57zM233 615c0 -39 33 -72 72 -72s72 33 72 72s-33 72 -72 72s-72 -33 -72 -72zM268 45c103 0 190 63 190 153v56c-43 11 -98 23 -169 23c-105 0 -164 -46 -164 -116v-3c0 -71 67 -113 143 -113zM259 -12c-100 0 -203 57 -203 167v2
c0 112 94 173 231 173c71 0 120 -9 169 -23v21c0 101 -61 154 -166 154c-64 0 -115 -17 -165 -41l-21 56c41 18 81 34 128 41c-23 18 -38 45 -38 77c0 59 50 106 111 106s111 -47 111 -106c0 -34 -17 -63 -43 -81c38 -9 69 -27 94 -50c36 -37 55 -87 55 -154v-330h-66v84
c-37 -50 -100 -96 -197 -96z" />
    <glyph glyph-name="Atilde" unicode="&#xc3;" horiz-adv-x="832" 
d="M490 804c-23 0 -50 11 -77 22c-21 9 -43 18 -59 18c-26 0 -38 -14 -53 -49l-46 12c21 70 48 100 92 100c23 0 50 -11 77 -23c21 -8 43 -17 59 -17c26 0 38 13 53 48l46 -13c-21 -69 -48 -98 -92 -98zM237 261h355l-177 393zM48 0l335 733h66l335 -733h-76l-88 198h-411
l-89 -198h-72z" />
    <glyph glyph-name="atilde" unicode="&#xe3;" horiz-adv-x="610" 
d="M378 619c-22 0 -45 10 -71 21c-23 10 -48 21 -65 21c-26 0 -38 -13 -53 -52l-43 12c20 77 47 104 94 104c22 0 45 -10 71 -21c23 -10 48 -21 65 -21c26 0 38 13 53 51l43 -11c-20 -77 -47 -104 -94 -104zM268 45c103 0 190 63 190 153v56c-43 11 -98 23 -169 23
c-105 0 -164 -46 -164 -116v-3c0 -71 67 -113 143 -113zM259 -12c-100 0 -203 57 -203 167v2c0 112 94 173 231 173c71 0 120 -9 169 -23v21c0 101 -61 154 -166 154c-64 0 -115 -17 -165 -41l-21 56c58 27 116 45 192 45c74 0 132 -20 171 -58c36 -37 55 -87 55 -154v-330
h-66v84c-37 -50 -100 -96 -197 -96z" />
    <glyph glyph-name="atilde.alt" horiz-adv-x="699" 
d="M425 619c-22 0 -45 10 -71 21c-23 10 -48 21 -65 21c-26 0 -38 -13 -53 -52l-43 12c20 77 47 104 94 104c22 0 45 -10 71 -21c23 -10 48 -21 65 -21c26 0 38 13 53 51l43 -11c-20 -77 -47 -104 -94 -104zM333 50c104 0 204 87 204 216v2c0 130 -100 217 -204 217
c-109 0 -198 -81 -198 -216v-2c0 -132 92 -217 198 -217zM322 -12c-128 0 -257 103 -257 277v2c0 175 129 280 257 280c103 0 169 -57 212 -121v108h67v-534h-67v113c-45 -67 -110 -125 -212 -125z" />
    <glyph glyph-name="Cacute" unicode="&#x106;" horiz-adv-x="782" 
d="M409 804l101 129l73 -34l-116 -95h-58zM441 -12c-208 0 -363 165 -363 374v2c0 206 154 376 366 376c131 0 210 -47 284 -115l-48 -52c-63 60 -133 104 -237 104c-167 0 -292 -137 -292 -311v-2c0 -175 127 -313 293 -313c102 0 170 40 242 109l46 -45
c-77 -77 -160 -127 -291 -127z" />
    <glyph glyph-name="cacute" unicode="&#x107;" horiz-adv-x="604" 
d="M304 619l95 145l74 -35l-115 -110h-54zM336 -12c-155 0 -273 127 -273 277v2c0 150 119 280 274 280c100 0 163 -45 213 -98l-45 -47c-44 45 -94 84 -170 84c-114 0 -202 -97 -202 -217v-2c0 -121 91 -218 207 -218c72 0 127 36 170 84l44 -41
c-54 -61 -118 -104 -218 -104z" />
    <glyph glyph-name="Ccaron" unicode="&#x10c;" horiz-adv-x="782" 
d="M581 922l-111 -118h-64l-111 118h67l77 -63l77 63h65zM441 -12c-208 0 -363 165 -363 374v2c0 206 154 376 366 376c131 0 210 -47 284 -115l-48 -52c-63 60 -133 104 -237 104c-167 0 -292 -137 -292 -311v-2c0 -175 127 -313 293 -313c102 0 170 40 242 109l46 -45
c-77 -77 -160 -127 -291 -127z" />
    <glyph glyph-name="ccaron" unicode="&#x10d;" horiz-adv-x="604" 
d="M468 751l-108 -132h-58l-107 132h59l78 -70l78 70h58zM336 -12c-155 0 -273 127 -273 277v2c0 150 119 280 274 280c100 0 163 -45 213 -98l-45 -47c-44 45 -94 84 -170 84c-114 0 -202 -97 -202 -217v-2c0 -121 91 -218 207 -218c72 0 127 36 170 84l44 -41
c-54 -61 -118 -104 -218 -104z" />
    <glyph glyph-name="Ccedilla" unicode="&#xc7;" horiz-adv-x="782" 
d="M388 -158l-68 31l79 117c-187 20 -321 177 -321 372v2c0 206 154 376 366 376c131 0 210 -47 284 -115l-48 -52c-63 60 -133 104 -237 104c-167 0 -292 -137 -292 -311v-2c0 -175 127 -313 293 -313c102 0 170 40 242 109l46 -45c-74 -74 -153 -122 -275 -126z" />
    <glyph glyph-name="ccedilla" unicode="&#xe7;" horiz-adv-x="604" 
d="M281 -158l-68 31l80 118c-134 21 -230 138 -230 274v2c0 150 119 280 274 280c100 0 163 -45 213 -98l-45 -47c-44 45 -94 84 -170 84c-114 0 -202 -97 -202 -217v-2c0 -121 91 -218 207 -218c72 0 127 36 170 84l44 -41c-52 -58 -112 -100 -204 -104z" />
    <glyph glyph-name="Cdotaccent" unicode="&#x10a;" horiz-adv-x="782" 
d="M393 804v87h90v-87h-90zM441 -12c-208 0 -363 165 -363 374v2c0 206 154 376 366 376c131 0 210 -47 284 -115l-48 -52c-63 60 -133 104 -237 104c-167 0 -292 -137 -292 -311v-2c0 -175 127 -313 293 -313c102 0 170 40 242 109l46 -45c-77 -77 -160 -127 -291 -127z
" />
    <glyph glyph-name="cdotaccent" unicode="&#x10b;" horiz-adv-x="604" 
d="M287 619v92h88v-92h-88zM336 -12c-155 0 -273 127 -273 277v2c0 150 119 280 274 280c100 0 163 -45 213 -98l-45 -47c-44 45 -94 84 -170 84c-114 0 -202 -97 -202 -217v-2c0 -121 91 -218 207 -218c72 0 127 36 170 84l44 -41c-54 -61 -118 -104 -218 -104z" />
    <glyph glyph-name="Dcaron" unicode="&#x10e;" horiz-adv-x="823" 
d="M538 912l-111 -118h-64l-111 118h67l77 -63l77 63h65zM110 0v728h249c228 0 386 -157 386 -362v-2c0 -205 -158 -364 -386 -364h-249zM359 664h-179v-600h179c192 0 314 131 314 298v2c0 166 -122 300 -314 300z" />
    <glyph glyph-name="dcaron" unicode="&#x10f;" horiz-adv-x="699" 
d="M671 595l16 164h71v-3l-52 -161h-35zM333 50c104 0 204 87 204 216v2c0 130 -100 217 -204 217c-109 0 -198 -81 -198 -216v-2c0 -132 92 -217 198 -217zM322 -12c-128 0 -257 103 -257 277v2c0 175 129 280 257 280c103 0 169 -57 212 -121v333h67v-759h-67v113
c-45 -67 -110 -125 -212 -125z" />
    <glyph glyph-name="Dcroat" unicode="&#x110;" horiz-adv-x="854" 
d="M141 0v337h-78v59h78v332h249c229 0 387 -157 387 -362v-2c0 -205 -158 -364 -387 -364h-249zM440 337h-229v-273h179c192 0 314 131 314 298v2c0 166 -122 300 -314 300h-179v-268h229v-59z" />
    <glyph glyph-name="dcroat" unicode="&#x111;" horiz-adv-x="699" 
d="M333 50c104 0 204 87 204 216v2c0 130 -100 217 -204 217c-109 0 -198 -81 -198 -216v-2c0 -132 92 -217 198 -217zM346 639v53h188v67h67v-67h72v-53h-72v-639h-67v113c-45 -67 -110 -125 -212 -125c-128 0 -257 103 -257 277v2c0 175 129 280 257 280
c103 0 169 -57 212 -121v213h-188z" />
    <glyph glyph-name="Eacute" unicode="&#xc9;" horiz-adv-x="707" 
d="M345 794l101 129l73 -34l-116 -95h-58zM110 0v728h523v-64h-453v-265h406v-64h-406v-271h458v-64h-528z" />
    <glyph glyph-name="eacute" unicode="&#xe9;" horiz-adv-x="622" 
d="M290 619l95 145l74 -35l-115 -110h-54zM328 -12c-144 0 -265 112 -265 278v2c0 155 109 279 255 279c154 0 248 -125 248 -282c0 -10 0 -14 -2 -24h-432c11 -123 99 -194 198 -194c77 0 131 34 175 80l43 -39c-54 -59 -119 -100 -220 -100zM132 295h364
c-8 102 -66 193 -180 193c-99 0 -174 -82 -184 -193z" />
    <glyph glyph-name="Ebreve" unicode="&#x114;" horiz-adv-x="707" 
d="M373 792c-82 0 -141 41 -147 112h55c12 -34 41 -54 92 -54s80 20 92 54h55c-6 -71 -65 -112 -147 -112zM110 0v728h523v-64h-453v-265h406v-64h-406v-271h458v-64h-528z" />
    <glyph glyph-name="ebreve" unicode="&#x115;" horiz-adv-x="622" 
d="M318 617c-82 0 -141 46 -147 124h50c13 -39 43 -66 97 -66s84 27 97 66h50c-6 -78 -65 -124 -147 -124zM328 -12c-144 0 -265 112 -265 278v2c0 155 109 279 255 279c154 0 248 -125 248 -282c0 -10 0 -14 -2 -24h-432c11 -123 99 -194 198 -194c77 0 131 34 175 80
l43 -39c-54 -59 -119 -100 -220 -100zM132 295h364c-8 102 -66 193 -180 193c-99 0 -174 -82 -184 -193z" />
    <glyph glyph-name="Ecaron" unicode="&#x11a;" horiz-adv-x="707" 
d="M516 912l-111 -118h-64l-111 118h67l77 -63l77 63h65zM110 0v728h523v-64h-453v-265h406v-64h-406v-271h458v-64h-528z" />
    <glyph glyph-name="ecaron" unicode="&#x11b;" horiz-adv-x="622" 
d="M455 751l-108 -132h-58l-107 132h59l78 -70l78 70h58zM328 -12c-144 0 -265 112 -265 278v2c0 155 109 279 255 279c154 0 248 -125 248 -282c0 -10 0 -14 -2 -24h-432c11 -123 99 -194 198 -194c77 0 131 34 175 80l43 -39c-54 -59 -119 -100 -220 -100zM132 295h364
c-8 102 -66 193 -180 193c-99 0 -174 -82 -184 -193z" />
    <glyph glyph-name="Ecircumflex" unicode="&#xca;" horiz-adv-x="707" 
d="M230 794l111 118h64l111 -118h-67l-77 63l-77 -63h-65zM110 0v728h523v-64h-453v-265h406v-64h-406v-271h458v-64h-528z" />
    <glyph glyph-name="ecircumflex" unicode="&#xea;" horiz-adv-x="622" 
d="M182 619l107 132h58l108 -132h-60l-78 70l-78 -70h-57zM328 -12c-144 0 -265 112 -265 278v2c0 155 109 279 255 279c154 0 248 -125 248 -282c0 -10 0 -14 -2 -24h-432c11 -123 99 -194 198 -194c77 0 131 34 175 80l43 -39c-54 -59 -119 -100 -220 -100zM132 295h364
c-8 102 -66 193 -180 193c-99 0 -174 -82 -184 -193z" />
    <glyph glyph-name="Edieresis" unicode="&#xcb;" horiz-adv-x="707" 
d="M235 794v87h88v-87h-88zM425 794v87h87v-87h-87zM110 0v728h523v-64h-453v-265h406v-64h-406v-271h458v-64h-528z" />
    <glyph glyph-name="edieresis" unicode="&#xeb;" horiz-adv-x="622" 
d="M188 619v92h84v-92h-84zM364 619v92h84v-92h-84zM328 -12c-144 0 -265 112 -265 278v2c0 155 109 279 255 279c154 0 248 -125 248 -282c0 -10 0 -14 -2 -24h-432c11 -123 99 -194 198 -194c77 0 131 34 175 80l43 -39c-54 -59 -119 -100 -220 -100zM132 295h364
c-8 102 -66 193 -180 193c-99 0 -174 -82 -184 -193z" />
    <glyph glyph-name="Edotaccent" unicode="&#x116;" horiz-adv-x="707" 
d="M328 794v87h90v-87h-90zM110 0v728h523v-64h-453v-265h406v-64h-406v-271h458v-64h-528z" />
    <glyph glyph-name="edotaccent" unicode="&#x117;" horiz-adv-x="622" 
d="M274 619v92h88v-92h-88zM328 -12c-144 0 -265 112 -265 278v2c0 155 109 279 255 279c154 0 248 -125 248 -282c0 -10 0 -14 -2 -24h-432c11 -123 99 -194 198 -194c77 0 131 34 175 80l43 -39c-54 -59 -119 -100 -220 -100zM132 295h364c-8 102 -66 193 -180 193
c-99 0 -174 -82 -184 -193z" />
    <glyph glyph-name="Egrave" unicode="&#xc8;" horiz-adv-x="707" 
d="M402 794h-58l-116 95l73 34zM110 0v728h523v-64h-453v-265h406v-64h-406v-271h458v-64h-528z" />
    <glyph glyph-name="egrave" unicode="&#xe8;" horiz-adv-x="622" 
d="M291 619l-115 110l74 35l95 -145h-54zM328 -12c-144 0 -265 112 -265 278v2c0 155 109 279 255 279c154 0 248 -125 248 -282c0 -10 0 -14 -2 -24h-432c11 -123 99 -194 198 -194c77 0 131 34 175 80l43 -39c-54 -59 -119 -100 -220 -100zM132 295h364
c-8 102 -66 193 -180 193c-99 0 -174 -82 -184 -193z" />
    <glyph glyph-name="Emacron" unicode="&#x112;" horiz-adv-x="707" 
d="M206 818v60h334v-60h-334zM110 0v728h523v-64h-453v-265h406v-64h-406v-271h458v-64h-528z" />
    <glyph glyph-name="emacron" unicode="&#x113;" horiz-adv-x="622" 
d="M160 643v57h316v-57h-316zM328 -12c-144 0 -265 112 -265 278v2c0 155 109 279 255 279c154 0 248 -125 248 -282c0 -10 0 -14 -2 -24h-432c11 -123 99 -194 198 -194c77 0 131 34 175 80l43 -39c-54 -59 -119 -100 -220 -100zM132 295h364c-8 102 -66 193 -180 193
c-99 0 -174 -82 -184 -193z" />
    <glyph glyph-name="Eogonek" unicode="&#x118;" horiz-adv-x="707" 
d="M110 0v728h523v-64h-453v-265h406v-64h-406v-271h458v-64h-25c-37 -31 -54 -51 -54 -79c0 -29 22 -45 78 -49v-43h-7c-87 3 -132 35 -132 83c0 33 18 59 50 88h-438z" />
    <glyph glyph-name="eogonek" unicode="&#x119;" horiz-adv-x="622" 
d="M505 127l43 -39c-18 -20 -31 -32 -54 -51c-61 -52 -77 -80 -77 -109c0 -36 23 -51 79 -56v-43h-7c-87 3 -132 34 -132 87c0 29 14 53 39 79c-21 -5 -44 -7 -68 -7c-144 0 -265 112 -265 278v2c0 155 109 279 255 279c154 0 248 -125 248 -282c0 -10 0 -14 -2 -24h-432
c11 -123 99 -194 198 -194c77 0 131 34 175 80zM132 295h364c-8 102 -66 193 -180 193c-99 0 -174 -82 -184 -193z" />
    <glyph glyph-name="Gbreve" unicode="&#x11e;" horiz-adv-x="825" 
d="M433 802c-82 0 -141 41 -147 112h55c12 -34 41 -54 92 -54s80 20 92 54h55c-6 -71 -65 -112 -147 -112zM446 -12c-229 0 -368 167 -368 374v2c0 198 145 376 363 376c120 0 196 -35 269 -96l-45 -53c-57 50 -121 86 -228 86c-167 0 -286 -143 -286 -311v-2
c0 -180 113 -314 298 -314c87 0 169 35 220 77v194h-231v63h298v-286c-67 -59 -169 -110 -290 -110z" />
    <glyph glyph-name="gbreve" unicode="&#x11f;" horiz-adv-x="699" 
d="M352 617c-82 0 -141 46 -147 124h50c13 -39 43 -66 97 -66s84 27 97 66h50c-6 -78 -65 -124 -147 -124zM330 102c105 0 207 77 207 191v2c0 115 -102 190 -207 190c-106 0 -195 -73 -195 -190v-2c0 -113 91 -191 195 -191zM333 -168c-88 0 -171 26 -244 77l34 53
c63 -46 133 -71 211 -71c119 0 200 67 200 198v69c-46 -64 -113 -118 -215 -118c-129 0 -254 98 -254 252v2c0 155 126 253 254 253c103 0 171 -54 215 -114v101h67v-445c0 -81 -25 -143 -68 -186c-47 -47 -117 -71 -200 -71z" />
    <glyph glyph-name="Gcommaaccent" unicode="&#x122;" horiz-adv-x="825" 
d="M446 -12c-229 0 -368 167 -368 374v2c0 198 145 376 363 376c120 0 196 -35 269 -96l-45 -53c-57 50 -121 86 -228 86c-167 0 -286 -143 -286 -311v-2c0 -180 113 -314 298 -314c87 0 169 35 220 77v194h-231v63h298v-286c-67 -59 -169 -110 -290 -110zM374 -245l-7 28
c45 9 64 27 61 61h-38v80h86v-70c0 -59 -34 -91 -102 -99z" />
    <glyph glyph-name="gcommaaccent" unicode="&#x123;" horiz-adv-x="699" 
d="M411 789l7 -29c-45 -8 -64 -27 -61 -60h37v-81h-85v70c0 59 34 91 102 100zM330 102c105 0 207 77 207 191v2c0 115 -102 190 -207 190c-106 0 -195 -73 -195 -190v-2c0 -113 91 -191 195 -191zM333 -168c-88 0 -171 26 -244 77l34 53c63 -46 133 -71 211 -71
c119 0 200 67 200 198v69c-46 -64 -113 -118 -215 -118c-129 0 -254 98 -254 252v2c0 155 126 253 254 253c103 0 171 -54 215 -114v101h67v-445c0 -81 -25 -143 -68 -186c-47 -47 -117 -71 -200 -71z" />
    <glyph glyph-name="Gdotaccent" unicode="&#x120;" horiz-adv-x="825" 
d="M388 804v87h90v-87h-90zM446 -12c-229 0 -368 167 -368 374v2c0 198 145 376 363 376c120 0 196 -35 269 -96l-45 -53c-57 50 -121 86 -228 86c-167 0 -286 -143 -286 -311v-2c0 -180 113 -314 298 -314c87 0 169 35 220 77v194h-231v63h298v-286
c-67 -59 -169 -110 -290 -110z" />
    <glyph glyph-name="gdotaccent" unicode="&#x121;" horiz-adv-x="699" 
d="M308 619v92h88v-92h-88zM330 102c105 0 207 77 207 191v2c0 115 -102 190 -207 190c-106 0 -195 -73 -195 -190v-2c0 -113 91 -191 195 -191zM333 -168c-88 0 -171 26 -244 77l34 53c63 -46 133 -71 211 -71c119 0 200 67 200 198v69c-46 -64 -113 -118 -215 -118
c-129 0 -254 98 -254 252v2c0 155 126 253 254 253c103 0 171 -54 215 -114v101h67v-445c0 -81 -25 -143 -68 -186c-47 -47 -117 -71 -200 -71z" />
    <glyph glyph-name="Hbar" unicode="&#x126;" horiz-adv-x="853" 
d="M207 394h440v136h-440v-136zM59 530v56h78v142h70v-142h440v142h70v-142h77v-56h-77v-530h-70v329h-440v-329h-70v530h-78z" />
    <glyph glyph-name="hbar" unicode="&#x127;" horiz-adv-x="649" 
d="M353 639h-188v-200c35 60 93 108 187 108c132 0 209 -90 209 -217v-330h-67v314c0 105 -58 171 -158 171c-97 0 -171 -73 -171 -178v-307h-67v639h-73v53h73v67h67v-67h188v-53z" />
    <glyph glyph-name="Iacute" unicode="&#xcd;" horiz-adv-x="305" 
d="M124 794l101 129l73 -34l-116 -95h-58zM117 0v728h70v-728h-70z" />
    <glyph glyph-name="iacute" unicode="&#xed;" horiz-adv-x="277" 
d="M111 619l95 145l74 -35l-115 -110h-54zM105 0v534h67v-534h-67z" />
    <glyph glyph-name="Ibreve" unicode="&#x12c;" horiz-adv-x="305" 
d="M152 792c-82 0 -141 41 -147 112h55c12 -34 41 -54 92 -54s80 20 92 54h55c-6 -71 -65 -112 -147 -112zM117 0v728h70v-728h-70z" />
    <glyph glyph-name="ibreve" unicode="&#x12d;" horiz-adv-x="277" 
d="M138 617c-82 0 -141 46 -147 124h50c13 -39 43 -66 97 -66s84 27 97 66h50c-6 -78 -65 -124 -147 -124zM105 0v534h67v-534h-67z" />
    <glyph glyph-name="Icircumflex" unicode="&#xce;" horiz-adv-x="305" 
d="M9 794l111 118h64l111 -118h-67l-77 63l-77 -63h-65zM117 0v728h70v-728h-70z" />
    <glyph glyph-name="icircumflex" unicode="&#xee;" horiz-adv-x="277" 
d="M2 619l107 132h58l108 -132h-60l-78 70l-78 -70h-57zM105 0v534h67v-534h-67z" />
    <glyph glyph-name="Idieresis" unicode="&#xcf;" horiz-adv-x="305" 
d="M14 794v87h88v-87h-88zM204 794v87h87v-87h-87zM117 0v728h70v-728h-70z" />
    <glyph glyph-name="idieresis" unicode="&#xef;" horiz-adv-x="277" 
d="M8 619v92h84v-92h-84zM184 619v92h84v-92h-84zM105 0v534h67v-534h-67z" />
    <glyph glyph-name="Idotaccent" unicode="&#x130;" horiz-adv-x="305" 
d="M107 794v87h90v-87h-90zM117 0v728h70v-728h-70z" />
    <glyph glyph-name="i.dot" horiz-adv-x="277" 
d="M99 661v81h79v-81h-79zM105 0v534h67v-534h-67z" />
    <glyph glyph-name="dotlessi" unicode="&#x131;" horiz-adv-x="277" 
d="M105 0v534h67v-534h-67z" />
    <glyph glyph-name="Igrave" unicode="&#xcc;" horiz-adv-x="305" 
d="M181 794h-58l-116 95l73 34zM117 0v728h70v-728h-70z" />
    <glyph glyph-name="igrave" unicode="&#xec;" horiz-adv-x="277" 
d="M112 619l-115 110l74 35l95 -145h-54zM105 0v534h67v-534h-67z" />
    <glyph glyph-name="Imacron" unicode="&#x12a;" horiz-adv-x="305" 
d="M-15 818v60h334v-60h-334zM117 0v728h70v-728h-70z" />
    <glyph glyph-name="imacron" unicode="&#x12b;" horiz-adv-x="277" 
d="M-20 643v57h316v-57h-316zM105 0v534h67v-534h-67z" />
    <glyph glyph-name="Iogonek" unicode="&#x12e;" horiz-adv-x="305" 
d="M204 -171h-7c-87 3 -132 35 -132 83c0 33 19 60 52 89v727h70v-728h-7c-37 -31 -54 -51 -54 -79c0 -29 22 -45 78 -49v-43z" />
    <glyph glyph-name="iogonek" unicode="&#x12f;" horiz-adv-x="277" 
d="M99 661v81h79v-81h-79zM190 -171h-7c-87 3 -132 35 -132 83c0 34 19 61 54 91v531h67v-534h-6c-37 -31 -54 -51 -54 -79c0 -29 22 -45 78 -49v-43z" />
    <glyph glyph-name="Kcommaaccent" unicode="&#x136;" horiz-adv-x="756" 
d="M110 0v728h70v-454l438 454h93l-316 -319l329 -409h-89l-289 359l-166 -168v-191h-70zM322 -239l-7 28c45 9 64 27 61 61h-38v80h86v-70c0 -59 -34 -91 -102 -99z" />
    <glyph glyph-name="kcommaaccent" unicode="&#x137;" horiz-adv-x="597" 
d="M98 0v759h67v-544l307 319h86l-229 -232l236 -302h-82l-200 254l-118 -119v-135h-67zM256 -244l-7 28c45 9 64 27 61 61h-38v80h86v-70c0 -59 -34 -91 -102 -99z" />
    <glyph glyph-name="Lacute" unicode="&#x139;" horiz-adv-x="649" 
d="M127 794l101 129l73 -34l-116 -95h-58zM110 0v728h70v-664h418v-64h-488z" />
    <glyph glyph-name="lacute" unicode="&#x13a;" horiz-adv-x="277" 
d="M111 817l101 129l73 -34l-116 -95h-58zM105 0v759h67v-759h-67z" />
    <glyph glyph-name="Lcaron" unicode="&#x13d;" horiz-adv-x="649" 
d="M281 564l16 164h71v-3l-52 -161h-35zM110 0v728h70v-664h418v-64h-488z" />
    <glyph glyph-name="lcaron" unicode="&#x13e;" horiz-adv-x="277" 
d="M105 0v759h67v-759h-67zM242 595l16 164h71v-3l-52 -161h-35z" />
    <glyph glyph-name="Lcommaaccent" unicode="&#x13b;" horiz-adv-x="649" 
d="M110 0v728h70v-664h418v-64h-488zM290 -244l-7 28c45 9 64 27 61 61h-38v80h86v-70c0 -59 -34 -91 -102 -99z" />
    <glyph glyph-name="lcommaaccent" unicode="&#x13c;" horiz-adv-x="277" 
d="M105 0v759h67v-759h-67zM78 -244l-7 28c45 9 64 27 61 61h-38v80h86v-70c0 -59 -34 -91 -102 -99z" />
    <glyph glyph-name="Ldot" unicode="&#x13f;" horiz-adv-x="649" 
d="M110 0v728h70v-664h418v-64h-488zM439 334v92h86v-92h-86z" />
    <glyph glyph-name="ldot" unicode="&#x140;" horiz-adv-x="344" 
d="M105 0v759h67v-759h-67zM265 337v91h83v-91h-83z" />
    <glyph glyph-name="Lslash" unicode="&#x141;" horiz-adv-x="681" 
d="M400 421l-190 -89v-268h419v-64h-488v299l-78 -36v69l78 36v360h69v-327l190 89v-69z" />
    <glyph glyph-name="lslash" unicode="&#x142;" horiz-adv-x="340" 
d="M282 410l-79 -44v-366h-67v330l-79 -43v70l79 42v360h67v-324l79 44v-69z" />
    <glyph glyph-name="Nacute" unicode="&#x143;" horiz-adv-x="832" 
d="M388 790l101 129l73 -34l-116 -95h-58zM110 0v728h66l478 -606v606h68v-728h-55l-489 619v-619h-68z" />
    <glyph glyph-name="nacute" unicode="&#x144;" horiz-adv-x="649" 
d="M301 619l95 145l74 -35l-115 -110h-54zM98 0v534h67v-95c35 60 93 108 187 108c132 0 209 -90 209 -217v-330h-67v314c0 105 -58 171 -158 171c-97 0 -171 -73 -171 -178v-307h-67z" />
    <glyph glyph-name="Ncaron" unicode="&#x147;" horiz-adv-x="832" 
d="M559 908l-111 -118h-64l-111 118h67l77 -63l77 63h65zM110 0v728h66l478 -606v606h68v-728h-55l-489 619v-619h-68z" />
    <glyph glyph-name="ncaron" unicode="&#x148;" horiz-adv-x="649" 
d="M466 751l-108 -132h-58l-107 132h59l78 -70l78 70h58zM98 0v534h67v-95c35 60 93 108 187 108c132 0 209 -90 209 -217v-330h-67v314c0 105 -58 171 -158 171c-97 0 -171 -73 -171 -178v-307h-67z" />
    <glyph glyph-name="Ncommaaccent" unicode="&#x145;" horiz-adv-x="832" 
d="M110 0v728h66l478 -606v606h68v-728h-55l-489 619v-619h-68zM356 -239l-7 28c45 9 64 27 61 61h-38v80h86v-70c0 -59 -34 -91 -102 -99z" />
    <glyph glyph-name="ncommaaccent" unicode="&#x146;" horiz-adv-x="649" 
d="M98 0v534h67v-95c35 60 93 108 187 108c132 0 209 -90 209 -217v-330h-67v314c0 105 -58 171 -158 171c-97 0 -171 -73 -171 -178v-307h-67zM269 -244l-7 28c45 9 64 27 61 61h-38v80h86v-70c0 -59 -34 -91 -102 -99z" />
    <glyph glyph-name="Ntilde" unicode="&#xd1;" horiz-adv-x="832" 
d="M490 790c-23 0 -50 11 -77 22c-21 9 -43 18 -59 18c-26 0 -38 -14 -53 -49l-46 12c21 70 48 100 92 100c23 0 50 -11 77 -23c21 -8 43 -17 59 -17c26 0 38 13 53 48l46 -13c-21 -69 -48 -98 -92 -98zM110 0v728h66l478 -606v606h68v-728h-55l-489 619v-619h-68z" />
    <glyph glyph-name="ntilde" unicode="&#xf1;" horiz-adv-x="649" 
d="M401 619c-22 0 -45 10 -71 21c-23 10 -48 21 -65 21c-26 0 -38 -13 -53 -52l-43 12c20 77 47 104 94 104c22 0 45 -10 71 -21c23 -10 48 -21 65 -21c26 0 38 13 53 51l43 -11c-20 -77 -47 -104 -94 -104zM98 0v534h67v-95c35 60 93 108 187 108c132 0 209 -90 209 -217
v-330h-67v314c0 105 -58 171 -158 171c-97 0 -171 -73 -171 -178v-307h-67z" />
    <glyph glyph-name="Oacute" unicode="&#xd3;" horiz-adv-x="894" 
d="M419 804l101 129l73 -34l-116 -95h-58zM446 -12c-221 0 -368 174 -368 374v2c0 200 149 376 370 376s368 -174 368 -374v-2c0 -200 -149 -376 -370 -376zM448 51c172 0 295 139 295 311v2c0 172 -125 313 -297 313s-295 -139 -295 -311v-2c0 -172 125 -313 297 -313z" />
    <glyph glyph-name="oacute" unicode="&#xf3;" horiz-adv-x="679" 
d="M312 619l95 145l74 -35l-115 -110h-54zM339 -12c-160 0 -276 127 -276 277v2c0 151 117 280 278 280c159 0 276 -127 276 -278v-2c0 -150 -118 -279 -278 -279zM341 49c120 0 205 98 205 216v2c0 121 -90 219 -207 219c-121 0 -206 -98 -206 -217v-2
c0 -121 90 -218 208 -218z" />
    <glyph glyph-name="Obreve" unicode="&#x14e;" horiz-adv-x="894" 
d="M447 802c-82 0 -141 41 -147 112h55c12 -34 41 -54 92 -54s80 20 92 54h55c-6 -71 -65 -112 -147 -112zM446 -12c-221 0 -368 174 -368 374v2c0 200 149 376 370 376s368 -174 368 -374v-2c0 -200 -149 -376 -370 -376zM448 51c172 0 295 139 295 311v2
c0 172 -125 313 -297 313s-295 -139 -295 -311v-2c0 -172 125 -313 297 -313z" />
    <glyph glyph-name="obreve" unicode="&#x14f;" horiz-adv-x="679" 
d="M340 617c-82 0 -141 46 -147 124h50c13 -39 43 -66 97 -66s84 27 97 66h50c-6 -78 -65 -124 -147 -124zM339 -12c-160 0 -276 127 -276 277v2c0 151 117 280 278 280c159 0 276 -127 276 -278v-2c0 -150 -118 -279 -278 -279zM341 49c120 0 205 98 205 216v2
c0 121 -90 219 -207 219c-121 0 -206 -98 -206 -217v-2c0 -121 90 -218 208 -218z" />
    <glyph glyph-name="Ocircumflex" unicode="&#xd4;" horiz-adv-x="894" 
d="M304 804l111 118h64l111 -118h-67l-77 63l-77 -63h-65zM446 -12c-221 0 -368 174 -368 374v2c0 200 149 376 370 376s368 -174 368 -374v-2c0 -200 -149 -376 -370 -376zM448 51c172 0 295 139 295 311v2c0 172 -125 313 -297 313s-295 -139 -295 -311v-2
c0 -172 125 -313 297 -313z" />
    <glyph glyph-name="ocircumflex" unicode="&#xf4;" horiz-adv-x="679" 
d="M204 619l107 132h58l108 -132h-60l-78 70l-78 -70h-57zM339 -12c-160 0 -276 127 -276 277v2c0 151 117 280 278 280c159 0 276 -127 276 -278v-2c0 -150 -118 -279 -278 -279zM341 49c120 0 205 98 205 216v2c0 121 -90 219 -207 219c-121 0 -206 -98 -206 -217v-2
c0 -121 90 -218 208 -218z" />
    <glyph glyph-name="Odieresis" unicode="&#xd6;" horiz-adv-x="894" 
d="M309 804v87h88v-87h-88zM499 804v87h87v-87h-87zM446 -12c-221 0 -368 174 -368 374v2c0 200 149 376 370 376s368 -174 368 -374v-2c0 -200 -149 -376 -370 -376zM448 51c172 0 295 139 295 311v2c0 172 -125 313 -297 313s-295 -139 -295 -311v-2
c0 -172 125 -313 297 -313z" />
    <glyph glyph-name="odieresis" unicode="&#xf6;" horiz-adv-x="679" 
d="M210 619v92h84v-92h-84zM386 619v92h84v-92h-84zM339 -12c-160 0 -276 127 -276 277v2c0 151 117 280 278 280c159 0 276 -127 276 -278v-2c0 -150 -118 -279 -278 -279zM341 49c120 0 205 98 205 216v2c0 121 -90 219 -207 219c-121 0 -206 -98 -206 -217v-2
c0 -121 90 -218 208 -218z" />
    <glyph glyph-name="Ograve" unicode="&#xd2;" horiz-adv-x="894" 
d="M476 804h-58l-116 95l73 34zM446 -12c-221 0 -368 174 -368 374v2c0 200 149 376 370 376s368 -174 368 -374v-2c0 -200 -149 -376 -370 -376zM448 51c172 0 295 139 295 311v2c0 172 -125 313 -297 313s-295 -139 -295 -311v-2c0 -172 125 -313 297 -313z" />
    <glyph glyph-name="ograve" unicode="&#xf2;" horiz-adv-x="679" 
d="M313 619l-115 110l74 35l95 -145h-54zM339 -12c-160 0 -276 127 -276 277v2c0 151 117 280 278 280c159 0 276 -127 276 -278v-2c0 -150 -118 -279 -278 -279zM341 49c120 0 205 98 205 216v2c0 121 -90 219 -207 219c-121 0 -206 -98 -206 -217v-2
c0 -121 90 -218 208 -218z" />
    <glyph glyph-name="Ohungarumlaut" unicode="&#x150;" horiz-adv-x="894" 
d="M485 804l101 129l72 -34l-115 -95h-58zM332 804l101 129l72 -34l-116 -95h-57zM446 -12c-221 0 -368 174 -368 374v2c0 200 149 376 370 376s368 -174 368 -374v-2c0 -200 -149 -376 -370 -376zM448 51c172 0 295 139 295 311v2c0 172 -125 313 -297 313
s-295 -139 -295 -311v-2c0 -172 125 -313 297 -313z" />
    <glyph glyph-name="ohungarumlaut" unicode="&#x151;" horiz-adv-x="679" 
d="M229 619l96 145l68 -35l-109 -110h-55zM378 619l96 145l69 -35l-110 -110h-55zM339 -12c-160 0 -276 127 -276 277v2c0 151 117 280 278 280c159 0 276 -127 276 -278v-2c0 -150 -118 -279 -278 -279zM341 49c120 0 205 98 205 216v2c0 121 -90 219 -207 219
c-121 0 -206 -98 -206 -217v-2c0 -121 90 -218 208 -218z" />
    <glyph glyph-name="Omacron" unicode="&#x14c;" horiz-adv-x="894" 
d="M280 828v60h334v-60h-334zM446 -12c-221 0 -368 174 -368 374v2c0 200 149 376 370 376s368 -174 368 -374v-2c0 -200 -149 -376 -370 -376zM448 51c172 0 295 139 295 311v2c0 172 -125 313 -297 313s-295 -139 -295 -311v-2c0 -172 125 -313 297 -313z" />
    <glyph glyph-name="omacron" unicode="&#x14d;" horiz-adv-x="679" 
d="M182 643v57h316v-57h-316zM339 -12c-160 0 -276 127 -276 277v2c0 151 117 280 278 280c159 0 276 -127 276 -278v-2c0 -150 -118 -279 -278 -279zM341 49c120 0 205 98 205 216v2c0 121 -90 219 -207 219c-121 0 -206 -98 -206 -217v-2c0 -121 90 -218 208 -218z" />
    <glyph glyph-name="Oslash" unicode="&#xd8;" horiz-adv-x="894" 
d="M749 733h76l-104 -112c61 -68 95 -159 95 -255v-2c0 -200 -149 -376 -370 -376c-92 0 -172 30 -233 80l-68 -73h-76l104 111c-61 68 -95 159 -95 256v2c0 200 149 376 370 376c92 0 171 -30 232 -80zM149 365c0 -79 27 -152 72 -208l415 452c-50 43 -116 69 -190 69
c-173 0 -297 -139 -297 -312v-1zM448 50c173 0 297 139 297 312v1c0 79 -27 152 -72 208l-416 -452c51 -44 117 -70 191 -69z" />
    <glyph glyph-name="oslash" unicode="&#xf8;" horiz-adv-x="679" 
d="M561 541h71l-83 -88c43 -49 68 -114 68 -184v-2c0 -150 -118 -279 -278 -279c-66 0 -125 22 -171 58l-50 -51h-71l83 87c-42 49 -67 114 -67 183v2c0 151 117 280 278 280c66 0 125 -22 171 -59zM132 268c0 -52 16 -100 44 -138l293 310c-35 29 -80 47 -130 47
c-122 0 -207 -98 -207 -218v-1zM341 47c122 0 207 98 207 218v1c0 52 -17 101 -46 139l-292 -311c35 -30 80 -48 131 -47z" />
    <glyph glyph-name="Oslashacute" unicode="&#x1fe;" horiz-adv-x="894" 
d="M419 804l101 129l73 -34l-116 -95h-58zM749 733h76l-104 -112c61 -68 95 -159 95 -255v-2c0 -200 -149 -376 -370 -376c-92 0 -172 30 -233 80l-68 -73h-76l104 111c-61 68 -95 159 -95 256v2c0 200 149 376 370 376c92 0 171 -30 232 -80zM149 365
c0 -79 27 -152 72 -208l415 452c-50 43 -116 69 -190 69c-173 0 -297 -139 -297 -312v-1zM448 50c173 0 297 139 297 312v1c0 79 -27 152 -72 208l-416 -452c51 -44 117 -70 191 -69z" />
    <glyph glyph-name="oslashacute" unicode="&#x1ff;" horiz-adv-x="679" 
d="M312 619l95 145l74 -35l-115 -110h-54zM561 541h71l-83 -88c43 -49 68 -114 68 -184v-2c0 -150 -118 -279 -278 -279c-66 0 -125 22 -171 58l-50 -51h-71l83 87c-42 49 -67 114 -67 183v2c0 151 117 280 278 280c66 0 125 -22 171 -59zM132 268c0 -52 16 -100 44 -138
l293 310c-35 29 -80 47 -130 47c-122 0 -207 -98 -207 -218v-1zM341 47c122 0 207 98 207 218v1c0 52 -17 101 -46 139l-292 -311c35 -30 80 -48 131 -47z" />
    <glyph glyph-name="Otilde" unicode="&#xd5;" horiz-adv-x="894" 
d="M521 804c-23 0 -50 11 -77 22c-21 9 -43 18 -59 18c-26 0 -38 -14 -53 -49l-46 12c21 70 48 100 92 100c23 0 50 -11 77 -23c21 -8 43 -17 59 -17c26 0 38 13 53 48l46 -13c-21 -69 -48 -98 -92 -98zM446 -12c-221 0 -368 174 -368 374v2c0 200 149 376 370 376
s368 -174 368 -374v-2c0 -200 -149 -376 -370 -376zM448 51c172 0 295 139 295 311v2c0 172 -125 313 -297 313s-295 -139 -295 -311v-2c0 -172 125 -313 297 -313z" />
    <glyph glyph-name="otilde" unicode="&#xf5;" horiz-adv-x="679" 
d="M412 619c-22 0 -45 10 -71 21c-23 10 -48 21 -65 21c-26 0 -38 -13 -53 -52l-43 12c20 77 47 104 94 104c22 0 45 -10 71 -21c23 -10 48 -21 65 -21c26 0 38 13 53 51l43 -11c-20 -77 -47 -104 -94 -104zM339 -12c-160 0 -276 127 -276 277v2c0 151 117 280 278 280
c159 0 276 -127 276 -278v-2c0 -150 -118 -279 -278 -279zM341 49c120 0 205 98 205 216v2c0 121 -90 219 -207 219c-121 0 -206 -98 -206 -217v-2c0 -121 90 -218 208 -218z" />
    <glyph glyph-name="Racute" unicode="&#x154;" horiz-adv-x="762" 
d="M342 794l101 129l73 -34l-116 -95h-58zM180 354h233c115 0 199 58 199 157v2c0 93 -73 151 -197 151h-235v-310zM110 0v728h310c90 0 162 -28 206 -72c35 -35 56 -85 56 -140v-2c0 -121 -86 -191 -205 -211l231 -303h-86l-221 291h-221v-291h-70z" />
    <glyph glyph-name="racute" unicode="&#x155;" horiz-adv-x="429" 
d="M200 619l95 145l74 -35l-115 -110h-54zM98 0v534h67v-145c40 92 123 158 226 154v-72h-5c-120 0 -221 -89 -221 -255v-216h-67z" />
    <glyph glyph-name="Rcaron" unicode="&#x158;" horiz-adv-x="762" 
d="M513 912l-111 -118h-64l-111 118h67l77 -63l77 63h65zM180 354h233c115 0 199 58 199 157v2c0 93 -73 151 -197 151h-235v-310zM110 0v728h310c90 0 162 -28 206 -72c35 -35 56 -85 56 -140v-2c0 -121 -86 -191 -205 -211l231 -303h-86l-221 291h-221v-291h-70z" />
    <glyph glyph-name="rcaron" unicode="&#x159;" horiz-adv-x="429" 
d="M364 751l-108 -132h-58l-107 132h59l78 -70l78 70h58zM98 0v534h67v-145c40 92 123 158 226 154v-72h-5c-120 0 -221 -89 -221 -255v-216h-67z" />
    <glyph glyph-name="Rcommaaccent" unicode="&#x156;" horiz-adv-x="762" 
d="M180 354h233c115 0 199 58 199 157v2c0 93 -73 151 -197 151h-235v-310zM110 0v728h310c90 0 162 -28 206 -72c35 -35 56 -85 56 -140v-2c0 -121 -86 -191 -205 -211l231 -303h-86l-221 291h-221v-291h-70zM310 -239l-7 28c45 9 64 27 61 61h-38v80h86v-70
c0 -59 -34 -91 -102 -99z" />
    <glyph glyph-name="rcommaaccent" unicode="&#x157;" horiz-adv-x="429" 
d="M98 0v534h67v-145c40 92 123 158 226 154v-72h-5c-120 0 -221 -89 -221 -255v-216h-67zM80 -244l-7 28c45 9 64 27 61 61h-38v80h86v-70c0 -59 -34 -91 -102 -99z" />
    <glyph glyph-name="Sacute" unicode="&#x15a;" horiz-adv-x="676" 
d="M317 804l101 129l73 -34l-116 -95h-58zM358 -10c-115 0 -208 38 -295 116l44 52c78 -71 151 -106 255 -106c102 0 172 56 172 134v2c0 71 -38 112 -197 145c-171 36 -245 92 -245 208v2c0 112 100 195 237 195c106 0 179 -29 253 -89l-42 -54c-68 57 -136 81 -213 81
c-100 0 -165 -57 -165 -127v-2c0 -72 38 -114 204 -149c165 -35 238 -94 238 -204v-2c0 -121 -103 -202 -246 -202z" />
    <glyph glyph-name="sacute" unicode="&#x15b;" horiz-adv-x="528" 
d="M240 619l95 145l74 -35l-115 -110h-54zM273 -10c-77 0 -162 30 -221 78l36 50c59 -45 123 -69 188 -69c68 0 119 36 119 92v2c0 58 -65 79 -137 99c-85 25 -179 53 -179 149v2c0 90 74 152 179 152c64 0 137 -23 191 -60l-32 -52c-50 32 -108 53 -161 53
c-68 0 -112 -36 -112 -85v-2c0 -55 69 -76 143 -97c84 -25 174 -57 174 -152v-2c0 -99 -83 -158 -188 -158z" />
    <glyph glyph-name="Scaron" unicode="&#x160;" horiz-adv-x="676" 
d="M488 922l-111 -118h-64l-111 118h67l77 -63l77 63h65zM358 -10c-115 0 -208 38 -295 116l44 52c78 -71 151 -106 255 -106c102 0 172 56 172 134v2c0 71 -38 112 -197 145c-171 36 -245 92 -245 208v2c0 112 100 195 237 195c106 0 179 -29 253 -89l-42 -54
c-68 57 -136 81 -213 81c-100 0 -165 -57 -165 -127v-2c0 -72 38 -114 204 -149c165 -35 238 -94 238 -204v-2c0 -121 -103 -202 -246 -202z" />
    <glyph glyph-name="scaron" unicode="&#x161;" horiz-adv-x="528" 
d="M404 751l-108 -132h-58l-107 132h59l78 -70l78 70h58zM273 -10c-77 0 -162 30 -221 78l36 50c59 -45 123 -69 188 -69c68 0 119 36 119 92v2c0 58 -65 79 -137 99c-85 25 -179 53 -179 149v2c0 90 74 152 179 152c64 0 137 -23 191 -60l-32 -52c-50 32 -108 53 -161 53
c-68 0 -112 -36 -112 -85v-2c0 -55 69 -76 143 -97c84 -25 174 -57 174 -152v-2c0 -99 -83 -158 -188 -158z" />
    <glyph glyph-name="Scedilla" unicode="&#x15e;" horiz-adv-x="676" 
d="M309 -158l-68 31l80 119c-99 7 -181 44 -258 114l44 52c78 -71 151 -106 255 -106c102 0 172 56 172 134v2c0 71 -38 112 -197 145c-171 36 -245 92 -245 208v2c0 112 100 195 237 195c106 0 179 -29 253 -89l-42 -54c-68 57 -136 81 -213 81c-100 0 -165 -57 -165 -127
v-2c0 -72 38 -114 204 -149c165 -35 238 -94 238 -204v-2c0 -115 -93 -193 -224 -201z" />
    <glyph glyph-name="scedilla" unicode="&#x15f;" horiz-adv-x="528" 
d="M218 -158l-68 31l81 120c-65 8 -131 35 -179 75l36 50c59 -45 123 -69 188 -69c68 0 119 36 119 92v2c0 58 -65 79 -137 99c-85 25 -179 53 -179 149v2c0 90 74 152 179 152c64 0 137 -23 191 -60l-32 -52c-50 32 -108 53 -161 53c-68 0 -112 -36 -112 -85v-2
c0 -55 69 -76 143 -97c84 -25 174 -57 174 -152v-2c0 -94 -75 -152 -172 -157z" />
    <glyph glyph-name="Scommaaccent" unicode="&#x218;" horiz-adv-x="676" 
d="M358 -10c-115 0 -208 38 -295 116l44 52c78 -71 151 -106 255 -106c102 0 172 56 172 134v2c0 71 -38 112 -197 145c-171 36 -245 92 -245 208v2c0 112 100 195 237 195c106 0 179 -29 253 -89l-42 -54c-68 57 -136 81 -213 81c-100 0 -165 -57 -165 -127v-2
c0 -72 38 -114 204 -149c165 -35 238 -94 238 -204v-2c0 -121 -103 -202 -246 -202zM286 -245l-7 28c45 9 64 27 61 61h-38v80h86v-70c0 -59 -34 -91 -102 -99z" />
    <glyph glyph-name="scommaaccent" unicode="&#x219;" horiz-adv-x="528" 
d="M273 -10c-77 0 -162 30 -221 78l36 50c59 -45 123 -69 188 -69c68 0 119 36 119 92v2c0 58 -65 79 -137 99c-85 25 -179 53 -179 149v2c0 90 74 152 179 152c64 0 137 -23 191 -60l-32 -52c-50 32 -108 53 -161 53c-68 0 -112 -36 -112 -85v-2c0 -55 69 -76 143 -97
c84 -25 174 -57 174 -152v-2c0 -99 -83 -158 -188 -158zM208 -244l-7 28c45 9 64 27 61 61h-38v80h86v-70c0 -59 -34 -91 -102 -99z" />
    <glyph glyph-name="Tcaron" unicode="&#x164;" horiz-adv-x="675" 
d="M481 912l-111 -118h-64l-111 118h67l77 -63l77 63h65zM303 0v663h-249v65h567v-65h-248v-663h-70z" />
    <glyph glyph-name="tcaron" unicode="&#x165;" horiz-adv-x="428" 
d="M285 606l16 164h71v-3l-52 -161h-35zM276 -9c-84 0 -150 43 -150 149v334h-76v60h76v166h67v-166h178v-60h-178v-326c0 -70 40 -96 97 -96c27 0 49 6 78 19v-60c-28 -13 -55 -20 -92 -20z" />
    <glyph glyph-name="Tcommaaccent" unicode="&#x162;" horiz-adv-x="675" 
d="M303 0v663h-249v65h567v-65h-248v-663h-70zM278 -244l-7 28c45 9 64 27 61 61h-38v80h86v-70c0 -59 -34 -91 -102 -99z" />
    <glyph glyph-name="tcommaaccent" unicode="&#x163;" horiz-adv-x="428" 
d="M276 -9c-84 0 -150 43 -150 149v334h-76v60h76v166h67v-166h178v-60h-178v-326c0 -70 40 -96 97 -96c27 0 49 6 78 19v-60c-28 -13 -55 -20 -92 -20zM180 -244l-7 28c45 9 64 27 61 61h-38v80h86v-70c0 -59 -34 -91 -102 -99z" />
    <glyph glyph-name="Uacute" unicode="&#xda;" horiz-adv-x="800" 
d="M372 790l101 129l73 -34l-116 -95h-58zM400 -11c-178 0 -301 110 -301 315v424h70v-419c0 -164 87 -257 233 -257c140 0 229 85 229 252v424h70v-418c0 -211 -122 -321 -301 -321z" />
    <glyph glyph-name="uacute" unicode="&#xfa;" horiz-adv-x="649" 
d="M292 619l95 145l74 -35l-115 -110h-54zM297 -12c-132 0 -209 89 -209 217v329h67v-314c0 -104 58 -171 158 -171c97 0 171 73 171 178v307h67v-534h-67v96c-35 -60 -93 -108 -187 -108z" />
    <glyph glyph-name="Ubreve" unicode="&#x16c;" horiz-adv-x="800" 
d="M400 786c-82 0 -141 41 -147 112h55c12 -34 41 -54 92 -54s80 20 92 54h55c-6 -71 -65 -112 -147 -112zM400 -11c-178 0 -301 110 -301 315v424h70v-419c0 -164 87 -257 233 -257c140 0 229 85 229 252v424h70v-418c0 -211 -122 -321 -301 -321z" />
    <glyph glyph-name="ubreve" unicode="&#x16d;" horiz-adv-x="649" 
d="M319 617c-82 0 -141 46 -147 124h50c13 -39 43 -66 97 -66s84 27 97 66h50c-6 -78 -65 -124 -147 -124zM297 -12c-132 0 -209 89 -209 217v329h67v-314c0 -104 58 -171 158 -171c97 0 171 73 171 178v307h67v-534h-67v96c-35 -60 -93 -108 -187 -108z" />
    <glyph glyph-name="Ucircumflex" unicode="&#xdb;" horiz-adv-x="800" 
d="M257 790l111 118h64l111 -118h-67l-77 63l-77 -63h-65zM400 -11c-178 0 -301 110 -301 315v424h70v-419c0 -164 87 -257 233 -257c140 0 229 85 229 252v424h70v-418c0 -211 -122 -321 -301 -321z" />
    <glyph glyph-name="ucircumflex" unicode="&#xfb;" horiz-adv-x="649" 
d="M183 619l107 132h58l108 -132h-60l-78 70l-78 -70h-57zM297 -12c-132 0 -209 89 -209 217v329h67v-314c0 -104 58 -171 158 -171c97 0 171 73 171 178v307h67v-534h-67v96c-35 -60 -93 -108 -187 -108z" />
    <glyph glyph-name="Udieresis" unicode="&#xdc;" horiz-adv-x="800" 
d="M262 790v87h88v-87h-88zM452 790v87h87v-87h-87zM400 -11c-178 0 -301 110 -301 315v424h70v-419c0 -164 87 -257 233 -257c140 0 229 85 229 252v424h70v-418c0 -211 -122 -321 -301 -321z" />
    <glyph glyph-name="udieresis" unicode="&#xfc;" horiz-adv-x="649" 
d="M189 619v92h84v-92h-84zM365 619v92h84v-92h-84zM297 -12c-132 0 -209 89 -209 217v329h67v-314c0 -104 58 -171 158 -171c97 0 171 73 171 178v307h67v-534h-67v96c-35 -60 -93 -108 -187 -108z" />
    <glyph glyph-name="Ugrave" unicode="&#xd9;" horiz-adv-x="800" 
d="M428 790h-58l-116 95l73 34zM400 -11c-178 0 -301 110 -301 315v424h70v-419c0 -164 87 -257 233 -257c140 0 229 85 229 252v424h70v-418c0 -211 -122 -321 -301 -321z" />
    <glyph glyph-name="ugrave" unicode="&#xf9;" horiz-adv-x="649" 
d="M293 619l-115 110l74 35l95 -145h-54zM297 -12c-132 0 -209 89 -209 217v329h67v-314c0 -104 58 -171 158 -171c97 0 171 73 171 178v307h67v-534h-67v96c-35 -60 -93 -108 -187 -108z" />
    <glyph glyph-name="Uhungarumlaut" unicode="&#x170;" horiz-adv-x="800" 
d="M438 790l101 129l72 -34l-115 -95h-58zM285 790l101 129l72 -34l-116 -95h-57zM400 -11c-178 0 -301 110 -301 315v424h70v-419c0 -164 87 -257 233 -257c140 0 229 85 229 252v424h70v-418c0 -211 -122 -321 -301 -321z" />
    <glyph glyph-name="uhungarumlaut" unicode="&#x171;" horiz-adv-x="649" 
d="M209 619l96 145l68 -35l-109 -110h-55zM358 619l96 145l69 -35l-110 -110h-55zM297 -12c-132 0 -209 89 -209 217v329h67v-314c0 -104 58 -171 158 -171c97 0 171 73 171 178v307h67v-534h-67v96c-35 -60 -93 -108 -187 -108z" />
    <glyph glyph-name="Umacron" unicode="&#x16a;" horiz-adv-x="800" 
d="M233 814v60h334v-60h-334zM400 -11c-178 0 -301 110 -301 315v424h70v-419c0 -164 87 -257 233 -257c140 0 229 85 229 252v424h70v-418c0 -211 -122 -321 -301 -321z" />
    <glyph glyph-name="umacron" unicode="&#x16b;" horiz-adv-x="649" 
d="M161 643v57h316v-57h-316zM297 -12c-132 0 -209 89 -209 217v329h67v-314c0 -104 58 -171 158 -171c97 0 171 73 171 178v307h67v-534h-67v96c-35 -60 -93 -108 -187 -108z" />
    <glyph glyph-name="Uogonek" unicode="&#x172;" horiz-adv-x="800" 
d="M464 -128v-43h-7c-87 3 -132 35 -132 83c0 29 14 53 40 79c-159 13 -266 121 -266 313v424h70v-419c0 -164 87 -257 233 -257c140 0 229 85 229 252v424h70v-418c0 -200 -109 -309 -272 -320c-29 -25 -43 -44 -43 -69c0 -29 22 -45 78 -49z" />
    <glyph glyph-name="uogonek" unicode="&#x173;" horiz-adv-x="649" 
d="M567 -171h-7c-87 3 -132 35 -132 83c0 35 20 62 56 93v91c-35 -60 -93 -108 -187 -108c-132 0 -209 89 -209 217v329h67v-314c0 -104 58 -171 158 -171c97 0 171 73 171 178v307h67v-534h-8c-37 -31 -54 -51 -54 -79c0 -29 22 -45 78 -49v-43z" />
    <glyph glyph-name="Uring" unicode="&#x16e;" horiz-adv-x="800" 
d="M400 775c-62 0 -113 43 -113 101s51 101 113 101s113 -43 113 -101s-51 -101 -113 -101zM400 812c40 0 70 27 70 64s-30 65 -70 65s-70 -28 -70 -65s30 -64 70 -64zM400 -11c-178 0 -301 110 -301 315v424h70v-419c0 -164 87 -257 233 -257c140 0 229 85 229 252v424h70
v-418c0 -211 -122 -321 -301 -321z" />
    <glyph glyph-name="uring" unicode="&#x16f;" horiz-adv-x="649" 
d="M319 606c-61 0 -111 48 -111 106c0 59 50 107 111 107s111 -48 111 -107c0 -58 -50 -106 -111 -106zM319 640c39 0 72 33 72 72c0 40 -33 73 -72 73s-72 -33 -72 -73c0 -39 33 -72 72 -72zM297 -12c-132 0 -209 89 -209 217v329h67v-314c0 -104 58 -171 158 -171
c97 0 171 73 171 178v307h67v-534h-67v96c-35 -60 -93 -108 -187 -108z" />
    <glyph glyph-name="Wacute" unicode="&#x1e82;" horiz-adv-x="1159" 
d="M551 794l101 129l73 -34l-116 -95h-58zM316 -5l-262 733h77l217 -625l206 627h56l205 -627l217 625h73l-261 -733h-59l-205 609l-206 -609h-58z" />
    <glyph glyph-name="wacute" unicode="&#x1e83;" horiz-adv-x="905" 
d="M425 619l95 145l74 -35l-115 -110h-54zM243 -4l-191 538h73l149 -446l152 449h55l152 -449l150 446h70l-191 -538h-58l-151 437l-152 -437h-58z" />
    <glyph glyph-name="Wcircumflex" unicode="&#x174;" horiz-adv-x="1159" 
d="M437 794l111 118h64l111 -118h-67l-77 63l-77 -63h-65zM316 -5l-262 733h77l217 -625l206 627h56l205 -627l217 625h73l-261 -733h-59l-205 609l-206 -609h-58z" />
    <glyph glyph-name="wcircumflex" unicode="&#x175;" horiz-adv-x="905" 
d="M316 619l107 132h58l108 -132h-60l-78 70l-78 -70h-57zM243 -4l-191 538h73l149 -446l152 449h55l152 -449l150 446h70l-191 -538h-58l-151 437l-152 -437h-58z" />
    <glyph glyph-name="Wdieresis" unicode="&#x1e84;" horiz-adv-x="1159" 
d="M441 794v87h88v-87h-88zM631 794v87h87v-87h-87zM316 -5l-262 733h77l217 -625l206 627h56l205 -627l217 625h73l-261 -733h-59l-205 609l-206 -609h-58z" />
    <glyph glyph-name="wdieresis" unicode="&#x1e85;" horiz-adv-x="905" 
d="M322 619v92h84v-92h-84zM498 619v92h84v-92h-84zM243 -4l-191 538h73l149 -446l152 449h55l152 -449l150 446h70l-191 -538h-58l-151 437l-152 -437h-58z" />
    <glyph glyph-name="Wgrave" unicode="&#x1e80;" horiz-adv-x="1159" 
d="M608 794h-58l-116 95l73 34zM316 -5l-262 733h77l217 -625l206 627h56l205 -627l217 625h73l-261 -733h-59l-205 609l-206 -609h-58z" />
    <glyph glyph-name="wgrave" unicode="&#x1e81;" horiz-adv-x="905" 
d="M426 619l-115 110l74 35l95 -145h-54zM243 -4l-191 538h73l149 -446l152 449h55l152 -449l150 446h70l-191 -538h-58l-151 437l-152 -437h-58z" />
    <glyph glyph-name="Yacute" unicode="&#xdd;" horiz-adv-x="755" 
d="M349 790l101 129l73 -34l-116 -95h-58zM342 0v288l-307 440h86l257 -376l259 376h82l-307 -439v-289h-70z" />
    <glyph glyph-name="yacute" unicode="&#xfd;" horiz-adv-x="623" 
d="M288 619l95 145l74 -35l-115 -110h-54zM325 74l180 460h73l-228 -552c-46 -112 -99 -152 -177 -152c-43 0 -75 9 -111 26l23 55c27 -13 51 -20 87 -20c51 0 84 28 120 111l-249 532h75z" />
    <glyph glyph-name="Ycircumflex" unicode="&#x176;" horiz-adv-x="755" 
d="M234 790l111 118h64l111 -118h-67l-77 63l-77 -63h-65zM342 0v288l-307 440h86l257 -376l259 376h82l-307 -439v-289h-70z" />
    <glyph glyph-name="ycircumflex" unicode="&#x177;" horiz-adv-x="623" 
d="M179 619l107 132h58l108 -132h-60l-78 70l-78 -70h-57zM325 74l180 460h73l-228 -552c-46 -112 -99 -152 -177 -152c-43 0 -75 9 -111 26l23 55c27 -13 51 -20 87 -20c51 0 84 28 120 111l-249 532h75z" />
    <glyph glyph-name="Ydieresis" unicode="&#x178;" horiz-adv-x="755" 
d="M239 790v87h88v-87h-88zM429 790v87h87v-87h-87zM342 0v288l-307 440h86l257 -376l259 376h82l-307 -439v-289h-70z" />
    <glyph glyph-name="ydieresis" unicode="&#xff;" horiz-adv-x="623" 
d="M185 619v92h84v-92h-84zM361 619v92h84v-92h-84zM325 74l180 460h73l-228 -552c-46 -112 -99 -152 -177 -152c-43 0 -75 9 -111 26l23 55c27 -13 51 -20 87 -20c51 0 84 28 120 111l-249 532h75z" />
    <glyph glyph-name="Ygrave" unicode="&#x1ef2;" horiz-adv-x="755" 
d="M406 790h-58l-116 95l73 34zM342 0v288l-307 440h86l257 -376l259 376h82l-307 -439v-289h-70z" />
    <glyph glyph-name="ygrave" unicode="&#x1ef3;" horiz-adv-x="623" 
d="M289 619l-115 110l74 35l95 -145h-54zM325 74l180 460h73l-228 -552c-46 -112 -99 -152 -177 -152c-43 0 -75 9 -111 26l23 55c27 -13 51 -20 87 -20c51 0 84 28 120 111l-249 532h75z" />
    <glyph glyph-name="Zacute" unicode="&#x179;" horiz-adv-x="729" 
d="M345 794l101 129l73 -34l-116 -95h-58zM75 0v44l483 621h-466v63h563v-44l-484 -621h484v-63h-580z" />
    <glyph glyph-name="zacute" unicode="&#x17a;" horiz-adv-x="588" 
d="M271 619l95 145l74 -35l-115 -110h-54zM64 0v41l369 435h-355v58h449v-41l-369 -435h369v-58h-463z" />
    <glyph glyph-name="Zcaron" unicode="&#x17d;" horiz-adv-x="729" 
d="M516 912l-111 -118h-64l-111 118h67l77 -63l77 63h65zM75 0v44l483 621h-466v63h563v-44l-484 -621h484v-63h-580z" />
    <glyph glyph-name="zcaron" unicode="&#x17e;" horiz-adv-x="588" 
d="M435 751l-108 -132h-58l-107 132h59l78 -70l78 70h58zM64 0v41l369 435h-355v58h449v-41l-369 -435h369v-58h-463z" />
    <glyph glyph-name="Zdotaccent" unicode="&#x17b;" horiz-adv-x="729" 
d="M328 794v87h90v-87h-90zM75 0v44l483 621h-466v63h563v-44l-484 -621h484v-63h-580z" />
    <glyph glyph-name="zdotaccent" unicode="&#x17c;" horiz-adv-x="588" 
d="M254 619v92h88v-92h-88zM64 0v41l369 435h-355v58h449v-41l-369 -435h369v-58h-463z" />
    <glyph glyph-name="AE" unicode="&#xc6;" horiz-adv-x="1097" 
d="M251 261h266v405h-26zM24 0l434 728h565v-64h-436v-265h389v-64h-389v-271h441v-64h-511v198h-302l-117 -198h-74z" />
    <glyph glyph-name="ae" unicode="&#xe6;" horiz-adv-x="1002" 
d="M512 295h364c-8 102 -66 193 -180 193c-99 0 -174 -82 -184 -193zM257 -12c-101 0 -201 57 -201 167v2c0 112 93 173 226 173c67 0 113 -9 162 -23v21c0 101 -58 154 -160 154c-62 0 -109 -17 -159 -41l-21 56c59 28 111 45 186 45c103 0 173 -41 199 -123
c42 77 119 128 210 128c153 0 246 -125 246 -282c0 -10 0 -14 -1 -24h-432c10 -123 98 -194 197 -194c78 0 132 34 175 80l44 -39c-54 -59 -119 -100 -221 -100c-87 0 -166 41 -214 111c-56 -61 -134 -111 -236 -111zM264 45c84 0 151 43 202 103c-13 32 -21 68 -23 107
c-42 10 -95 22 -158 22c-103 0 -160 -46 -160 -116v-3c0 -71 63 -113 139 -113z" />
    <glyph glyph-name="AEacute" unicode="&#x1fc;" horiz-adv-x="1097" 
d="M633 794l101 129l73 -34l-116 -95h-58zM251 261h266v405h-26zM24 0l434 728h565v-64h-436v-265h389v-64h-389v-271h441v-64h-511v198h-302l-117 -198h-74z" />
    <glyph glyph-name="aeacute" unicode="&#x1fd;" horiz-adv-x="1002" 
d="M473 619l95 145l74 -35l-115 -110h-54zM512 295h364c-8 102 -66 193 -180 193c-99 0 -174 -82 -184 -193zM257 -12c-101 0 -201 57 -201 167v2c0 112 93 173 226 173c67 0 113 -9 162 -23v21c0 101 -58 154 -160 154c-62 0 -109 -17 -159 -41l-21 56c59 28 111 45 186 45
c103 0 173 -41 199 -123c42 77 119 128 210 128c153 0 246 -125 246 -282c0 -10 0 -14 -1 -24h-432c10 -123 98 -194 197 -194c78 0 132 34 175 80l44 -39c-54 -59 -119 -100 -221 -100c-87 0 -166 41 -214 111c-56 -61 -134 -111 -236 -111zM264 45c84 0 151 43 202 103
c-13 32 -21 68 -23 107c-42 10 -95 22 -158 22c-103 0 -160 -46 -160 -116v-3c0 -71 63 -113 139 -113z" />
    <glyph glyph-name="OE" unicode="&#x152;" horiz-adv-x="1196" 
d="M465 0c-229 0 -387 157 -387 362v2c0 205 158 364 387 364h657v-64h-436v-265h389v-64h-389v-271h441v-64h-662zM465 64h151v600h-151c-192 0 -314 -131 -314 -298v-2c0 -166 122 -300 314 -300z" />
    <glyph glyph-name="oe" unicode="&#x153;" horiz-adv-x="1104" 
d="M336 -12c-155 0 -273 127 -273 277v2c0 151 119 280 276 280c108 0 196 -63 238 -152c40 91 123 152 224 152c153 0 247 -125 247 -282c0 -10 -1 -14 -2 -24h-432c11 -123 98 -194 197 -194c78 0 132 34 175 80l44 -39c-54 -59 -119 -100 -219 -100
c-101 0 -191 58 -234 153c-42 -90 -131 -153 -241 -153zM614 295h364c-8 102 -66 193 -180 193c-99 0 -174 -82 -184 -193zM340 49c120 0 205 98 205 216v2c0 121 -90 219 -207 219c-120 0 -205 -99 -205 -217v-2c0 -121 90 -218 207 -218z" />
    <glyph glyph-name="Eth" unicode="&#xd0;" horiz-adv-x="854" 
d="M141 0v337h-78v59h78v332h249c229 0 387 -157 387 -362v-2c0 -205 -158 -364 -387 -364h-249zM440 337h-229v-273h179c192 0 314 131 314 298v2c0 166 -122 300 -314 300h-179v-268h229v-59z" />
    <glyph glyph-name="eth" unicode="&#xf0;" horiz-adv-x="679" 
d="M510 718l-91 -41c112 -108 196 -234 196 -383v-2c0 -179 -113 -304 -280 -304c-153 0 -272 126 -272 280v2c0 158 122 264 254 264c90 0 151 -39 196 -81c-29 63 -84 131 -154 197l-118 -53l-23 44l100 45c-28 25 -59 49 -90 73h99l53 -45l106 48zM340 49
c119 0 205 94 205 217v2c0 118 -88 208 -214 208c-119 0 -198 -91 -198 -210v-2c0 -117 89 -215 207 -215z" />
    <glyph glyph-name="Thorn" unicode="&#xde;" horiz-adv-x="710" 
d="M110 0v728h70v-128h199c162 0 272 -85 272 -227v-2c0 -155 -132 -237 -286 -237h-185v-134h-70zM180 198h189c127 0 212 68 212 170v2c0 109 -84 166 -207 166h-194v-338z" />
    <glyph glyph-name="thorn" unicode="&#xfe;" horiz-adv-x="699" 
d="M366 50c109 0 197 80 197 215v2c0 133 -91 218 -197 218c-105 0 -204 -88 -204 -217v-2c0 -129 99 -216 204 -216zM98 -166v925h67v-337c45 67 110 125 212 125c128 0 257 -103 257 -278v-2c0 -175 -129 -279 -257 -279c-103 0 -169 57 -212 120v-274h-67z" />
    <glyph glyph-name="uni018F" unicode="&#x18f;" horiz-adv-x="839" 
d="M102 601c78 88 179 139 306 139c210 0 353 -157 353 -375v-3c0 -210 -147 -374 -347 -374c-213 0 -337 168 -337 378v1c0 13 0 18 1 30h610c-12 158 -117 280 -280 280c-100 0 -185 -40 -258 -122zM414 52c157 0 262 119 274 283h-538c9 -168 113 -283 264 -283z" />
    <glyph glyph-name="schwa" unicode="&#x259;" horiz-adv-x="622" 
d="M294 547c144 0 265 -112 265 -278v-2c0 -155 -109 -279 -255 -279c-155 0 -248 124 -248 281c0 10 0 15 1 24h433c-11 123 -99 194 -198 194c-77 0 -131 -33 -175 -79l-43 38c53 60 119 101 220 101zM490 239h-364c8 -101 66 -192 180 -192c99 0 174 82 184 192z" />
    <glyph glyph-name="germandbls" unicode="&#xdf;" horiz-adv-x="655" 
d="M307 -2v56c130 3 210 51 210 143v2c0 88 -82 137 -210 151v51c94 32 164 85 164 174v3c0 75 -59 128 -144 128c-94 0 -162 -72 -162 -185v-521h-67v520c0 146 90 246 233 246c128 0 210 -81 210 -184v-3c0 -99 -76 -163 -153 -193c104 -20 199 -75 199 -186v-2
c0 -127 -108 -201 -280 -200z" />
    <glyph glyph-name="uni0386" unicode="&#x386;" horiz-adv-x="832" 
d="M112 548l18 180h78l-57 -180h-39zM237 261h355l-177 393zM48 0l335 733h66l335 -733h-76l-88 198h-411l-89 -198h-72z" />
    <glyph glyph-name="uni0388" unicode="&#x388;" horiz-adv-x="707" 
d="M110 0v728h523v-64h-453v-265h406v-64h-406v-271h458v-64h-528zM-50 548l18 180h78l-57 -180h-39z" />
    <glyph glyph-name="uni0389" unicode="&#x389;" horiz-adv-x="800" 
d="M-50 548l18 180h78l-57 -180h-39zM110 0v728h70v-330h440v330h70v-728h-70v334h-440v-334h-70z" />
    <glyph glyph-name="uni038A" unicode="&#x38a;" horiz-adv-x="305" 
d="M-49 548l18 180h78l-57 -180h-39zM117 0v728h70v-728h-70z" />
    <glyph glyph-name="uni038C" unicode="&#x38c;" horiz-adv-x="894" 
d="M446 -12c-221 0 -368 174 -368 374v2c0 200 149 376 370 376s368 -174 368 -374v-2c0 -200 -149 -376 -370 -376zM-11 548l18 180h78l-57 -180h-39zM448 51c172 0 295 139 295 311v2c0 172 -125 313 -297 313s-295 -139 -295 -311v-2c0 -172 125 -313 297 -313z" />
    <glyph glyph-name="uni038E" unicode="&#x38e;" horiz-adv-x="755" 
d="M-102 548l18 180h78l-57 -180h-39zM342 0v288l-307 440h86l257 -376l259 376h82l-307 -439v-289h-70z" />
    <glyph glyph-name="uni038F" unicode="&#x38f;" horiz-adv-x="913" 
d="M-11 548l18 180h78l-57 -180h-39zM457 740c216 0 360 -150 360 -348v-1c0 -138 -71 -243 -196 -330l221 2v-63h-310v59c126 83 212 172 212 329v1c0 168 -116 289 -288 288c-171 0 -287 -119 -287 -288v-1c0 -150 84 -245 212 -329v-59h-310v63l220 -2
c-122 87 -195 188 -195 331v1c0 191 143 348 361 347z" />
    <glyph glyph-name="uni0386.calt" horiz-adv-x="832" 
d="M237 261h355l-177 393zM48 0l335 733h66l335 -733h-76l-88 198h-411l-89 -198h-72z" />
    <glyph glyph-name="uni0388.calt" horiz-adv-x="707" 
d="M110 0v728h523v-64h-453v-265h406v-64h-406v-271h458v-64h-528z" />
    <glyph glyph-name="uni0389.calt" horiz-adv-x="800" 
d="M110 0v728h70v-330h440v330h70v-728h-70v334h-440v-334h-70z" />
    <glyph glyph-name="uni038A.calt" horiz-adv-x="305" 
d="M117 0v728h70v-728h-70z" />
    <glyph glyph-name="uni038C.calt" horiz-adv-x="894" 
d="M446 -12c-221 0 -368 174 -368 374v2c0 200 149 376 370 376s368 -174 368 -374v-2c0 -200 -149 -376 -370 -376zM448 51c172 0 295 139 295 311v2c0 172 -125 313 -297 313s-295 -139 -295 -311v-2c0 -172 125 -313 297 -313z" />
    <glyph glyph-name="uni038E.calt" horiz-adv-x="755" 
d="M342 0v288l-307 440h86l257 -376l259 376h82l-307 -439v-289h-70z" />
    <glyph glyph-name="uni038F.calt" horiz-adv-x="913" 
d="M457 740c216 0 360 -150 360 -348v-1c0 -138 -71 -243 -196 -330l221 2v-63h-310v59c126 83 212 172 212 329v1c0 168 -116 289 -288 288c-171 0 -287 -119 -287 -288v-1c0 -150 84 -245 212 -329v-59h-310v63l220 -2c-122 87 -195 188 -195 331v1c0 191 143 348 361 347
z" />
    <glyph glyph-name="uni0399.calt" horiz-adv-x="305" 
d="M14 794v87h88v-87h-88zM204 794v87h87v-87h-87zM117 0v728h70v-728h-70z" />
    <glyph glyph-name="uni03A5.calt" horiz-adv-x="755" 
d="M239 790v87h88v-87h-88zM429 790v87h87v-87h-87zM342 0v288l-307 440h86l257 -376l259 376h82l-307 -439v-289h-70z" />
    <glyph glyph-name="uni03AA" unicode="&#x3aa;" horiz-adv-x="305" 
d="M14 794v87h88v-87h-88zM204 794v87h87v-87h-87zM117 0v728h70v-728h-70z" />
    <glyph glyph-name="uni03AB" unicode="&#x3ab;" horiz-adv-x="755" 
d="M239 790v87h88v-87h-88zM429 790v87h87v-87h-87zM342 0v288l-307 440h86l257 -376l259 376h82l-307 -439v-289h-70z" />
    <glyph glyph-name="uni03AC" unicode="&#x3ac;" horiz-adv-x="738" 
d="M324 619l65 155l75 -31l-91 -124h-49zM333 50c104 0 204 87 204 216v2c0 130 -100 217 -204 217c-109 0 -198 -81 -198 -216v-2c0 -132 92 -217 198 -217zM714 56v-58c-15 -3 -29 -6 -52 -6c-78 0 -120 38 -126 115c-45 -65 -115 -119 -213 -119
c-129 0 -258 103 -258 277v2c0 175 129 280 257 280c103 0 169 -57 212 -121v108h67v-402c0 -54 23 -81 73 -81c16 0 29 2 40 5z" />
    <glyph glyph-name="uni03AD" unicode="&#x3ad;" horiz-adv-x="587" 
d="M271 619l65 155l75 -31l-91 -124h-49zM415 242h-120c-112 0 -161 -43 -161 -94v-1c0 -59 63 -100 169 -100c76 0 144 22 205 59l32 -50c-70 -44 -148 -68 -239 -68c-157 0 -236 67 -236 154v1c0 70 56 113 119 128c-58 18 -104 53 -104 124v2c0 80 77 149 224 149
c98 0 168 -28 229 -69l-36 -51c-51 36 -117 62 -193 62c-102 0 -155 -44 -155 -97v-1c0 -59 53 -91 145 -91h121v-57z" />
    <glyph glyph-name="uni03AE" unicode="&#x3ae;" horiz-adv-x="649" 
d="M297 619l65 155l75 -31l-91 -124h-49zM561 -166h-67v480c0 105 -58 171 -158 171c-97 0 -171 -73 -171 -178v-307h-67v534h67v-95c35 60 93 108 187 108c132 0 209 -90 209 -217v-496z" />
    <glyph glyph-name="uni03AF" unicode="&#x3af;" horiz-adv-x="302" 
d="M100 619l65 155l75 -31l-91 -124h-49zM96 130v404h67v-402c0 -54 23 -81 72 -81c16 0 30 2 41 5v-58c-15 -3 -30 -6 -52 -6c-85 0 -128 46 -128 138z" />
    <glyph glyph-name="uni03CC" unicode="&#x3cc;" horiz-adv-x="679" 
d="M308 619l65 155l75 -31l-91 -124h-49zM339 -12c-160 0 -276 127 -276 277v2c0 151 117 280 278 280c159 0 276 -127 276 -278v-2c0 -150 -118 -279 -278 -279zM341 49c120 0 205 98 205 216v2c0 121 -90 219 -207 219c-121 0 -206 -98 -206 -217v-2
c0 -121 90 -218 208 -218z" />
    <glyph glyph-name="uni03CD" unicode="&#x3cd;" horiz-adv-x="652" 
d="M294 619l65 155l75 -31l-91 -124h-49zM325 -12c-141 0 -235 82 -235 238v308h67v-305c0 -123 68 -181 169 -181s169 57 169 180v306h67v-306c0 -157 -94 -240 -237 -240z" />
    <glyph glyph-name="uni03CE" unicode="&#x3ce;" horiz-adv-x="926" 
d="M431 619l65 155l75 -31l-91 -124h-49zM430 432h66v-155c0 -134 49 -229 151 -229c83 0 140 71 140 192c0 123 -62 218 -132 294h81c60 -68 119 -168 119 -295c0 -158 -83 -251 -204 -251c-106 0 -166 74 -189 157c-22 -82 -81 -157 -189 -157c-121 0 -202 91 -202 251
c0 127 61 227 119 295h80c-71 -75 -131 -171 -131 -294c0 -119 58 -192 137 -192c105 0 154 95 154 229v155z" />
    <glyph glyph-name="uni03CA" unicode="&#x3ca;" horiz-adv-x="302" 
d="M1 619v92h84v-92h-84zM177 619v92h84v-92h-84zM96 130v404h67v-402c0 -54 23 -81 72 -81c16 0 30 2 41 5v-58c-15 -3 -30 -6 -52 -6c-85 0 -128 46 -128 138z" />
    <glyph glyph-name="uni03CB" unicode="&#x3cb;" horiz-adv-x="652" 
d="M196 619v92h84v-92h-84zM372 619v92h84v-92h-84zM325 -12c-141 0 -235 82 -235 238v308h67v-305c0 -123 68 -181 169 -181s169 57 169 180v306h67v-306c0 -157 -94 -240 -237 -240z" />
    <glyph glyph-name="uni0390" unicode="&#x390;" horiz-adv-x="302" 
d="M100 619l40 173l75 -18l-68 -155h-47zM-20 619v91h81v-91h-81zM227 619v91h81v-91h-81zM96 130v404h67v-402c0 -54 23 -81 72 -81c16 0 30 2 41 5v-58c-15 -3 -30 -6 -52 -6c-85 0 -128 46 -128 138z" />
    <glyph glyph-name="uni03B0" unicode="&#x3b0;" horiz-adv-x="652" 
d="M282 619l40 173l75 -18l-68 -155h-47zM162 619v91h81v-91h-81zM409 619v91h81v-91h-81zM325 -12c-141 0 -235 82 -235 238v308h67v-305c0 -123 68 -181 169 -181s169 57 169 180v306h67v-306c0 -157 -94 -240 -237 -240z" />
    <glyph glyph-name="uni0462" unicode="&#x462;" horiz-adv-x="890" 
d="M585 394c158 0 250 -70 250 -193v-2c0 -122 -105 -199 -254 -199h-287v556h-244v62h244v125h70v-125h270v-62h-270v-162h221zM583 331h-219v-268h219c113 0 182 54 182 135v1c0 86 -59 132 -182 132z" />
    <glyph glyph-name="uni0472" unicode="&#x472;" horiz-adv-x="893" 
d="M445 -12c-220 0 -367 174 -367 374v2c0 200 149 376 370 376c220 0 367 -174 367 -374v-2c0 -200 -149 -376 -370 -376zM445 678c-162 0 -281 -122 -295 -280h593c-15 157 -136 280 -298 280zM448 50c163 0 284 124 296 284h-594c13 -160 135 -284 298 -284z" />
    <glyph glyph-name="uni0474" unicode="&#x474;" horiz-adv-x="829" 
d="M363 -5l-315 733h77l271 -646l195 474c55 137 114 175 215 175h11v-63h-6c-73 0 -116 -33 -159 -134l-227 -539h-62z" />
    <glyph glyph-name="uni0490" unicode="&#x490;" horiz-adv-x="649" 
d="M110 728h420v146h68v-210h-418v-664h-70v728z" />
    <glyph glyph-name="uni0404" unicode="&#x404;" horiz-adv-x="783" 
d="M441 -12c-209 0 -363 165 -363 374v2c0 206 153 376 367 376c131 0 209 -47 283 -115l-47 -51c-62 61 -133 103 -236 103c-159 0 -280 -120 -294 -279h415v-62h-415c12 -163 134 -285 293 -285c102 0 171 38 241 109l46 -45c-76 -77 -160 -127 -290 -127z" />
    <glyph glyph-name="uni0406" unicode="&#x406;" horiz-adv-x="305" 
d="M117 0v728h70v-728h-70z" />
    <glyph glyph-name="uni0407" unicode="&#x407;" horiz-adv-x="305" 
d="M14 794v87h88v-87h-88zM204 794v87h87v-87h-87zM117 0v728h70v-728h-70z" />
    <glyph glyph-name="uni0402" unicode="&#x402;" horiz-adv-x="888" 
d="M614 728v-65h-255v-237c70 21 138 29 198 29c180 0 275 -87 275 -228c0 -139 -103 -229 -276 -229h-22v63h17c143 0 210 64 210 165c0 99 -60 166 -210 166c-59 0 -118 -8 -192 -29v-363h-70v663h-239v65h564z" />
    <glyph glyph-name="uni0408" unicode="&#x408;" horiz-adv-x="583" 
d="M263 -10c-109 0 -178 55 -223 132l53 41c44 -72 92 -110 172 -110c85 0 149 63 149 184v491h71v-489c0 -84 -26 -149 -67 -190c-40 -39 -94 -59 -155 -59z" />
    <glyph glyph-name="uni0409" unicode="&#x409;" horiz-adv-x="1073" 
d="M488 0v669h-4l-383 -669h-75l418 728h114v-269h188c161 0 272 -81 272 -224v-2c0 -152 -128 -233 -285 -233h-245zM558 64h178c126 0 212 65 212 166v2c0 107 -83 164 -206 164h-184v-332z" />
    <glyph glyph-name="uni040A" unicode="&#x40a;" horiz-adv-x="1195" 
d="M680 64h178c126 0 212 65 212 166v2c0 107 -84 164 -207 164h-183v-332zM610 0v334h-430v-334h-70v728h70v-330h430v330h70v-269h187c162 0 273 -81 273 -224v-2c0 -152 -129 -233 -285 -233h-245z" />
    <glyph glyph-name="uni040B" unicode="&#x40b;" horiz-adv-x="924" 
d="M614 728v-65h-255v-237c69 20 144 31 202 31c171 0 272 -69 272 -243v-214h-70v201c0 139 -67 192 -208 192c-56 0 -125 -9 -196 -31v-362h-70v663h-239v65h564z" />
    <glyph glyph-name="uni040F" unicode="&#x40f;" horiz-adv-x="807" 
d="M366 -153v153h-256v728h70v-664h440v664h70v-728h-256v-153h-68z" />
    <glyph glyph-name="uni040E" unicode="&#x40e;" horiz-adv-x="745" 
d="M386 788c-82 0 -141 41 -147 112h55c12 -34 41 -54 92 -54s80 20 92 54h55c-6 -71 -65 -112 -147 -112zM279 0h-78l153 252l-313 476h81l270 -416l241 416h79z" />
    <glyph glyph-name="uni0403" unicode="&#x403;" horiz-adv-x="649" 
d="M307 794l101 129l73 -34l-116 -95h-58zM110 0v728h488v-64h-418v-664h-70z" />
    <glyph glyph-name="uni0405" unicode="&#x405;" horiz-adv-x="676" 
d="M358 -10c-115 0 -208 38 -295 116l44 52c78 -71 151 -106 255 -106c102 0 172 56 172 134v2c0 71 -38 112 -197 145c-171 36 -245 92 -245 208v2c0 112 100 195 237 195c106 0 179 -29 253 -89l-42 -54c-68 57 -136 81 -213 81c-100 0 -165 -57 -165 -127v-2
c0 -72 38 -114 204 -149c165 -35 238 -94 238 -204v-2c0 -121 -103 -202 -246 -202z" />
    <glyph glyph-name="uni040C" unicode="&#x40c;" horiz-adv-x="758" 
d="M343 790l101 129l73 -34l-116 -95h-58zM110 0v728h70v-323h130l312 323h91l-344 -351l360 -377h-95l-322 341h-132v-341h-70z" />
    <glyph glyph-name="uni0400" unicode="&#x400;" horiz-adv-x="707" 
d="M402 794h-58l-116 95l73 34zM110 0v728h523v-64h-453v-265h406v-64h-406v-271h458v-64h-528z" />
    <glyph glyph-name="uni040D" unicode="&#x40d;" horiz-adv-x="832" 
d="M444 790h-58l-116 95l73 34zM722 0h-70v621l-486 -621h-56v728h70v-607l475 607h67v-728z" />
    <glyph glyph-name="uni0492" unicode="&#x492;" horiz-adv-x="681" 
d="M141 0v326h-78v59h78v343h488v-64h-418v-279h204v-59h-204v-326h-70z" />
    <glyph glyph-name="uni0496" unicode="&#x496;" horiz-adv-x="1121" 
d="M1070 728l-322 -351l273 -313h81v-217h-68v153h-43l-300 342h-103v-342h-69v342h-107l-298 -342h-84l329 377l-322 351h87l294 -323h101v323h69v-323h101l294 323h87z" />
    <glyph glyph-name="uni0498" unicode="&#x498;" horiz-adv-x="691" 
d="M100 583l-42 47c63 57 153 110 285 110c152 0 258 -77 258 -193v-1c0 -83 -52 -149 -150 -176c99 -21 166 -84 166 -173v-2c0 -111 -97 -195 -251 -206l1 -142h-68l1 142c-109 7 -190 47 -252 99l41 51c64 -51 139 -89 244 -89c126 0 212 62 212 146v2
c0 90 -84 138 -219 138h-123v61h124c114 0 202 48 202 143v2c0 80 -73 136 -187 136c-104 0 -181 -43 -242 -95z" />
    <glyph glyph-name="uni049A" unicode="&#x49a;" horiz-adv-x="769" 
d="M110 0v728h70v-323h130l312 323h91l-344 -351l299 -313h82v-217h-68v153h-48l-322 341h-132v-341h-70z" />
    <glyph glyph-name="uni049C" unicode="&#x49c;" horiz-adv-x="785" 
d="M738 728l-293 -352l306 -376h-88l-273 336h-8l1 -231h-58v231h-145v-336h-70v728h70v-329h145v235h58l-1 -235h2l267 329h87z" />
    <glyph glyph-name="uni04A0" unicode="&#x4a0;" horiz-adv-x="942" 
d="M50 664v64h315v-323h130l312 323h91l-344 -351l360 -377h-95l-322 341h-132v-341h-70v664h-245z" />
    <glyph glyph-name="uni04A2" unicode="&#x4a2;" horiz-adv-x="813" 
d="M110 0v728h70v-330h440v330h70v-664h72v-217h-68v153h-74v334h-440v-334h-70z" />
    <glyph glyph-name="uni04A4" unicode="&#x4a4;" horiz-adv-x="1075" 
d="M573 0v334h-430v-334h-70v728h70v-330h430v330h450v-64h-380v-664h-70z" />
    <glyph glyph-name="uni04AA" unicode="&#x4aa;" horiz-adv-x="782" 
d="M405 -153l1 143c-190 17 -328 175 -328 372v2c0 206 154 376 366 376c131 0 210 -47 284 -115l-48 -52c-63 60 -133 104 -237 104c-167 0 -292 -137 -292 -311v-2c0 -175 127 -313 293 -313c102 0 170 40 242 109l46 -45c-71 -71 -147 -119 -261 -126l2 -142h-68z" />
    <glyph glyph-name="uni04AE" unicode="&#x4ae;" horiz-adv-x="755" 
d="M342 0v288l-307 440h86l257 -376l259 376h82l-307 -439v-289h-70z" />
    <glyph glyph-name="uni04B0" unicode="&#x4b0;" horiz-adv-x="755" 
d="M342 0v238h-195v59h188l-300 431h86l257 -376l259 376h82l-302 -431h189v-59h-194v-238h-70z" />
    <glyph glyph-name="uni04B2" unicode="&#x4b2;" horiz-adv-x="773" 
d="M616 728h81l-273 -357l235 -307h79v-217h-68v153h-45l-245 324l-244 -324h-81l284 371l-274 357h83l234 -310z" />
    <glyph glyph-name="uni04B6" unicode="&#x4b6;" horiz-adv-x="759" 
d="M566 0v293c-67 -20 -145 -30 -203 -30c-170 0 -272 69 -272 243v222h70v-209c0 -140 67 -192 208 -192c57 0 130 10 197 31v370h70v-664h72v-217h-68v153h-74z" />
    <glyph glyph-name="uni04B8" unicode="&#x4b8;" horiz-adv-x="741" 
d="M561 0v293c-55 -17 -117 -26 -170 -29l1 -176h-59l1 175c-156 6 -248 77 -248 243v222h70v-209c0 -130 57 -184 178 -191l-1 234h59l-1 -235c52 3 112 13 170 31v370h70v-728h-70z" />
    <glyph glyph-name="uni04BA" unicode="&#x4ba;" horiz-adv-x="741" 
d="M169 728v-294c67 20 145 31 204 31c170 0 271 -69 271 -243v-222h-70v209c0 140 -66 192 -207 192c-59 0 -131 -11 -198 -32v-369h-70v728h70z" />
    <glyph glyph-name="uni04C0" unicode="&#x4c0;" horiz-adv-x="305" 
d="M117 0v728h70v-728h-70z" />
    <glyph glyph-name="uni04C1" unicode="&#x4c1;" horiz-adv-x="1107" 
d="M554 792c-82 0 -141 41 -147 112h55c12 -34 41 -54 92 -54s80 20 92 54h55c-6 -71 -65 -112 -147 -112zM37 728h87l294 -323h101v323h69v-323h101l294 323h87l-322 -351l329 -377h-86l-300 342h-103v-342h-69v342h-107l-298 -342h-84l329 377z" />
    <glyph glyph-name="uni04D0" unicode="&#x4d0;" horiz-adv-x="832" 
d="M416 802c-82 0 -141 41 -147 112h55c12 -34 41 -54 92 -54s80 20 92 54h55c-6 -71 -65 -112 -147 -112zM237 261h355l-177 393zM48 0l335 733h66l335 -733h-76l-88 198h-411l-89 -198h-72z" />
    <glyph glyph-name="uni04D2" unicode="&#x4d2;" horiz-adv-x="832" 
d="M278 804v87h88v-87h-88zM468 804v87h87v-87h-87zM237 261h355l-177 393zM48 0l335 733h66l335 -733h-76l-88 198h-411l-89 -198h-72z" />
    <glyph glyph-name="uni04D4" unicode="&#x4d4;" horiz-adv-x="1097" 
d="M251 261h266v405h-26zM24 0l434 728h565v-64h-436v-265h389v-64h-389v-271h441v-64h-511v198h-302l-117 -198h-74z" />
    <glyph glyph-name="uni04D6" unicode="&#x4d6;" horiz-adv-x="707" 
d="M373 792c-82 0 -141 41 -147 112h55c12 -34 41 -54 92 -54s80 20 92 54h55c-6 -71 -65 -112 -147 -112zM110 0v728h523v-64h-453v-265h406v-64h-406v-271h458v-64h-528z" />
    <glyph glyph-name="uni04D8" unicode="&#x4d8;" horiz-adv-x="839" 
d="M102 601c78 88 179 139 306 139c210 0 353 -157 353 -375v-3c0 -210 -147 -374 -347 -374c-213 0 -337 168 -337 378v1c0 13 0 18 1 30h610c-12 158 -117 280 -280 280c-100 0 -185 -40 -258 -122zM414 52c157 0 262 119 274 283h-538c9 -168 113 -283 264 -283z" />
    <glyph glyph-name="uni04DC" unicode="&#x4dc;" horiz-adv-x="1107" 
d="M415 794v87h88v-87h-88zM605 794v87h87v-87h-87zM37 728h87l294 -323h101v323h69v-323h101l294 323h87l-322 -351l329 -377h-86l-300 342h-103v-342h-69v342h-107l-298 -342h-84l329 377z" />
    <glyph glyph-name="uni04DE" unicode="&#x4de;" horiz-adv-x="691" 
d="M201 803v87h88v-87h-88zM391 803v87h87v-87h-87zM100 583l-42 47c63 57 153 110 285 110c152 0 258 -77 258 -193v-1c0 -83 -52 -149 -150 -176c99 -21 166 -84 166 -173v-2c0 -118 -110 -207 -284 -207c-126 0 -217 43 -285 100l41 51c64 -51 139 -89 244 -89
c126 0 212 62 212 146v2c0 90 -84 138 -219 138h-123v61h124c114 0 202 48 202 143v2c0 80 -73 136 -187 136c-104 0 -181 -43 -242 -95z" />
    <glyph glyph-name="uni04E2" unicode="&#x4e2;" horiz-adv-x="832" 
d="M249 814v60h334v-60h-334zM722 0h-70v621l-486 -621h-56v728h70v-607l475 607h67v-728z" />
    <glyph glyph-name="uni04E4" unicode="&#x4e4;" horiz-adv-x="832" 
d="M278 790v87h88v-87h-88zM468 790v87h87v-87h-87zM722 0h-70v621l-486 -621h-56v728h70v-607l475 607h67v-728z" />
    <glyph glyph-name="uni04E6" unicode="&#x4e6;" horiz-adv-x="894" 
d="M309 804v87h88v-87h-88zM499 804v87h87v-87h-87zM446 -12c-221 0 -368 174 -368 374v2c0 200 149 376 370 376s368 -174 368 -374v-2c0 -200 -149 -376 -370 -376zM448 51c172 0 295 139 295 311v2c0 172 -125 313 -297 313s-295 -139 -295 -311v-2
c0 -172 125 -313 297 -313z" />
    <glyph glyph-name="uni04E8" unicode="&#x4e8;" horiz-adv-x="893" 
d="M445 -12c-220 0 -367 174 -367 374v2c0 200 149 376 370 376c220 0 367 -174 367 -374v-2c0 -200 -149 -376 -370 -376zM445 678c-162 0 -281 -122 -295 -280h593c-15 157 -136 280 -298 280zM448 50c163 0 284 124 296 284h-594c13 -160 135 -284 298 -284z" />
    <glyph glyph-name="uni04EE" unicode="&#x4ee;" horiz-adv-x="745" 
d="M219 814v60h334v-60h-334zM279 0h-78l153 252l-313 476h81l270 -416l241 416h79z" />
    <glyph glyph-name="uni04F0" unicode="&#x4f0;" horiz-adv-x="745" 
d="M247 790v87h88v-87h-88zM437 790v87h87v-87h-87zM279 0h-78l153 252l-313 476h81l270 -416l241 416h79z" />
    <glyph glyph-name="uni04F2" unicode="&#x4f2;" horiz-adv-x="745" 
d="M424 790l101 129l72 -34l-115 -95h-58zM271 790l101 129l72 -34l-116 -95h-57zM279 0h-78l153 252l-313 476h81l270 -416l241 416h79z" />
    <glyph glyph-name="uni04F4" unicode="&#x4f4;" horiz-adv-x="746" 
d="M225 790v87h88v-87h-88zM415 790v87h87v-87h-87zM566 0v293c-67 -20 -145 -30 -203 -30c-170 0 -272 69 -272 243v222h70v-209c0 -140 67 -192 208 -192c57 0 130 10 197 31v370h70v-728h-70z" />
    <glyph glyph-name="uni04F8" unicode="&#x4f8;" horiz-adv-x="976" 
d="M349 790v87h88v-87h-88zM539 790v87h87v-87h-87zM796 0v728h70v-728h-70zM110 0v728h70v-269h198c161 0 273 -81 273 -224v-2c0 -152 -129 -233 -285 -233h-256zM180 64h189c126 0 212 65 212 166v2c0 107 -84 164 -207 164h-194v-332z" />
    <glyph glyph-name="uni0431.srb" horiz-adv-x="666" 
d="M547 759v-60l-293 1c-41 0 -60 -17 -60 -40c0 -24 16 -39 62 -65l192 -108c91 -49 156 -124 156 -236v-1c0 -140 -109 -263 -274 -262c-158 0 -269 113 -269 257v1c0 134 101 247 254 253l-89 52c-76 44 -99 71 -99 118c0 49 39 90 128 90h292zM332 48
c120 0 202 88 202 203v1c0 113 -85 199 -200 198c-121 0 -203 -91 -203 -205v-1c0 -111 83 -197 201 -196z" />
    <glyph glyph-name="uni0463" unicode="&#x463;" horiz-adv-x="712" 
d="M280 339h177c129 0 206 -66 206 -168v-3c0 -100 -76 -168 -208 -168h-242v475h-184v59h184v225h67v-225h224v-59h-224v-136zM279 281v-223h176c94 0 139 43 139 111v1c0 68 -45 111 -139 111h-176z" />
    <glyph glyph-name="uni0473" unicode="&#x473;" horiz-adv-x="678" 
d="M338 -12c-159 0 -275 127 -275 277v2c0 151 117 280 277 280c159 0 276 -127 276 -278v-2c0 -150 -118 -279 -278 -279zM338 487c-112 0 -194 -83 -207 -189h416c-14 107 -101 189 -209 189zM340 47c113 0 197 85 208 194h-417c12 -111 100 -194 209 -194z" />
    <glyph glyph-name="uni0475" unicode="&#x475;" horiz-adv-x="627" 
d="M269 -4l-225 538h76l179 -458l125 307c48 121 98 155 180 155h7v-60h-1c-51 0 -85 -21 -125 -114l-157 -368h-59z" />
    <glyph glyph-name="uni0491" unicode="&#x491;" horiz-adv-x="519" 
d="M98 0v534h322v139h63v-200h-318v-473h-67z" />
    <glyph glyph-name="uni0454" unicode="&#x454;" horiz-adv-x="606" 
d="M551 458l-41 -49c-47 45 -98 77 -173 77c-108 0 -193 -78 -204 -186h299v-58h-300c9 -113 97 -194 208 -194c72 0 130 31 176 79l41 -43c-56 -59 -122 -96 -221 -96c-156 0 -273 123 -273 277v2c0 154 118 280 274 280c100 0 163 -38 214 -89z" />
    <glyph glyph-name="uni0456" unicode="&#x456;" horiz-adv-x="277" 
d="M99 661v81h79v-81h-79zM105 0v534h67v-534h-67z" />
    <glyph glyph-name="uni0457" unicode="&#x457;" horiz-adv-x="277" 
d="M8 619v92h84v-92h-84zM184 619v92h84v-92h-84zM105 0v534h67v-534h-67z" />
    <glyph glyph-name="uni0452" unicode="&#x452;" horiz-adv-x="629" 
d="M362 599h-197v-168c45 12 107 24 162 24c136 0 217 -58 217 -199v-218c0 -136 -57 -208 -177 -208c-22 0 -41 3 -62 8v59c16 -4 38 -8 56 -8c75 0 116 37 116 151v211c0 102 -51 141 -157 141c-54 0 -105 -9 -155 -23v-369h-67v599h-117v58h117v102h67v-102h197v-58z" />
    <glyph glyph-name="uni0458" unicode="&#x458;" horiz-adv-x="277" 
d="M99 661v81h79v-81h-79zM49 -170c-17 0 -30 2 -47 5v57c13 -3 29 -4 41 -4c37 0 62 23 62 73v573h67v-572c0 -90 -47 -132 -123 -132z" />
    <glyph glyph-name="uni0459" unicode="&#x459;" horiz-adv-x="876" 
d="M387 0v479h-3l-295 -479h-74l329 534h109v-189h165c131 0 209 -67 209 -171v-2c0 -103 -77 -172 -211 -172h-229zM453 59h163c96 0 142 43 142 113v1c0 69 -46 114 -142 114h-163v-228z" />
    <glyph glyph-name="uni045A" unicode="&#x45a;" horiz-adv-x="987" 
d="M564 287v-228h163c96 0 142 43 142 113v1c0 69 -46 114 -142 114h-163zM564 534v-189h165c131 0 209 -67 209 -171v-2c0 -103 -77 -172 -211 -172h-229v239h-333v-239h-67v534h67v-233h333v233h66z" />
    <glyph glyph-name="uni045B" unicode="&#x45b;" horiz-adv-x="629" 
d="M165 759v-102h197v-58h-197v-168c45 12 107 24 162 24c136 0 217 -58 217 -199v-256h-67v251c0 102 -51 141 -157 141c-54 0 -105 -9 -155 -23v-369h-67v599h-117v58h117v102h67z" />
    <glyph glyph-name="uni045F" unicode="&#x45f;" horiz-adv-x="667" 
d="M98 0v534h67v-473h338v473h67v-534h-205v-143h-63v143h-204z" />
    <glyph glyph-name="uni045E" unicode="&#x45e;" horiz-adv-x="623" 
d="M315 617c-82 0 -141 46 -147 124h50c13 -39 43 -66 97 -66s84 27 97 66h50c-6 -78 -65 -124 -147 -124zM325 74l180 460h73l-228 -552c-46 -112 -99 -152 -177 -152c-43 0 -75 9 -111 26l23 55c27 -13 51 -20 87 -20c51 0 84 28 120 111l-249 532h75z" />
    <glyph glyph-name="uni0453" unicode="&#x453;" horiz-adv-x="519" 
d="M245 619l95 145l74 -35l-115 -110h-54zM98 0v534h385v-61h-318v-473h-67z" />
    <glyph glyph-name="uni0455" unicode="&#x455;" horiz-adv-x="528" 
d="M273 -10c-77 0 -162 30 -221 78l36 50c59 -45 123 -69 188 -69c68 0 119 36 119 92v2c0 58 -65 79 -137 99c-85 25 -179 53 -179 149v2c0 90 74 152 179 152c64 0 137 -23 191 -60l-32 -52c-50 32 -108 53 -161 53c-68 0 -112 -36 -112 -85v-2c0 -55 69 -76 143 -97
c84 -25 174 -57 174 -152v-2c0 -99 -83 -158 -188 -158z" />
    <glyph glyph-name="uni045C" unicode="&#x45c;" horiz-adv-x="599" 
d="M275 619l95 145l74 -35l-115 -110h-54zM165 534v-234h107l209 234h84l-237 -261l243 -273h-86l-210 240h-110v-240h-67v534h67z" />
    <glyph glyph-name="uni0450" unicode="&#x450;" horiz-adv-x="622" 
d="M291 619l-115 110l74 35l95 -145h-54zM328 -12c-144 0 -265 112 -265 278v2c0 155 109 279 255 279c154 0 248 -125 248 -282c0 -10 0 -14 -2 -24h-432c11 -123 99 -194 198 -194c77 0 131 34 175 80l43 -39c-54 -59 -119 -100 -220 -100zM132 295h364
c-8 102 -66 193 -180 193c-99 0 -174 -82 -184 -193z" />
    <glyph glyph-name="uni045D" unicode="&#x45d;" horiz-adv-x="673" 
d="M309 619l-115 110l74 35l95 -145h-54zM98 0v534h67v-435l344 435h66v-534h-67v435l-346 -435h-64z" />
    <glyph glyph-name="uni0493" unicode="&#x493;" horiz-adv-x="538" 
d="M117 0v229h-73v53h73v252h385v-61h-318v-191h152v-53h-152v-229h-67z" />
    <glyph glyph-name="uni0497" unicode="&#x497;" horiz-adv-x="915" 
d="M868 534l-231 -263l184 -210h78v-204h-63v143h-44l-208 240h-98v-240h-66v240h-101l-206 -240h-83l238 270l-230 264h83l201 -234h98v234h66v-234h97l202 234h83z" />
    <glyph glyph-name="uni0499" unicode="&#x499;" horiz-adv-x="587" 
d="M48 58l36 52c51 -36 122 -63 200 -63c104 0 167 41 167 101v1c0 59 -62 93 -159 93h-122v57h121c92 0 146 38 146 95v1c0 56 -54 93 -147 93c-66 0 -136 -23 -200 -67l-35 49c66 46 145 77 236 77c135 0 215 -61 215 -148v-2c0 -70 -56 -108 -112 -124
c68 -12 126 -55 126 -128v-1c0 -80 -72 -146 -206 -155l2 -132h-63l1 132c-82 6 -155 32 -206 69z" />
    <glyph glyph-name="uni049B" unicode="&#x49b;" horiz-adv-x="603" 
d="M165 534v-234h107l209 234h84l-237 -261l189 -212h71v-204h-63v143h-40l-210 240h-110v-240h-67v534h67z" />
    <glyph glyph-name="uni049D" unicode="&#x49d;" horiz-adv-x="646" 
d="M607 534l-218 -255l218 -279h-81l-189 245h-28v-164h-52v164h-92v-245h-67v534h67v-232h92v163h52v-163h26l190 232h82z" />
    <glyph glyph-name="uni04A1" unicode="&#x4a1;" horiz-adv-x="714" 
d="M280 534v-234h107l209 234h84l-237 -261l243 -273h-86l-210 240h-110v-240h-67v474h-184v60h251z" />
    <glyph glyph-name="uni04A3" unicode="&#x4a3;" horiz-adv-x="683" 
d="M97 0v534h67v-234h339v234h67v-473h65v-204h-63v143h-69v239h-339v-239h-67z" />
    <glyph glyph-name="uni04A5" unicode="&#x4a5;" horiz-adv-x="909" 
d="M498 0v239h-333v-239h-67v534h67v-233h333v233h374v-61h-308v-473h-66z" />
    <glyph glyph-name="uni04AB" unicode="&#x4ab;" horiz-adv-x="604" 
d="M300 -143l1 133c-137 17 -238 136 -238 275v2c0 150 119 280 274 280c100 0 163 -45 213 -98l-45 -47c-44 45 -94 84 -170 84c-114 0 -202 -97 -202 -217v-2c0 -121 91 -218 207 -218c72 0 127 36 170 84l44 -41c-49 -56 -107 -96 -192 -103l1 -132h-63z" />
    <glyph glyph-name="uni04AF" unicode="&#x4af;" horiz-adv-x="618" 
d="M574 534l-232 -527v-173h-67v175l-231 525h76l189 -455l191 455h74z" />
    <glyph glyph-name="uni04B1" unicode="&#x4b1;" horiz-adv-x="618" 
d="M514 53v-53h-172v-166h-67v166h-171v53h151l-211 481h76l189 -455l191 455h74l-212 -481h152z" />
    <glyph glyph-name="uni04B3" unicode="&#x4b3;" horiz-adv-x="607" 
d="M136 534l167 -216l168 216h77l-206 -260l167 -213h72v-204h-63v143h-41l-176 229l-176 -229h-77l214 272l-205 262h79z" />
    <glyph glyph-name="uni04B7" unicode="&#x4b7;" horiz-adv-x="634" 
d="M455 0v192c-45 -12 -107 -23 -161 -23c-137 0 -217 57 -217 199v166h67v-161c0 -102 50 -141 157 -141c54 0 104 8 154 23v279h67v-473h64v-204h-63v143h-68z" />
    <glyph glyph-name="uni04B9" unicode="&#x4b9;" horiz-adv-x="620" 
d="M455 0v192c-37 -10 -84 -19 -129 -22v-114h-52v113c-109 5 -197 52 -197 196v169h67v-157c0 -101 46 -138 130 -144v163h52v-164c44 2 86 10 129 23v279h67v-534h-67z" />
    <glyph glyph-name="uni04BB" unicode="&#x4bb;" horiz-adv-x="649" 
d="M98 0v759h67v-320c35 60 93 108 187 108c132 0 209 -90 209 -217v-330h-67v314c0 105 -58 171 -158 171c-97 0 -171 -73 -171 -178v-307h-67z" />
    <glyph glyph-name="uni04CF" unicode="&#x4cf;" horiz-adv-x="277" 
d="M105 0v759h67v-759h-67z" />
    <glyph glyph-name="uni04C2" unicode="&#x4c2;" horiz-adv-x="906" 
d="M453 617c-82 0 -141 46 -147 124h50c13 -39 43 -66 97 -66s84 27 97 66h50c-6 -78 -65 -124 -147 -124zM486 534v-234h97l202 234h83l-231 -263l238 -271h-83l-208 240h-98v-240h-66v240h-101l-206 -240h-83l238 270l-230 264h83l201 -234h98v234h66z" />
    <glyph glyph-name="uni04D1" unicode="&#x4d1;" horiz-adv-x="610" 
d="M305 617c-82 0 -141 46 -147 124h50c13 -39 43 -66 97 -66s84 27 97 66h50c-6 -78 -65 -124 -147 -124zM268 45c103 0 190 63 190 153v56c-43 11 -98 23 -169 23c-105 0 -164 -46 -164 -116v-3c0 -71 67 -113 143 -113zM259 -12c-100 0 -203 57 -203 167v2
c0 112 94 173 231 173c71 0 120 -9 169 -23v21c0 101 -61 154 -166 154c-64 0 -115 -17 -165 -41l-21 56c58 27 116 45 192 45c74 0 132 -20 171 -58c36 -37 55 -87 55 -154v-330h-66v84c-37 -50 -100 -96 -197 -96z" />
    <glyph glyph-name="uni04D3" unicode="&#x4d3;" horiz-adv-x="610" 
d="M175 619v92h84v-92h-84zM351 619v92h84v-92h-84zM268 45c103 0 190 63 190 153v56c-43 11 -98 23 -169 23c-105 0 -164 -46 -164 -116v-3c0 -71 67 -113 143 -113zM259 -12c-100 0 -203 57 -203 167v2c0 112 94 173 231 173c71 0 120 -9 169 -23v21
c0 101 -61 154 -166 154c-64 0 -115 -17 -165 -41l-21 56c58 27 116 45 192 45c74 0 132 -20 171 -58c36 -37 55 -87 55 -154v-330h-66v84c-37 -50 -100 -96 -197 -96z" />
    <glyph glyph-name="uni04D5" unicode="&#x4d5;" horiz-adv-x="1002" 
d="M512 295h364c-8 102 -66 193 -180 193c-99 0 -174 -82 -184 -193zM257 -12c-101 0 -201 57 -201 167v2c0 112 93 173 226 173c67 0 113 -9 162 -23v21c0 101 -58 154 -160 154c-62 0 -109 -17 -159 -41l-21 56c59 28 111 45 186 45c103 0 173 -41 199 -123
c42 77 119 128 210 128c153 0 246 -125 246 -282c0 -10 0 -14 -1 -24h-432c10 -123 98 -194 197 -194c78 0 132 34 175 80l44 -39c-54 -59 -119 -100 -221 -100c-87 0 -166 41 -214 111c-56 -61 -134 -111 -236 -111zM264 45c84 0 151 43 202 103c-13 32 -21 68 -23 107
c-42 10 -95 22 -158 22c-103 0 -160 -46 -160 -116v-3c0 -71 63 -113 139 -113z" />
    <glyph glyph-name="uni04D7" unicode="&#x4d7;" horiz-adv-x="622" 
d="M318 617c-82 0 -141 46 -147 124h50c13 -39 43 -66 97 -66s84 27 97 66h50c-6 -78 -65 -124 -147 -124zM328 -12c-144 0 -265 112 -265 278v2c0 155 109 279 255 279c154 0 248 -125 248 -282c0 -10 0 -14 -2 -24h-432c11 -123 99 -194 198 -194c77 0 131 34 175 80
l43 -39c-54 -59 -119 -100 -220 -100zM132 295h364c-8 102 -66 193 -180 193c-99 0 -174 -82 -184 -193z" />
    <glyph glyph-name="uni04D9" unicode="&#x4d9;" horiz-adv-x="622" 
d="M294 547c144 0 265 -112 265 -278v-2c0 -155 -109 -279 -255 -279c-155 0 -248 124 -248 281c0 10 0 15 1 24h433c-11 123 -99 194 -198 194c-77 0 -131 -33 -175 -79l-43 38c53 60 119 101 220 101zM490 239h-364c8 -101 66 -192 180 -192c99 0 174 82 184 192z" />
    <glyph glyph-name="uni04DD" unicode="&#x4dd;" horiz-adv-x="906" 
d="M323 619v92h84v-92h-84zM499 619v92h84v-92h-84zM486 534v-234h97l202 234h83l-231 -263l238 -271h-83l-208 240h-98v-240h-66v240h-101l-206 -240h-83l238 270l-230 264h83l201 -234h98v234h66z" />
    <glyph glyph-name="uni04DF" unicode="&#x4df;" horiz-adv-x="587" 
d="M158 619v92h84v-92h-84zM334 619v92h84v-92h-84zM48 58l36 52c51 -36 122 -63 200 -63c104 0 167 41 167 101v1c0 59 -62 93 -159 93h-122v57h121c92 0 146 38 146 95v1c0 56 -54 93 -147 93c-66 0 -136 -23 -200 -67l-35 49c66 46 145 77 236 77c135 0 215 -61 215 -148
v-2c0 -70 -56 -108 -112 -124c68 -12 126 -55 126 -128v-1c0 -85 -82 -156 -235 -156c-95 0 -179 29 -237 70z" />
    <glyph glyph-name="uni04E3" unicode="&#x4e3;" horiz-adv-x="673" 
d="M178 643v57h316v-57h-316zM98 0v534h67v-435l344 435h66v-534h-67v435l-346 -435h-64z" />
    <glyph glyph-name="uni04E5" unicode="&#x4e5;" horiz-adv-x="673" 
d="M206 619v92h84v-92h-84zM382 619v92h84v-92h-84zM98 0v534h67v-435l344 435h66v-534h-67v435l-346 -435h-64z" />
    <glyph glyph-name="uni04E7" unicode="&#x4e7;" horiz-adv-x="679" 
d="M210 619v92h84v-92h-84zM386 619v92h84v-92h-84zM339 -12c-160 0 -276 127 -276 277v2c0 151 117 280 278 280c159 0 276 -127 276 -278v-2c0 -150 -118 -279 -278 -279zM341 49c120 0 205 98 205 216v2c0 121 -90 219 -207 219c-121 0 -206 -98 -206 -217v-2
c0 -121 90 -218 208 -218z" />
    <glyph glyph-name="uni04E9" unicode="&#x4e9;" horiz-adv-x="678" 
d="M338 -12c-159 0 -275 127 -275 277v2c0 151 117 280 277 280c159 0 276 -127 276 -278v-2c0 -150 -118 -279 -278 -279zM338 487c-112 0 -194 -83 -207 -189h416c-14 107 -101 189 -209 189zM340 47c113 0 197 85 208 194h-417c12 -111 100 -194 209 -194z" />
    <glyph glyph-name="uni04EF" unicode="&#x4ef;" horiz-adv-x="623" 
d="M157 643v57h316v-57h-316zM325 74l180 460h73l-228 -552c-46 -112 -99 -152 -177 -152c-43 0 -75 9 -111 26l23 55c27 -13 51 -20 87 -20c51 0 84 28 120 111l-249 532h75z" />
    <glyph glyph-name="uni04F1" unicode="&#x4f1;" horiz-adv-x="623" 
d="M185 619v92h84v-92h-84zM361 619v92h84v-92h-84zM325 74l180 460h73l-228 -552c-46 -112 -99 -152 -177 -152c-43 0 -75 9 -111 26l23 55c27 -13 51 -20 87 -20c51 0 84 28 120 111l-249 532h75z" />
    <glyph glyph-name="uni04F3" unicode="&#x4f3;" horiz-adv-x="623" 
d="M205 619l96 145l68 -35l-109 -110h-55zM354 619l96 145l69 -35l-110 -110h-55zM325 74l180 460h73l-228 -552c-46 -112 -99 -152 -177 -152c-43 0 -75 9 -111 26l23 55c27 -13 51 -20 87 -20c51 0 84 28 120 111l-249 532h75z" />
    <glyph glyph-name="uni04F5" unicode="&#x4f5;" horiz-adv-x="620" 
d="M170 619v92h84v-92h-84zM346 619v92h84v-92h-84zM455 0v192c-45 -12 -107 -23 -161 -23c-137 0 -217 57 -217 199v166h67v-161c0 -102 50 -141 157 -141c54 0 104 8 154 23v279h67v-534h-67z" />
    <glyph glyph-name="uni04F9" unicode="&#x4f9;" horiz-adv-x="816" 
d="M278 619v92h84v-92h-84zM454 619v92h84v-92h-84zM651 0v534h67v-534h-67zM165 534v-189h175c131 0 209 -67 209 -171v-2c0 -103 -78 -172 -211 -172h-240v534h67zM165 287v-228h172c97 0 143 43 143 113v1c0 69 -47 114 -142 114h-173z" />
    <glyph glyph-name="zero" unicode="0" horiz-adv-x="752" 
d="M375 -12c-187 0 -304 172 -304 374v2c0 202 119 376 306 376c186 0 304 -172 304 -374v-2c0 -202 -120 -376 -306 -376zM377 51c142 0 231 148 231 311v2c0 164 -91 313 -233 313c-143 0 -232 -147 -232 -311v-2c0 -163 91 -313 234 -313z" />
    <glyph glyph-name="one" unicode="1" horiz-adv-x="372" 
d="M191 0v661l-138 -45l-18 56l173 61h52v-733h-69z" />
    <glyph glyph-name="two" unicode="2" horiz-adv-x="629" 
d="M55 0v54l267 238c115 104 156 163 156 237c0 90 -71 147 -154 147c-87 0 -144 -45 -204 -129l-51 36c65 97 132 155 261 155c128 0 221 -86 221 -203v-2c0 -103 -55 -169 -183 -283l-207 -185h397v-65h-503z" />
    <glyph glyph-name="three" unicode="3" horiz-adv-x="646" 
d="M328 -12c-120 0 -210 53 -269 130l52 45c57 -71 126 -112 219 -112c92 0 168 60 168 150v2c0 95 -89 148 -214 148h-44l-15 41l239 272h-367v64h461v-51l-237 -266c132 -9 248 -72 248 -205v-2c0 -129 -109 -216 -241 -216z" />
    <glyph glyph-name="three.alt" horiz-adv-x="636" 
d="M322 -12c-117 0 -212 55 -271 132l53 43c53 -69 125 -112 220 -112c100 0 173 57 173 143v2c0 88 -74 141 -203 141h-74v60h75c105 0 183 53 183 142v2c0 79 -65 136 -165 136c-84 0 -143 -38 -194 -107l-52 35c56 82 135 135 248 135c136 0 234 -82 234 -193v-2
c0 -98 -66 -148 -132 -172c86 -27 152 -82 152 -176v-2c0 -115 -100 -207 -247 -207z" />
    <glyph glyph-name="four" unicode="4" horiz-adv-x="704" 
d="M460 0v175h-388l-20 51l414 507h62v-499h115v-59h-115v-175h-68zM136 234h324v400z" />
    <glyph glyph-name="five" unicode="5" horiz-adv-x="643" 
d="M320 -12c-102 0 -193 51 -258 116l47 50c64 -63 137 -103 212 -103c109 0 184 74 184 171v2c0 95 -77 161 -189 161c-64 0 -114 -19 -158 -43l-49 33l21 353h415v-65h-354l-16 -251c44 21 88 36 151 36c141 0 251 -87 251 -222v-2c0 -140 -108 -236 -257 -236z" />
    <glyph glyph-name="six" unicode="6" horiz-adv-x="681" 
d="M350 -12c-77 0 -144 28 -188 73c-60 59 -92 133 -92 283v2c0 220 113 394 300 394c85 0 149 -31 213 -83l-42 -54c-55 48 -108 74 -175 74c-144 0 -225 -149 -225 -332v-14c50 77 117 122 216 122c134 0 252 -89 252 -222v-2c0 -139 -113 -241 -259 -241zM353 50
c112 0 184 79 184 176v2c0 94 -77 164 -187 164c-113 0 -191 -83 -191 -168v-3c0 -97 82 -171 194 -171z" />
    <glyph glyph-name="seven" unicode="7" horiz-adv-x="625" 
d="M156 0l330 663h-410v65h489v-52l-331 -676h-78z" />
    <glyph glyph-name="eight" unicode="8" horiz-adv-x="665" 
d="M333 -10c-155 0 -272 84 -272 205v2c0 86 65 149 154 180c-69 30 -129 83 -129 168v2c0 113 117 191 247 191s247 -78 247 -191v-2c0 -85 -61 -138 -130 -168c89 -32 155 -94 155 -179v-2c0 -123 -118 -206 -272 -206zM333 401c97 0 176 57 176 141v2
c0 77 -76 133 -176 133s-177 -56 -177 -133v-2c0 -84 80 -141 177 -141zM333 51c125 0 201 67 201 144v2c0 86 -90 146 -201 146c-112 0 -201 -60 -201 -146v-2c0 -77 75 -144 201 -144z" />
    <glyph glyph-name="nine" unicode="9" horiz-adv-x="681" 
d="M331 329c117 0 191 86 191 173v2c0 97 -81 174 -195 174s-183 -85 -183 -181v-2c0 -96 77 -166 187 -166zM313 51c142 0 227 149 227 322v21c-47 -77 -117 -126 -215 -126c-148 0 -253 96 -253 224v3c0 136 105 245 259 245c81 0 144 -29 189 -74c56 -56 91 -137 91 -283
v-2c0 -230 -125 -393 -300 -393c-93 0 -162 38 -222 89l42 54c60 -53 116 -80 182 -80z" />
    <glyph glyph-name="period" unicode="." horiz-adv-x="258" 
d="M87 0v100h84v-100h-84z" />
    <glyph glyph-name="comma" unicode="," horiz-adv-x="258" 
d="M69 -120l-13 32c49 21 68 46 65 88h-34v100h84v-86c0 -76 -31 -113 -102 -134z" />
    <glyph glyph-name="colon" unicode=":" horiz-adv-x="268" 
d="M92 434v100h84v-100h-84zM92 0v100h84v-100h-84z" />
    <glyph glyph-name="semicolon" unicode=";" horiz-adv-x="268" 
d="M92 434v100h84v-100h-84zM74 -120l-13 32c49 21 68 46 65 88h-34v100h84v-86c0 -76 -31 -113 -102 -134z" />
    <glyph glyph-name="ellipsis" unicode="&#x2026;" horiz-adv-x="742" 
d="M87 0v98h81v-98h-81zM330 0v98h82v-98h-82zM574 0v98h81v-98h-81z" />
    <glyph glyph-name="periodcentered" unicode="&#xb7;" horiz-adv-x="258" 
d="M87 261v100h84v-100h-84z" />
    <glyph glyph-name="ampersand" unicode="&#x26;" horiz-adv-x="734" 
d="M641 -15l-119 124c-67 -76 -146 -119 -242 -119c-129 0 -226 82 -226 203v2c0 97 66 167 181 211c-52 60 -77 104 -77 163v2c0 95 77 169 188 169c99 0 173 -72 173 -161v-2c0 -92 -67 -151 -175 -189l177 -182c34 48 64 106 91 169l59 -26c-32 -71 -67 -135 -106 -188
l130 -133zM304 429c98 32 148 79 148 144v2c0 62 -46 108 -108 108c-69 0 -118 -49 -118 -111v-2c0 -44 19 -78 78 -141zM284 49c74 0 139 40 195 104l-204 210c-105 -37 -151 -100 -151 -166v-2c0 -82 66 -146 160 -146z" />
    <glyph glyph-name="exclam" unicode="!" horiz-adv-x="283" 
d="M123 199l-21 464v65h79v-65l-20 -464h-38zM100 0v100h83v-100h-83z" />
    <glyph glyph-name="exclamdown" unicode="&#xa1;" horiz-adv-x="283" 
d="M100 628v100h83v-100h-83zM102 0v65l21 464h38l20 -464v-65h-79z" />
    <glyph glyph-name="question" unicode="?" horiz-adv-x="567" 
d="M238 199l-15 168l5 6c137 3 211 62 211 155v2c0 80 -61 145 -161 145c-79 0 -141 -38 -194 -102l-46 42c60 73 132 122 243 122c139 0 229 -89 229 -204v-2c0 -130 -98 -196 -218 -212l-10 -120h-44zM218 0v100h84v-100h-84z" />
    <glyph glyph-name="questiondown" unicode="&#xbf;" horiz-adv-x="567" 
d="M265 628v100h84v-100h-84zM286 -9c-139 0 -229 89 -229 204v2c0 130 98 196 218 212l10 120h44l15 -168l-5 -6c-137 -3 -212 -62 -212 -155v-2c0 -80 62 -145 162 -145c79 0 140 38 194 102l46 -42c-60 -73 -132 -122 -243 -122z" />
    <glyph glyph-name="quotedblleft" unicode="&#x201c;" horiz-adv-x="457" 
d="M82 513v87c0 75 31 113 102 133l13 -32c-49 -20 -68 -45 -65 -88h34v-100h-84zM281 513v87c0 75 30 113 102 133l13 -32c-49 -20 -69 -45 -65 -88h33v-100h-83z" />
    <glyph glyph-name="quotedblright" unicode="&#x201d;" horiz-adv-x="457" 
d="M74 508l-13 32c49 21 68 45 65 88h-34v100h84v-86c0 -76 -31 -113 -102 -134zM272 508l-12 32c49 21 68 45 65 88h-34v100h84v-86c0 -76 -31 -113 -103 -134z" />
    <glyph glyph-name="quoteleft" unicode="&#x2018;" horiz-adv-x="258" 
d="M82 513v87c0 75 31 113 102 133l13 -32c-49 -20 -68 -45 -65 -88h34v-100h-84z" />
    <glyph glyph-name="quoteright" unicode="&#x2019;" horiz-adv-x="258" 
d="M74 508l-13 32c49 21 68 45 65 88h-34v100h84v-86c0 -76 -31 -113 -102 -134z" />
    <glyph glyph-name="quotedblbase" unicode="&#x201e;" horiz-adv-x="457" 
d="M69 -120l-13 32c49 21 68 46 65 88h-34v100h84v-86c0 -76 -31 -113 -102 -134zM267 -120l-12 32c48 21 68 46 64 88h-33v100h84v-86c0 -76 -31 -113 -103 -134z" />
    <glyph glyph-name="quotesinglbase" unicode="&#x201a;" horiz-adv-x="258" 
d="M69 -120l-13 32c49 21 68 46 65 88h-34v100h84v-86c0 -76 -31 -113 -102 -134z" />
    <glyph glyph-name="guillemotleft" unicode="&#xab;" horiz-adv-x="566" 
d="M226 44l-170 219v8l170 220l49 -30l-140 -193l140 -195zM448 44l-169 219v8l169 220l50 -30l-140 -193l140 -195z" />
    <glyph glyph-name="guillemotright" unicode="&#xbb;" horiz-adv-x="566" 
d="M117 44l-49 29l140 193l-140 195l49 30l170 -220v-8zM340 44l-49 29l140 193l-140 195l49 30l169 -220v-8z" />
    <glyph glyph-name="guilsinglleft" unicode="&#x2039;" horiz-adv-x="343" 
d="M226 44l-170 219v8l170 220l49 -30l-140 -193l140 -195z" />
    <glyph glyph-name="guilsinglright" unicode="&#x203a;" horiz-adv-x="343" 
d="M117 44l-49 29l140 193l-140 195l49 30l170 -220v-8z" />
    <glyph glyph-name="hyphen" unicode="-" horiz-adv-x="434" 
d="M75 275v72h285v-72h-285z" />
    <glyph glyph-name="endash" unicode="&#x2013;" horiz-adv-x="559" 
d="M75 277v68h409v-68h-409z" />
    <glyph glyph-name="emdash" unicode="&#x2014;" horiz-adv-x="944" 
d="M75 277v68h794v-68h-794z" />
    <glyph glyph-name="underscore" unicode="_" horiz-adv-x="634" 
d="M3 -166v57h628v-57h-628z" />
    <glyph glyph-name="slash" unicode="/" horiz-adv-x="535" 
d="M-15 -133l486 963h64l-487 -963h-63z" />
    <glyph glyph-name="backslash" unicode="\" horiz-adv-x="535" 
d="M487 -133l-487 963h64l486 -963h-63z" />
    <glyph glyph-name="bar" unicode="|" horiz-adv-x="317" 
d="M130 -133v963h58v-963h-58z" />
    <glyph glyph-name="parenleft" unicode="(" horiz-adv-x="460" 
d="M365 -147c-184 104 -288 256 -288 445v1c0 188 104 342 288 445l29 -45c-161 -101 -248 -231 -248 -401v-1c0 -167 87 -299 248 -399z" />
    <glyph glyph-name="parenright" unicode=")" horiz-adv-x="460" 
d="M94 -147l-29 45c161 101 248 231 248 400v1c0 168 -87 300 -248 400l29 45c185 -104 289 -256 289 -446v-1c0 -187 -104 -341 -289 -444z" />
    <glyph glyph-name="bracketleft" unicode="[" horiz-adv-x="463" 
d="M105 -135v863h291v-52h-228v-759h228v-52h-291z" />
    <glyph glyph-name="bracketright" unicode="]" horiz-adv-x="463" 
d="M66 -135v52h229v759h-229v52h292v-863h-292z" />
    <glyph glyph-name="braceleft" unicode="{" horiz-adv-x="511" 
d="M438 -147c-187 35 -223 103 -223 211v80c0 81 -28 129 -123 129h-27v51h27c95 0 123 48 123 129v80c0 108 36 176 223 211l10 -44c-152 -40 -168 -77 -168 -175v-78c0 -90 -42 -128 -108 -149c70 -22 108 -58 108 -148v-78c0 -98 16 -135 168 -175z" />
    <glyph glyph-name="braceright" unicode="}" horiz-adv-x="511" 
d="M73 -147l-10 44c152 40 168 77 168 175v78c0 90 42 128 108 148c-70 23 -108 59 -108 149v78c0 98 -16 135 -168 175l10 44c187 -35 223 -103 223 -211v-80c0 -81 28 -129 123 -129h27v-51h-27c-95 0 -123 -48 -123 -129v-80c0 -108 -36 -176 -223 -211z" />
    <glyph glyph-name="at" unicode="@" horiz-adv-x="1029" 
d="M524 -168c-266 0 -464 204 -464 453s201 455 456 455c254 0 453 -193 453 -411c0 -178 -100 -254 -192 -254c-74 0 -125 36 -144 91c-41 -50 -94 -91 -174 -91c-102 0 -185 75 -185 187c0 149 123 259 241 259c82 0 128 -44 153 -89l14 75l61 -9l-40 -228
c-6 -33 -9 -57 -9 -69c0 -56 34 -87 91 -87c73 0 147 66 147 215c0 190 -178 377 -416 377c-240 0 -419 -190 -419 -421c0 -232 177 -419 427 -419c104 0 179 24 259 71l17 -27c-81 -49 -168 -78 -276 -78zM471 132c44 0 86 21 117 52c37 37 61 88 61 141
c0 79 -56 138 -131 138c-44 0 -87 -20 -120 -53c-35 -35 -59 -86 -59 -143c0 -85 55 -135 132 -135z" />
    <glyph glyph-name="copyright" unicode="&#xa9;" horiz-adv-x="873" 
d="M436 -12c-212 0 -376 169 -376 374v2c0 205 167 376 378 376s375 -169 375 -374v-2c0 -205 -166 -376 -377 -376zM436 19c196 0 344 156 344 345v2c0 189 -147 343 -342 343c-197 0 -345 -156 -345 -345v-2c0 -189 147 -343 343 -343zM441 171c-109 0 -192 89 -192 197v2
c0 107 84 198 193 198c69 0 110 -27 148 -63l-35 -37c-30 28 -66 52 -114 52c-80 0 -139 -67 -139 -149v-2c0 -82 62 -150 140 -150c50 0 82 20 117 53l34 -34c-41 -40 -83 -67 -152 -67z" />
    <glyph glyph-name="published" unicode="&#x2117;" horiz-adv-x="873" 
d="M436 -12c-212 0 -376 169 -376 374v2c0 205 167 376 378 376s375 -169 375 -374v-2c0 -205 -166 -376 -377 -376zM436 19c196 0 344 156 344 345v2c0 189 -147 343 -342 343c-197 0 -345 -156 -345 -345v-2c0 -189 147 -343 343 -343zM311 180v384h149
c90 0 149 -45 149 -123v-2c0 -86 -73 -127 -156 -127h-90v-132h-52zM363 359h91c62 0 102 29 102 78v3c0 51 -39 76 -100 76h-93v-157z" />
    <glyph glyph-name="registered.alt" horiz-adv-x="873" 
d="M436 -12c-212 0 -376 169 -376 374v2c0 205 167 376 378 376s375 -169 375 -374v-2c0 -205 -166 -376 -377 -376zM436 19c196 0 344 156 344 345v2c0 189 -147 343 -342 343c-197 0 -345 -156 -345 -345v-2c0 -189 147 -343 343 -343zM342 379h114c55 0 96 25 96 70v2
c0 41 -35 67 -92 67h-118v-139zM290 183v383h172c48 0 89 -14 113 -39c18 -17 30 -43 30 -73v-2c0 -62 -42 -99 -101 -112l122 -157h-65l-115 149h-104v-149h-52z" />
    <glyph glyph-name="registered" unicode="&#xae;" horiz-adv-x="435" 
d="M218 374c-102 0 -181 83 -181 181v1c0 99 80 182 181 182s181 -82 181 -181v-1c0 -98 -81 -182 -181 -182zM218 394c90 0 160 74 160 162v1c0 89 -69 162 -160 162s-161 -74 -161 -163v-1c0 -88 69 -161 161 -161zM181 560h47c25 0 39 13 39 32v1c0 19 -15 31 -39 30h-47
v-63zM148 468v184h83c39 0 69 -20 69 -58v-1c0 -28 -19 -48 -44 -55l51 -70h-41l-44 65h-41v-65h-33z" />
    <glyph glyph-name="servicemark" unicode="&#x2120;" horiz-adv-x="746" 
d="M371 408v320h44l119 -182l119 182h43v-320h-41v250l-119 -179h-5l-119 179v-250h-41zM176 402c-51 0 -98 18 -137 52l26 31c33 -30 69 -46 113 -46c43 0 72 23 72 54c0 29 -19 43 -84 58c-73 16 -112 38 -112 92c0 52 48 90 113 90c45 0 83 -13 117 -40l-24 -30
c-29 22 -60 33 -94 33c-43 0 -70 -21 -70 -50c0 -28 17 -43 86 -59c71 -15 110 -40 110 -91c0 -57 -51 -94 -116 -94z" />
    <glyph glyph-name="trademark" unicode="&#x2122;" horiz-adv-x="728" 
d="M136 408v280h-104v40h249v-40h-103v-280h-42zM353 408v320h44l119 -182l119 182h43v-320h-41v250l-119 -179h-5l-119 179v-250h-41z" />
    <glyph glyph-name="asterisk" unicode="*" horiz-adv-x="457" 
d="M204 417l10 131l-109 -75l-26 44l122 57l-122 56l26 44l109 -75l-10 131h50l-11 -131l109 75l26 -44l-122 -56l122 -57l-26 -44l-109 75l11 -131h-50z" />
    <glyph glyph-name="dagger" unicode="&#x2020;" horiz-adv-x="436" 
d="M192 248l6 294l-129 -7v52l128 -7l-8 148h58l-8 -148l128 7v-52l-129 7l6 -294h-52z" />
    <glyph glyph-name="daggerdbl" unicode="&#x2021;" horiz-adv-x="457" 
d="M199 0l9 148l-129 -7v52l129 -7l-5 178l5 178l-129 -7v52l129 -7l-9 148h59l-8 -148l128 7v-52l-129 7l6 -178l-6 -178l129 7v-52l-128 7l8 -148h-59z" />
    <glyph glyph-name="bullet" unicode="&#x2022;" horiz-adv-x="503" 
d="M252 233c-73 0 -133 59 -133 132v2c0 73 62 132 133 132c69 0 133 -59 133 -132v-2c0 -73 -60 -132 -133 -132z" />
    <glyph glyph-name="dollar" unicode="$" horiz-adv-x="669" 
d="M161 541c0 -62 29 -104 153 -136v264c-92 -3 -154 -58 -153 -127v-1zM524 191c0 64 -32 105 -157 135v-267c96 4 158 58 157 131v1zM570 642l-40 -53c-53 44 -106 69 -163 77v-272c158 -35 225 -95 225 -199v-1c0 -110 -91 -187 -222 -194v-102h-59v103
c-94 9 -173 46 -246 110l41 52c63 -58 127 -92 208 -102v276c-154 36 -222 93 -221 200v1c0 105 90 185 218 190v60h59v-62c79 -8 139 -36 200 -84z" />
    <glyph glyph-name="sterling" unicode="&#xa3;" horiz-adv-x="680" 
d="M76 0v38l88 21v252h-88v63h88v116c0 78 24 144 67 187c39 39 94 61 160 61c110 0 173 -48 221 -111l-54 -42c-41 52 -86 90 -167 90c-47 0 -82 -15 -109 -42c-32 -32 -48 -81 -48 -142v-117h299v-63h-299v-249h378v-62h-536z" />
    <glyph glyph-name="Euro" unicode="&#x20ac;" horiz-adv-x="759" 
d="M695 597l-53 -38c-54 77 -106 119 -199 119c-100 0 -177 -79 -210 -192h280v-58h-292c-3 -21 -5 -43 -5 -63v-1c0 -18 1 -37 3 -55h294v-59h-283c31 -120 115 -201 224 -200c86 0 143 50 193 126l50 -35c-56 -87 -129 -153 -245 -153c-147 0 -257 106 -293 262h-94v59h84
c-2 17 -2 35 -2 54v1c0 21 1 42 4 64h-86v58h97c39 145 145 255 283 254c123 0 195 -61 250 -143z" />
    <glyph glyph-name="yen" unicode="&#xa5;" horiz-adv-x="723" 
d="M111 278v56h195l-271 394h84l244 -370l245 370h80l-272 -394h196v-56h-217v-97h217v-56h-217v-125h-67v125h-217v56h217v97h-217z" />
    <glyph glyph-name="cent" unicode="&#xa2;" horiz-adv-x="614" 
d="M137 369c0 -92 51 -169 126 -201l83 420h-7c-114 0 -202 -96 -202 -217v-2zM432 734l-19 -94c53 -13 99 -43 142 -88l-45 -47c-37 37 -71 63 -112 75l-83 -427c9 -2 18 -2 28 -2c72 0 128 36 172 84l43 -40c-54 -62 -119 -105 -218 -105c-12 0 -23 0 -34 2l-19 -98h-60
l21 111c-106 38 -181 142 -181 262v2c0 151 119 280 274 280h13l17 85h61z" />
    <glyph glyph-name="numbersign" unicode="#" horiz-adv-x="738" 
d="M285 483l-40 -233h207l40 233h-207zM643 250v-61h-139l-32 -189h-63l32 189h-205l-33 -189h-63l32 189h-118v61h129l40 232h-128v61h138l32 185h63l-32 -185h206l32 185h63l-32 -185h118v-61h-128l-40 -232h128z" />
    <glyph glyph-name="paragraph" unicode="&#xb6;" horiz-adv-x="526" 
d="M354 0v281h-9c-162 0 -288 79 -288 223v2c0 138 113 222 272 222h96v-728h-71z" />
    <glyph glyph-name="section" unicode="&#xa7;" horiz-adv-x="667" 
d="M407 269c74 0 123 36 123 76v2c0 36 -34 65 -155 95c-51 13 -87 17 -115 17c-73 0 -122 -36 -122 -76v-2c0 -36 33 -65 154 -95c50 -13 87 -17 115 -17zM452 233c50 -23 82 -61 82 -107v-2c0 -81 -73 -134 -187 -134c-95 0 -180 39 -237 98l46 45c48 -48 115 -83 194 -83
c77 0 113 33 113 74v2c0 42 -44 70 -179 102c-156 38 -213 77 -213 146v2c0 63 58 106 145 119c-51 24 -83 61 -83 107v2c0 81 74 134 188 134c94 0 179 -39 237 -98l-47 -45c-47 48 -115 83 -194 83c-76 0 -113 -32 -113 -74v-2c0 -41 43 -70 179 -102
c156 -38 213 -77 213 -146v-2c0 -63 -57 -106 -144 -119z" />
    <glyph glyph-name="ordfeminine" unicode="&#xaa;" horiz-adv-x="416" 
d="M188 466c52 0 96 31 96 77v26c-23 7 -48 11 -84 11c-51 0 -81 -23 -81 -56v-2c0 -36 32 -56 69 -56zM183 426c-56 0 -112 31 -112 93v2c0 62 52 97 128 97c36 0 61 -5 84 -11v5c0 50 -31 76 -83 76c-33 0 -60 -10 -90 -23l-15 39c35 17 66 27 109 27c40 0 72 -11 95 -33
c19 -20 30 -49 30 -86v-180h-46v41c-22 -29 -57 -47 -100 -47zM67 302v46h267v-46h-267z" />
    <glyph glyph-name="ordmasculine" unicode="&#xba;" horiz-adv-x="416" 
d="M207 425c-87 0 -151 70 -151 152v2c0 83 65 154 153 154c87 0 150 -69 150 -152v-2c0 -83 -64 -154 -152 -154zM209 471c59 0 99 48 99 106v2c0 60 -43 108 -101 108c-59 0 -100 -48 -100 -106v-2c0 -60 44 -108 102 -108zM58 302v46h300v-46h-300z" />
    <glyph glyph-name="degree" unicode="&#xb0;" horiz-adv-x="483" 
d="M241 422c-84 0 -160 72 -160 155v2c0 83 76 155 160 155s161 -72 161 -155v-2c0 -83 -77 -155 -161 -155zM241 472c60 0 104 50 104 105v2c0 55 -44 105 -104 105c-59 0 -103 -50 -103 -105v-2c0 -55 44 -105 103 -105z" />
    <glyph glyph-name="percent" unicode="%" horiz-adv-x="873" 
d="M222 364c-97 0 -161 87 -161 184v2c0 99 65 186 163 186c97 0 162 -87 162 -184v-2c0 -98 -66 -186 -164 -186zM414 377l256 351h66l-279 -380l-255 -348h-66zM222 684c-58 0 -99 -60 -99 -132v-2c0 -77 46 -134 101 -134c59 0 100 59 100 132v2c0 76 -46 134 -102 134z
M648 -8c-97 0 -161 86 -161 184v2c0 98 65 186 163 186c97 0 162 -87 162 -184v-2c0 -99 -66 -186 -164 -186zM650 44c59 0 100 58 100 132v2c0 76 -46 134 -102 134c-58 0 -99 -60 -99 -132v-2c0 -77 46 -134 101 -134z" />
    <glyph glyph-name="perthousand" unicode="&#x2030;" horiz-adv-x="1264" 
d="M222 364c-97 0 -161 87 -161 184v2c0 99 65 186 163 186c97 0 162 -87 162 -184v-2c0 -98 -66 -186 -164 -186zM736 728l-279 -380l-255 -348h-66l278 377l256 351h66zM224 416c59 0 100 59 100 132v2c0 76 -46 134 -102 134c-58 0 -99 -60 -99 -132v-2
c0 -77 46 -134 101 -134zM1040 -8c-97 0 -162 86 -162 184v2c0 98 66 186 164 186c97 0 162 -87 162 -184v-2c0 -99 -66 -186 -164 -186zM648 -8c-97 0 -161 86 -161 184v2c0 98 65 186 163 186c97 0 162 -87 162 -184v-2c0 -99 -66 -186 -164 -186zM1042 44
c59 0 99 58 99 132v2c0 76 -45 134 -101 134c-59 0 -99 -60 -99 -132v-2c0 -77 45 -134 101 -134zM650 44c59 0 100 58 100 132v2c0 76 -46 134 -102 134c-58 0 -99 -60 -99 -132v-2c0 -77 46 -134 101 -134z" />
    <glyph glyph-name="quotedbl" unicode="&#x22;" horiz-adv-x="454" 
d="M74 454l34 274h83v-5l-79 -269h-38zM270 454l34 274h83v-5l-79 -269h-38z" />
    <glyph glyph-name="quotesingle" unicode="'" horiz-adv-x="258" 
d="M74 454l34 274h84v-5l-80 -269h-38z" />
    <glyph glyph-name="plus" unicode="+" horiz-adv-x="658" 
d="M296 116v218h-220v64h220v218h66v-218h220v-64h-220v-218h-66z" />
    <glyph glyph-name="minus" unicode="&#x2212;" horiz-adv-x="658" 
d="M582 333h-506v66h506v-66z" />
    <glyph glyph-name="divide" unicode="&#xf7;" horiz-adv-x="658" 
d="M281 519v101h95v-101h-95zM582 335h-506v62h506v-62zM281 112v101h95v-101h-95z" />
    <glyph glyph-name="equal" unicode="=" horiz-adv-x="658" 
d="M90 453v66h478v-66h-478zM90 213v67h478v-67h-478z" />
    <glyph glyph-name="multiply" unicode="&#xd7;" horiz-adv-x="658" 
d="M512 136l-184 187l-184 -187l-45 45l187 184l-187 184l47 47l184 -187l184 187l45 -45l-187 -184l187 -184z" />
    <glyph glyph-name="less" unicode="&#x3c;" horiz-adv-x="658" 
d="M557 92l-486 246v57l486 246v-70l-409 -204l409 -205v-70z" />
    <glyph glyph-name="greater" unicode="&#x3e;" horiz-adv-x="658" 
d="M101 92v69l409 204l-409 206v70l486 -246v-57z" />
    <glyph glyph-name="plusminus" unicode="&#xb1;" horiz-adv-x="658" 
d="M573 376h-211v-207h-66v207h-211v63l211 -1v208h66v-208l211 1v-63zM573 0h-488v62h488v-62z" />
    <glyph glyph-name="zero.sup" unicode="&#x2070;" 
d="M209 432c-90 0 -148 88 -148 209v2c0 122 59 211 149 211s150 -88 150 -209v-2c0 -122 -61 -211 -151 -211zM209 811c-63 0 -100 -71 -100 -166v-3c0 -95 38 -167 101 -167s101 72 101 167v3c0 94 -39 166 -102 166z" />
    <glyph glyph-name="one.sup" unicode="&#xb9;" horiz-adv-x="342" 
d="M218 442h-48v358l-91 -34l-12 42l112 43h39v-409z" />
    <glyph glyph-name="one.sup_alt" 
d="M364 442h-282v42h121v316l-107 -38l-11 43l127 46h39v-367h113v-42z" />
    <glyph glyph-name="two.sup" unicode="&#xb2;" 
d="M64 442v41l153 133c55 49 81 80 81 121c0 43 -35 74 -81 74c-45 0 -79 -24 -111 -72l-36 24c35 55 79 91 150 91c73 0 127 -49 127 -114c0 -57 -30 -93 -95 -149l-122 -104h221v-45h-287z" />
    <glyph glyph-name="three.sup" unicode="&#xb3;" 
d="M208 432c-67 0 -117 30 -151 74l33 32c33 -41 71 -63 119 -63s88 32 88 79c0 50 -48 78 -111 78h-32l-9 30l134 137h-200v45h261v-39l-130 -133c75 -6 136 -43 136 -118c0 -73 -63 -122 -138 -122z" />
    <glyph glyph-name="four.sup" unicode="&#x2074;" 
d="M312 533v-93h-45v93h-198l-12 41l201 276h54v-276h56v-41h-56zM267 574v216l-159 -216h159z" />
    <glyph glyph-name="five.sup" unicode="&#x2075;" 
d="M207 432c-59 0 -110 28 -147 68l32 34c35 -38 73 -59 116 -59c60 0 98 39 98 87c0 51 -41 82 -98 82c-33 0 -63 -9 -91 -22l-32 19l14 203h238v-47h-198l-9 -126c25 11 52 17 84 17c78 0 142 -46 142 -123c0 -79 -66 -133 -149 -133z" />
    <glyph glyph-name="six.sup" unicode="&#x2076;" 
d="M209 432c-41 0 -77 16 -100 39c-28 28 -49 70 -49 157v2c0 133 66 224 163 224c52 0 84 -17 115 -48l-28 -35c-25 24 -52 40 -89 40c-60 0 -112 -69 -113 -165c24 29 55 52 109 52c71 0 131 -49 131 -129c0 -78 -61 -137 -139 -137zM207 475c55 0 94 37 94 92
c0 54 -35 90 -90 90s-96 -38 -96 -90v-1c0 -52 42 -92 92 -91z" />
    <glyph glyph-name="seven.sup" unicode="&#x2077;" 
d="M170 440h-55l181 357h-222v47h278v-36z" />
    <glyph glyph-name="eight.sup" unicode="&#x2078;" 
d="M210 432c-85 0 -147 47 -147 117c0 49 32 82 76 101c-35 17 -64 47 -64 93c0 66 63 111 137 111c72 0 135 -46 135 -111c0 -46 -28 -76 -64 -93c44 -18 76 -53 76 -99c0 -72 -63 -119 -149 -119zM211 813c-53 0 -90 -29 -90 -72c0 -42 38 -74 90 -74s90 31 90 74
s-38 72 -90 72zM211 629c-61 0 -102 -34 -102 -79s40 -77 102 -77c61 0 101 32 101 77s-40 79 -101 79z" />
    <glyph glyph-name="nine.sup" unicode="&#x2079;" 
d="M209 625c55 0 96 38 96 92v1c0 54 -42 94 -92 93c-55 0 -94 -37 -94 -94c0 -56 35 -92 90 -92zM211 854c41 0 77 -16 100 -39c28 -28 49 -70 49 -157v-2c0 -136 -66 -224 -163 -224c-52 0 -88 18 -121 50l29 35c27 -26 53 -42 94 -42c60 0 112 65 113 161
c-24 -29 -55 -52 -109 -52c-71 0 -131 49 -131 131c0 79 61 139 139 139z" />
    <glyph glyph-name="zero.inf" unicode="&#x2080;" 
d="M209 -147c-90 0 -148 88 -148 209v2c0 122 59 211 149 211s150 -88 150 -209v-2c0 -122 -61 -211 -151 -211zM209 232c-63 0 -100 -71 -100 -166v-3c0 -95 38 -167 101 -167s101 72 101 167v3c0 94 -39 166 -102 166z" />
    <glyph glyph-name="one.inf" unicode="&#x2081;" horiz-adv-x="342" 
d="M218 -137h-48v358l-91 -34l-12 42l112 43h39v-409z" />
    <glyph glyph-name="one.inf_alt" 
d="M364 -137h-282v42h121v316l-107 -38l-11 43l127 46h39v-367h113v-42z" />
    <glyph glyph-name="two.inf" unicode="&#x2082;" 
d="M64 -137v41l153 133c55 49 81 80 81 121c0 43 -35 74 -81 74c-45 0 -79 -24 -111 -72l-36 24c35 55 79 91 150 91c73 0 127 -49 127 -114c0 -57 -30 -93 -95 -149l-122 -104h221v-45h-287z" />
    <glyph glyph-name="three.inf" unicode="&#x2083;" 
d="M208 -147c-67 0 -117 30 -151 74l33 32c33 -41 71 -63 119 -63s88 32 88 79c0 50 -48 78 -111 78h-32l-9 30l134 137h-200v45h261v-39l-130 -133c75 -6 136 -43 136 -118c0 -73 -63 -122 -138 -122z" />
    <glyph glyph-name="four.inf" unicode="&#x2084;" 
d="M312 -46v-93h-45v93h-198l-12 41l201 276h54v-276h56v-41h-56zM267 -5v216l-159 -216h159z" />
    <glyph glyph-name="five.inf" unicode="&#x2085;" 
d="M207 -147c-59 0 -110 28 -147 68l32 34c35 -38 73 -59 116 -59c60 0 98 39 98 87c0 51 -41 82 -98 82c-33 0 -63 -9 -91 -22l-32 19l14 203h238v-47h-198l-9 -126c25 11 52 17 84 17c78 0 142 -46 142 -123c0 -79 -66 -133 -149 -133z" />
    <glyph glyph-name="six.inf" unicode="&#x2086;" 
d="M209 -147c-41 0 -77 16 -100 39c-28 28 -49 70 -49 157v2c0 133 66 224 163 224c52 0 84 -17 115 -48l-28 -35c-25 24 -52 40 -89 40c-60 0 -112 -69 -113 -165c24 29 55 52 109 52c71 0 131 -49 131 -129c0 -78 -61 -137 -139 -137zM207 -104c55 0 94 37 94 92
c0 54 -35 90 -90 90s-96 -38 -96 -90v-1c0 -52 42 -92 92 -91z" />
    <glyph glyph-name="seven.inf" unicode="&#x2087;" 
d="M170 -139h-55l181 357h-222v47h278v-36z" />
    <glyph glyph-name="eight.inf" unicode="&#x2088;" 
d="M210 -147c-85 0 -147 47 -147 117c0 49 32 82 76 101c-35 17 -64 47 -64 93c0 66 63 111 137 111c72 0 135 -46 135 -111c0 -46 -28 -76 -64 -93c44 -18 76 -53 76 -99c0 -72 -63 -119 -149 -119zM211 234c-53 0 -90 -29 -90 -72c0 -42 38 -74 90 -74s90 31 90 74
s-38 72 -90 72zM211 50c-61 0 -102 -34 -102 -79s40 -77 102 -77c61 0 101 32 101 77s-40 79 -101 79z" />
    <glyph glyph-name="nine.inf" unicode="&#x2089;" 
d="M209 46c55 0 96 38 96 92v1c0 54 -42 94 -92 93c-55 0 -94 -37 -94 -94c0 -56 35 -92 90 -92zM211 275c41 0 77 -16 100 -39c28 -28 49 -70 49 -157v-2c0 -136 -66 -224 -163 -224c-52 0 -88 18 -121 50l29 35c27 -26 53 -42 94 -42c60 0 112 65 113 161
c-24 -29 -55 -52 -109 -52c-71 0 -131 49 -131 131c0 79 61 139 139 139z" />
    <glyph glyph-name="zero.num" 
d="M209 316c-90 0 -148 88 -148 209v2c0 122 59 211 149 211s150 -88 150 -209v-2c0 -122 -61 -211 -151 -211zM209 695c-63 0 -100 -72 -100 -167v-3c0 -94 38 -166 101 -166s101 71 101 166v3c0 95 -39 167 -102 167z" />
    <glyph glyph-name="one.num" horiz-adv-x="342" 
d="M218 326h-48v358l-91 -34l-12 42l112 43h39v-409z" />
    <glyph glyph-name="one.num_alt" 
d="M364 326h-282v42h121v316l-107 -38l-11 43l127 46h39v-367h113v-42z" />
    <glyph glyph-name="two.num" 
d="M64 326v41l153 133c55 49 81 80 81 121c0 43 -35 74 -81 74c-45 0 -79 -24 -111 -72l-36 24c35 55 79 91 150 91c73 0 127 -50 127 -114c0 -57 -30 -93 -95 -149l-122 -104h221v-45h-287z" />
    <glyph glyph-name="three.num" 
d="M208 316c-67 0 -117 30 -151 74l33 32c33 -42 71 -63 119 -63s88 32 88 79c0 50 -48 78 -111 78h-32l-9 30l134 137h-200v45h261v-39l-130 -133c75 -6 136 -43 136 -118c0 -73 -63 -122 -138 -122z" />
    <glyph glyph-name="four.num" 
d="M312 417v-93h-45v93h-198l-12 41l201 276h54v-276h56v-41h-56zM267 458v216l-159 -216h159z" />
    <glyph glyph-name="five.num" 
d="M207 316c-59 0 -110 28 -147 68l32 34c35 -38 73 -59 116 -59c60 0 98 39 98 87c0 51 -41 82 -98 82c-33 0 -63 -9 -91 -22l-32 19l14 203h238v-47h-198l-9 -126c25 11 52 17 84 17c78 0 142 -46 142 -123c0 -79 -66 -133 -149 -133z" />
    <glyph glyph-name="six.num" 
d="M209 316c-41 0 -77 16 -100 39c-28 28 -49 70 -49 157v2c0 133 66 224 163 224c52 0 84 -17 115 -48l-28 -35c-25 24 -52 40 -89 40c-60 0 -112 -69 -113 -165c24 29 55 52 109 52c71 0 131 -49 131 -129c0 -78 -61 -137 -139 -137zM207 359c55 0 94 37 94 91
c0 55 -35 90 -90 90s-96 -37 -96 -90v-1c0 -51 42 -91 92 -90z" />
    <glyph glyph-name="seven.num" 
d="M170 324h-55l181 357h-222v47h278v-36z" />
    <glyph glyph-name="eight.num" 
d="M210 316c-85 0 -147 47 -147 117c0 49 32 82 76 101c-35 16 -64 47 -64 93c0 66 63 111 137 111c72 0 135 -46 135 -111c0 -46 -28 -76 -64 -93c44 -18 76 -53 76 -99c0 -72 -63 -119 -149 -119zM211 697c-53 0 -90 -29 -90 -72c0 -42 38 -74 90 -74s90 31 90 74
s-38 72 -90 72zM211 513c-61 0 -102 -34 -102 -79s40 -77 102 -77c61 0 101 32 101 77s-40 79 -101 79z" />
    <glyph glyph-name="nine.num" 
d="M209 509c55 0 96 38 96 92v1c0 54 -42 94 -92 93c-55 0 -94 -37 -94 -94c0 -56 35 -92 90 -92zM211 738c41 0 77 -16 100 -39c28 -28 49 -70 49 -157v-2c0 -136 -66 -224 -163 -224c-52 0 -88 18 -121 50l29 35c27 -26 53 -42 94 -42c60 0 112 65 113 161
c-24 -29 -55 -52 -109 -52c-71 0 -131 49 -131 131c0 79 61 139 139 139z" />
    <glyph glyph-name="zero.den" 
d="M209 -10c-90 0 -148 88 -148 209v2c0 122 59 211 149 211s150 -88 150 -209v-2c0 -122 -61 -211 -151 -211zM209 369c-63 0 -100 -71 -100 -166v-3c0 -95 38 -167 101 -167s101 72 101 167v3c0 94 -39 166 -102 166z" />
    <glyph glyph-name="one.den" horiz-adv-x="342" 
d="M218 0h-48v358l-91 -34l-12 42l112 43h39v-409z" />
    <glyph glyph-name="one.den_alt" 
d="M364 0h-282v42h121v316l-107 -38l-11 43l127 46h39v-367h113v-42z" />
    <glyph glyph-name="two.den" 
d="M64 0v41l153 133c55 49 81 80 81 121c0 43 -35 74 -81 74c-45 0 -79 -24 -111 -72l-36 24c35 55 79 91 150 91c73 0 127 -49 127 -114c0 -57 -30 -93 -95 -149l-122 -104h221v-45h-287z" />
    <glyph glyph-name="three.den" 
d="M208 -10c-67 0 -117 30 -151 74l33 32c33 -41 71 -63 119 -63s88 32 88 79c0 50 -48 78 -111 78h-32l-9 30l134 137h-200v45h261v-39l-130 -133c75 -6 136 -43 136 -118c0 -73 -63 -122 -138 -122z" />
    <glyph glyph-name="four.den" 
d="M312 91v-93h-45v93h-198l-12 41l201 276h54v-276h56v-41h-56zM267 132v216l-159 -216h159z" />
    <glyph glyph-name="five.den" 
d="M207 -10c-59 0 -110 28 -147 68l32 34c35 -38 73 -59 116 -59c60 0 98 39 98 87c0 51 -41 82 -98 82c-33 0 -63 -9 -91 -22l-32 19l14 203h238v-47h-198l-9 -126c25 11 52 17 84 17c78 0 142 -46 142 -123c0 -79 -66 -133 -149 -133z" />
    <glyph glyph-name="six.den" 
d="M209 -10c-41 0 -77 16 -100 39c-28 28 -49 70 -49 157v2c0 133 66 224 163 224c52 0 84 -17 115 -48l-28 -35c-25 24 -52 40 -89 40c-60 0 -112 -69 -113 -165c24 29 55 52 109 52c71 0 131 -49 131 -129c0 -78 -61 -137 -139 -137zM207 33c55 0 94 37 94 92
c0 54 -35 90 -90 90s-96 -38 -96 -90v-1c0 -52 42 -92 92 -91z" />
    <glyph glyph-name="seven.den" 
d="M170 -2h-55l181 357h-222v47h278v-36z" />
    <glyph glyph-name="eight.den" 
d="M210 -10c-85 0 -147 47 -147 117c0 49 32 82 76 101c-35 17 -64 47 -64 93c0 66 63 111 137 111c72 0 135 -46 135 -111c0 -46 -28 -76 -64 -93c44 -18 76 -53 76 -99c0 -72 -63 -119 -149 -119zM211 371c-53 0 -90 -29 -90 -72c0 -42 38 -74 90 -74s90 31 90 74
s-38 72 -90 72zM211 187c-61 0 -102 -34 -102 -79s40 -77 102 -77c61 0 101 32 101 77s-40 79 -101 79z" />
    <glyph glyph-name="nine.den" 
d="M209 183c55 0 96 38 96 92v1c0 54 -42 94 -92 93c-55 0 -94 -37 -94 -94c0 -56 35 -92 90 -92zM211 412c41 0 77 -16 100 -39c28 -28 49 -70 49 -157v-2c0 -136 -66 -224 -163 -224c-52 0 -88 18 -121 50l29 35c27 -26 53 -42 94 -42c60 0 112 65 113 161
c-24 -29 -55 -52 -109 -52c-71 0 -131 49 -131 131c0 79 61 139 139 139z" />
    <glyph glyph-name="fraction" unicode="&#x2044;" horiz-adv-x="114" 
d="M-216 0l257 372l238 356h51l-257 -372l-238 -356h-51z" />
    <glyph glyph-name="onehalf" unicode="&#xbd;" horiz-adv-x="867" 
d="M217 326h-48v358l-91 -34l-12 42l112 43h39v-409zM138 0l257 372l238 356h51l-257 -372l-238 -356h-51zM519 0v41l153 133c55 49 81 80 81 121c0 43 -35 74 -81 74c-45 0 -79 -24 -111 -72l-36 24c35 55 79 91 150 91c73 0 127 -49 127 -114c0 -57 -30 -93 -95 -149
l-122 -104h221v-45h-287z" />
    <glyph glyph-name="onehalf.alt" horiz-adv-x="945" 
d="M362 326h-282v42h121v316l-107 -38l-11 43l127 46h39v-367h113v-42zM221 0l257 372l238 356h51l-257 -372l-238 -356h-51zM597 0v41l153 133c55 49 81 80 81 121c0 43 -35 74 -81 74c-45 0 -79 -24 -111 -72l-36 24c35 55 79 91 150 91c73 0 127 -49 127 -114
c0 -57 -30 -93 -95 -149l-122 -104h221v-45h-287z" />
    <glyph glyph-name="onethird" unicode="&#x2153;" horiz-adv-x="867" 
d="M217 326h-48v358l-91 -34l-12 42l112 43h39v-409zM125 0l257 372l238 356h51l-257 -372l-238 -356h-51zM663 -10c-67 0 -117 30 -151 74l33 32c33 -41 71 -63 119 -63s88 32 88 79c0 50 -48 78 -111 78h-32l-9 30l134 137h-200v45h261v-39l-130 -133
c75 -6 136 -43 136 -118c0 -73 -63 -122 -138 -122z" />
    <glyph glyph-name="onethird.alt" horiz-adv-x="945" 
d="M362 326h-282v42h121v316l-107 -38l-11 43l127 46h39v-367h113v-42zM210 0l257 372l238 356h51l-257 -372l-238 -356h-51zM741 -10c-67 0 -117 30 -151 74l33 32c33 -41 71 -63 119 -63s88 32 88 79c0 50 -48 78 -111 78h-32l-9 30l134 137h-200v45h261v-39l-130 -133
c75 -6 136 -43 136 -118c0 -73 -63 -122 -138 -122z" />
    <glyph glyph-name="twothirds" unicode="&#x2154;" horiz-adv-x="945" 
d="M57 326v41l153 133c55 49 81 80 81 121c0 43 -35 74 -81 74c-45 0 -79 -24 -111 -72l-36 24c35 55 79 91 150 91c73 0 127 -50 127 -114c0 -57 -30 -93 -95 -149l-122 -104h221v-45h-287zM200 0l257 372l238 356h51l-257 -372l-238 -356h-51zM741 -10
c-67 0 -117 30 -151 74l33 32c33 -41 71 -63 119 -63s88 32 88 79c0 50 -48 78 -111 78h-32l-9 30l134 137h-200v45h261v-39l-130 -133c75 -6 136 -43 136 -118c0 -73 -63 -122 -138 -122z" />
    <glyph glyph-name="onequarter" unicode="&#xbc;" horiz-adv-x="867" 
d="M217 326h-48v358l-91 -34l-12 42l112 43h39v-409zM148 0l257 372l238 356h51l-257 -372l-238 -356h-51zM757 91v-93h-45v93h-198l-12 41l201 276h54v-276h56v-41h-56zM712 132v216l-159 -216h159z" />
    <glyph glyph-name="onequarter.alt" horiz-adv-x="945" 
d="M362 326h-282v42h121v316l-107 -38l-11 43l127 46h39v-367h113v-42zM226 0l257 372l238 356h51l-257 -372l-238 -356h-51zM835 91v-93h-45v93h-198l-12 41l201 276h54v-276h56v-41h-56zM790 132v216l-159 -216h159z" />
    <glyph glyph-name="threequarters" unicode="&#xbe;" horiz-adv-x="945" 
d="M221 0l257 372l238 356h51l-257 -372l-238 -356h-51zM211 316c-67 0 -117 30 -151 74l33 32c33 -42 71 -63 119 -63s88 32 88 79c0 50 -48 78 -111 78h-32l-9 30l134 137h-200v45h261v-39l-130 -133c75 -6 136 -43 136 -118c0 -73 -63 -122 -138 -122zM835 91v-93h-45v93
h-198l-12 41l201 276h54v-276h56v-41h-56zM790 132v216l-159 -216h159z" />
    <glyph glyph-name="onefifth" unicode="&#x2155;" horiz-adv-x="867" 
d="M217 326h-48v358l-91 -34l-12 42l112 43h39v-409zM130 0l257 372l238 356h51l-257 -372l-238 -356h-51zM662 -10c-59 0 -110 28 -147 68l32 34c35 -38 73 -59 116 -59c60 0 98 39 98 87c0 51 -41 82 -98 82c-33 0 -63 -9 -91 -22l-32 19l14 203h238v-47h-198l-9 -126
c25 11 52 17 84 17c78 0 142 -46 142 -123c0 -79 -66 -133 -149 -133z" />
    <glyph glyph-name="onefifth.alt" horiz-adv-x="945" 
d="M362 326h-282v42h121v316l-107 -38l-11 43l127 46h39v-367h113v-42zM216 0l257 372l238 356h51l-257 -372l-238 -356h-51zM740 -10c-59 0 -110 28 -147 68l32 34c35 -38 73 -59 116 -59c60 0 98 39 98 87c0 51 -41 82 -98 82c-33 0 -63 -9 -91 -22l-32 19l14 203h238v-47
h-198l-9 -126c25 11 52 17 84 17c78 0 142 -46 142 -123c0 -79 -66 -133 -149 -133z" />
    <glyph glyph-name="twofifths" unicode="&#x2156;" horiz-adv-x="945" 
d="M57 326v41l153 133c55 49 81 80 81 121c0 43 -35 74 -81 74c-45 0 -79 -24 -111 -72l-36 24c35 55 79 91 150 91c73 0 127 -50 127 -114c0 -57 -30 -93 -95 -149l-122 -104h221v-45h-287zM210 0l257 372l238 356h51l-257 -372l-238 -356h-51zM740 -10
c-59 0 -110 28 -147 68l32 34c35 -38 73 -59 116 -59c60 0 98 39 98 87c0 51 -41 82 -98 82c-33 0 -63 -9 -91 -22l-32 19l14 203h238v-47h-198l-9 -126c25 11 52 17 84 17c78 0 142 -46 142 -123c0 -79 -66 -133 -149 -133z" />
    <glyph glyph-name="threefifths" unicode="&#x2157;" horiz-adv-x="945" 
d="M195 0l257 372l238 356h51l-257 -372l-238 -356h-51zM201 316c-67 0 -117 30 -151 74l33 32c33 -42 71 -63 119 -63s88 32 88 79c0 50 -48 78 -111 78h-32l-9 30l134 137h-200v45h261v-39l-130 -133c75 -6 136 -43 136 -118c0 -73 -63 -122 -138 -122zM740 -10
c-59 0 -110 28 -147 68l32 34c35 -38 73 -59 116 -59c60 0 98 39 98 87c0 51 -41 82 -98 82c-33 0 -63 -9 -91 -22l-32 19l14 203h238v-47h-198l-9 -126c25 11 52 17 84 17c78 0 142 -46 142 -123c0 -79 -66 -133 -149 -133z" />
    <glyph glyph-name="fourfifths" unicode="&#x2158;" horiz-adv-x="945" 
d="M305 417v-93h-45v93h-198l-12 41l201 276h54v-276h56v-41h-56zM210 0l257 372l238 356h51l-257 -372l-238 -356h-51zM260 458v216l-159 -216h159zM740 -10c-59 0 -110 28 -147 68l32 34c35 -38 73 -59 116 -59c60 0 98 39 98 87c0 51 -41 82 -98 82c-33 0 -63 -9 -91 -22
l-32 19l14 203h238v-47h-198l-9 -126c25 11 52 17 84 17c78 0 142 -46 142 -123c0 -79 -66 -133 -149 -133z" />
    <glyph glyph-name="onesixth" unicode="&#x2159;" horiz-adv-x="867" 
d="M217 326h-48v358l-91 -34l-12 42l112 43h39v-409zM138 0l257 372l238 356h51l-257 -372l-238 -356h-51zM664 -10c-41 0 -77 16 -100 39c-28 28 -49 70 -49 157v2c0 133 66 224 163 224c52 0 84 -17 115 -48l-28 -35c-25 24 -52 40 -89 40c-60 0 -112 -69 -113 -165
c24 29 55 52 109 52c71 0 131 -49 131 -129c0 -78 -61 -137 -139 -137zM662 33c55 0 94 37 94 92c0 54 -35 90 -90 90s-96 -38 -96 -90v-1c0 -52 42 -92 92 -91z" />
    <glyph glyph-name="onesixth.alt" horiz-adv-x="945" 
d="M362 326h-282v42h121v316l-107 -38l-11 43l127 46h39v-367h113v-42zM216 0l257 372l238 356h51l-257 -372l-238 -356h-51zM742 -10c-41 0 -77 16 -100 39c-28 28 -49 70 -49 157v2c0 133 66 224 163 224c52 0 84 -17 115 -48l-28 -35c-25 24 -52 40 -89 40
c-60 0 -112 -69 -113 -165c24 29 55 52 109 52c71 0 131 -49 131 -129c0 -78 -61 -137 -139 -137zM740 33c55 0 94 37 94 92c0 54 -35 90 -90 90s-96 -38 -96 -90v-1c0 -52 42 -92 92 -91z" />
    <glyph glyph-name="fivesixths" unicode="&#x215a;" horiz-adv-x="945" 
d="M200 0l257 372l238 356h51l-257 -372l-238 -356h-51zM200 316c-59 0 -110 28 -147 68l32 34c35 -38 73 -59 116 -59c60 0 98 39 98 87c0 51 -41 82 -98 82c-33 0 -63 -9 -91 -22l-32 19l14 203h238v-47h-198l-9 -126c25 11 52 17 84 17c78 0 142 -46 142 -123
c0 -79 -66 -133 -149 -133zM742 -10c-41 0 -77 16 -100 39c-28 28 -49 70 -49 157v2c0 133 66 224 163 224c52 0 84 -17 115 -48l-28 -35c-25 24 -52 40 -89 40c-60 0 -112 -69 -113 -165c24 29 55 52 109 52c71 0 131 -49 131 -129c0 -78 -61 -137 -139 -137zM740 33
c55 0 94 37 94 92c0 54 -35 90 -90 90s-96 -38 -96 -90v-1c0 -52 42 -92 92 -91z" />
    <glyph glyph-name="oneeighth" unicode="&#x215b;" horiz-adv-x="867" 
d="M217 326h-48v358l-91 -34l-12 42l112 43h39v-409zM137 0l257 372l238 356h51l-257 -372l-238 -356h-51zM665 -10c-85 0 -147 47 -147 117c0 49 32 82 76 101c-35 17 -64 47 -64 93c0 66 63 111 137 111c72 0 135 -46 135 -111c0 -46 -28 -76 -64 -93
c44 -18 76 -53 76 -99c0 -72 -63 -119 -149 -119zM666 371c-53 0 -90 -29 -90 -72c0 -42 38 -74 90 -74s90 31 90 74s-38 72 -90 72zM666 187c-61 0 -102 -34 -102 -79s40 -77 102 -77c61 0 101 32 101 77s-40 79 -101 79z" />
    <glyph glyph-name="oneeighth.alt" horiz-adv-x="945" 
d="M362 326h-282v42h121v316l-107 -38l-11 43l127 46h39v-367h113v-42zM216 0l257 372l238 356h51l-257 -372l-238 -356h-51zM743 -10c-85 0 -147 47 -147 117c0 49 32 82 76 101c-35 17 -64 47 -64 93c0 66 63 111 137 111c72 0 135 -46 135 -111c0 -46 -28 -76 -64 -93
c44 -18 76 -53 76 -99c0 -72 -63 -119 -149 -119zM744 371c-53 0 -90 -29 -90 -72c0 -42 38 -74 90 -74s90 31 90 74s-38 72 -90 72zM744 187c-61 0 -102 -34 -102 -79s40 -77 102 -77c61 0 101 32 101 77s-40 79 -101 79z" />
    <glyph glyph-name="threeeighths" unicode="&#x215c;" horiz-adv-x="945" 
d="M200 0l257 372l238 356h51l-257 -372l-238 -356h-51zM201 316c-67 0 -117 30 -151 74l33 32c33 -42 71 -63 119 -63s88 32 88 79c0 50 -48 78 -111 78h-32l-9 30l134 137h-200v45h261v-39l-130 -133c75 -6 136 -43 136 -118c0 -73 -63 -122 -138 -122zM743 -10
c-85 0 -147 47 -147 117c0 49 32 82 76 101c-35 17 -64 47 -64 93c0 66 63 111 137 111c72 0 135 -46 135 -111c0 -46 -28 -76 -64 -93c44 -18 76 -53 76 -99c0 -72 -63 -119 -149 -119zM744 371c-53 0 -90 -29 -90 -72c0 -42 38 -74 90 -74s90 31 90 74s-38 72 -90 72z
M744 187c-61 0 -102 -34 -102 -79s40 -77 102 -77c61 0 101 32 101 77s-40 79 -101 79z" />
    <glyph glyph-name="fiveeighths" unicode="&#x215d;" horiz-adv-x="945" 
d="M200 0l257 372l238 356h51l-257 -372l-238 -356h-51zM200 316c-59 0 -110 28 -147 68l32 34c35 -38 73 -59 116 -59c60 0 98 39 98 87c0 51 -41 82 -98 82c-33 0 -63 -9 -91 -22l-32 19l14 203h238v-47h-198l-9 -126c25 11 52 17 84 17c78 0 142 -46 142 -123
c0 -79 -66 -133 -149 -133zM743 -10c-85 0 -147 47 -147 117c0 49 32 82 76 101c-35 17 -64 47 -64 93c0 66 63 111 137 111c72 0 135 -46 135 -111c0 -46 -28 -76 -64 -93c44 -18 76 -53 76 -99c0 -72 -63 -119 -149 -119zM744 371c-53 0 -90 -29 -90 -72
c0 -42 38 -74 90 -74s90 31 90 74s-38 72 -90 72zM744 187c-61 0 -102 -34 -102 -79s40 -77 102 -77c61 0 101 32 101 77s-40 79 -101 79z" />
    <glyph glyph-name="seveneighths" unicode="&#x215e;" horiz-adv-x="945" 
d="M169 0l257 372l238 356h51l-257 -372l-238 -356h-51zM173 324h-55l181 357h-222v47h278v-36zM743 -10c-85 0 -147 47 -147 117c0 49 32 82 76 101c-35 17 -64 47 -64 93c0 66 63 111 137 111c72 0 135 -46 135 -111c0 -46 -28 -76 -64 -93c44 -18 76 -53 76 -99
c0 -72 -63 -119 -149 -119zM744 371c-53 0 -90 -29 -90 -72c0 -42 38 -74 90 -74s90 31 90 74s-38 72 -90 72zM744 187c-61 0 -102 -34 -102 -79s40 -77 102 -77c61 0 101 32 101 77s-40 79 -101 79z" />
    <glyph glyph-name="zero.tab" horiz-adv-x="630" 
d="M314 -12c-147 0 -255 138 -255 371v8c0 233 110 373 257 373c145 0 255 -138 255 -371v-8c0 -233 -111 -373 -257 -373zM315 679c-106 0 -186 -112 -186 -310v-8c0 -198 79 -312 186 -312c106 0 186 112 186 310v8c0 198 -79 312 -186 312z" />
    <glyph glyph-name="one.tab" horiz-adv-x="630" 
d="M587 0h-492v62h222v597l-198 -68l-18 58l232 84h51v-671h203v-62z" />
    <glyph glyph-name="two.tab" horiz-adv-x="630" 
d="M558 0h-501v53l266 240c114 104 156 163 156 237c0 89 -72 146 -156 146c-88 0 -146 -47 -202 -134l-52 36c65 99 134 160 259 160c129 0 222 -86 222 -202v-2c0 -101 -53 -167 -174 -276l-215 -193h397v-65z" />
    <glyph glyph-name="three.tab" horiz-adv-x="630" 
d="M310 -12c-116 0 -198 51 -255 124l49 46c55 -67 118 -108 208 -108c92 0 175 60 175 156v2c0 91 -78 140 -194 140h-60l-21 45l248 271h-373v64h459v-60l-242 -262c138 -1 254 -64 254 -195v-2c0 -134 -117 -221 -248 -221z" />
    <glyph glyph-name="three.tab_alt" horiz-adv-x="630" 
d="M311 -12c-110 0 -205 53 -261 131l52 40c50 -69 122 -111 212 -111c106 0 181 58 181 147c0 90 -75 142 -205 142h-72v60h79c106 0 184 52 184 144c0 82 -64 139 -166 139c-88 0 -150 -41 -200 -108l-50 34c56 80 137 134 252 134c138 0 234 -81 234 -194
c0 -97 -68 -151 -135 -176c84 -26 148 -79 148 -176c0 -116 -104 -206 -253 -206z" />
    <glyph glyph-name="four.tab" horiz-adv-x="630" 
d="M423 0v172h-365l-17 60l365 500h81v-502h105v-58h-105v-172h-64zM423 229v426l-312 -426h312z" />
    <glyph glyph-name="five.tab" horiz-adv-x="630" 
d="M311 -12c-109 0 -192 49 -254 114l47 48c61 -64 128 -101 209 -101c109 0 184 72 184 170v2c0 96 -74 162 -183 162c-68 0 -120 -20 -164 -42l-48 31l24 356h409v-65h-350l-19 -253c45 21 93 35 155 35c139 0 247 -86 247 -221v-2c0 -139 -112 -234 -257 -234z" />
    <glyph glyph-name="six.tab" horiz-adv-x="630" 
d="M337 460c126 0 233 -85 233 -227v-2c0 -141 -108 -243 -243 -243c-71 0 -134 27 -175 67c-56 57 -88 129 -88 284v4c0 231 107 397 291 397c77 0 135 -29 188 -75l-39 -53c-41 38 -90 67 -153 67c-144 0 -218 -154 -218 -321v-12c44 74 114 114 204 114zM325 47
c109 0 177 81 177 182v1c0 103 -73 172 -172 171c-116 0 -184 -81 -184 -174v-1c0 -105 80 -180 179 -179z" />
    <glyph glyph-name="seven.tab" horiz-adv-x="630" 
d="M487 663h-409v65h487v-52l-328 -676h-77z" />
    <glyph glyph-name="eight.tab" horiz-adv-x="630" 
d="M315 -11c-148 0 -259 84 -259 204v4c0 85 62 149 148 180c-67 30 -125 84 -125 169v3c0 113 111 190 236 190c124 0 236 -77 236 -190v-3c0 -84 -58 -139 -125 -169c85 -31 148 -94 148 -180v-3c0 -122 -112 -205 -259 -205zM315 401c92 0 167 59 167 142v2
c0 78 -72 135 -167 135s-167 -57 -167 -135v-2c0 -83 75 -142 167 -142zM315 48c119 0 190 67 190 146v3c0 85 -85 147 -190 147c-106 0 -190 -62 -190 -147v-3c0 -79 71 -146 190 -146z" />
    <glyph glyph-name="nine.tab" horiz-adv-x="630" 
d="M305 681c-109 0 -177 -82 -177 -185v-1c0 -105 72 -175 171 -174c116 0 185 82 185 177v1c0 107 -80 183 -179 182zM292 262c-126 0 -232 85 -232 230v2c0 144 108 246 243 246c71 0 134 -27 175 -67c56 -57 88 -129 88 -284v-4c0 -231 -107 -397 -291 -397
c-78 0 -142 31 -198 80l39 53c51 -44 100 -72 163 -72c144 0 218 161 218 322v5c-44 -74 -115 -114 -205 -114z" />
    <glyph glyph-name="dollar.tab" horiz-adv-x="630" 
d="M150 541c0 -59 31 -109 153 -139l34 268c-10 1 -19 1 -29 1c-95 0 -159 -52 -158 -129v-1zM502 191c0 68 -37 111 -157 139l-34 -273h20c104 0 172 58 171 133v1zM407 810l-11 -90c57 -12 106 -36 153 -72l-35 -53c-42 34 -84 56 -129 67l-33 -271
c148 -33 215 -92 215 -197v-1c0 -111 -99 -195 -240 -194c-7 0 -13 0 -19 1l-16 -123h-56l16 128c-77 14 -143 50 -196 98l37 50c50 -45 103 -77 169 -90l34 277c-146 34 -211 96 -211 199v1c0 111 96 190 227 189c10 0 19 -1 29 -1l10 82h56z" />
    <glyph glyph-name="sterling.tab" horiz-adv-x="630" 
d="M152 375v121c0 75 21 138 64 182c36 36 88 60 157 60c89 0 153 -42 197 -96l-48 -46c-37 46 -86 80 -149 80c-48 0 -81 -15 -107 -42c-30 -30 -47 -77 -47 -136v-123h278v-59h-278v-255h354v-61h-504v37l83 21v258h-84v59h84z" />
    <glyph glyph-name="Euro.tab" horiz-adv-x="630" 
d="M45 428v53h85c31 148 123 259 259 259c90 0 149 -44 192 -101l-46 -43c-40 54 -86 85 -148 85c-97 0 -165 -84 -190 -200h245v-53h-254c-2 -19 -3 -39 -3 -60v-6c0 -19 0 -38 2 -55h255v-53h-246c24 -120 89 -207 189 -207c71 0 113 33 156 88l43 -38
c-46 -62 -107 -109 -201 -109c-130 0 -227 104 -255 266h-83v53h76c-2 17 -2 34 -2 52v10c0 19 1 39 3 59h-77z" />
    <glyph glyph-name="yen.tab" horiz-adv-x="630" 
d="M96 171h187v109h-187v52h170l-240 396h78l212 -365l213 365h75l-243 -396h173v-52h-187v-109h187v-52h-187v-119h-64v119h-187v52z" />
    <glyph glyph-name="cent.tab" horiz-adv-x="630" 
d="M131 364c0 -98 53 -174 133 -203l85 429h-7c-123 0 -211 -99 -211 -224v-2zM437 734l-20 -96c62 -15 108 -49 146 -91l-43 -44c-34 37 -70 66 -118 79l-87 -432c8 -1 15 -1 23 -1c80 0 141 40 187 90l42 -38c-55 -62 -132 -110 -233 -110c-10 0 -19 0 -28 1l-20 -98h-60
l23 110c-110 35 -184 137 -184 260v2c0 150 118 281 278 281c6 0 11 0 17 -1l18 88h59z" />
    <glyph glyph-name="numbersign.tab" horiz-adv-x="630" 
d="M237 484l-34 -236h190l33 236h-189zM38 249h110l32 234h-108v59h117l26 186h57l-27 -186h189l26 186h57l-26 -186h101v-59h-110l-33 -234h109v-59h-117l-27 -190h-56l26 190h-188l-26 -190h-57l26 190h-101v59z" />
    <glyph glyph-name="paragraph.tab" horiz-adv-x="630" 
d="M435 0v281h-76c-162 0 -281 81 -281 221v1c0 140 116 226 286 225h142v-728h-71z" />
    <glyph glyph-name="section.tab" horiz-adv-x="630" 
d="M243 460c-72 2 -115 -33 -115 -73v-1c0 -40 35 -70 138 -97c66 -17 88 -21 121 -21c72 -2 115 33 115 73v1c0 41 -35 70 -138 97c-66 17 -91 21 -121 21zM328 -10c-88 0 -170 35 -223 88l41 48c46 -45 110 -79 186 -79c67 0 103 32 103 72v1c0 45 -42 77 -149 105
c-168 45 -223 85 -223 156v1c0 60 55 106 143 114c-49 27 -79 61 -79 109v1c0 77 74 133 175 132c88 0 170 -35 223 -88l-41 -48c-46 45 -110 79 -186 79c-67 0 -103 -32 -103 -72v-1c0 -45 42 -77 149 -105c168 -45 223 -85 223 -156v-1c0 -60 -55 -106 -143 -114
c49 -27 79 -61 79 -109v-1c0 -77 -74 -133 -175 -132z" />
    <glyph glyph-name="degree.tab" horiz-adv-x="630" 
d="M314 323c-114 0 -209 92 -209 206v1c0 112 97 207 211 206c114 0 209 -93 209 -207v-1c0 -112 -97 -206 -211 -205zM316 374c88 0 152 68 152 155v1c0 86 -66 156 -154 155c-88 0 -152 -68 -152 -156v-1c0 -85 66 -155 154 -154z" />
    <glyph glyph-name="percent.tab" horiz-adv-x="630" 
d="M163 736c73 0 122 -75 122 -175v-5c0 -100 -49 -177 -122 -177c-74 0 -123 75 -123 175v5c0 100 49 177 123 177zM484 728h49l-201 -373l-186 -355h-49l201 373zM163 691c-48 0 -73 -58 -73 -128v-10c0 -71 25 -129 73 -129c47 0 72 58 72 129v10c0 70 -25 128 -72 128z
M467 349c74 0 123 -75 123 -175v-5c0 -100 -49 -177 -123 -177c-73 0 -122 75 -122 175v5c0 100 49 177 122 177zM467 304c-47 0 -72 -58 -72 -129v-10c0 -70 25 -128 72 -128c48 0 73 58 73 128v10c0 71 -25 129 -73 129z" />
    <glyph glyph-name="quotedbl.tab" horiz-adv-x="630" 
d="M139 454l63 274h85v-5l-110 -269h-38zM363 454l63 274h85v-5l-110 -269h-38z" />
    <glyph glyph-name="quotesingle.tab" horiz-adv-x="315" 
d="M94 454l63 274h85v-5l-109 -269h-39z" />
    <glyph glyph-name="period.tab" horiz-adv-x="315" 
d="M109 0v110h98v-110h-98z" />
    <glyph glyph-name="comma.tab" horiz-adv-x="315" 
d="M98 -120l-13 32c49 21 68 46 65 88h-41v110h98v-96c0 -76 -38 -113 -109 -134z" />
    <glyph glyph-name="colon.tab" horiz-adv-x="315" 
d="M109 426v108h98v-108h-98zM109 0v109h98v-109h-98z" />
    <glyph glyph-name="semicolon.tab" horiz-adv-x="315" 
d="M109 426v108h98v-108h-98zM98 -120l-13 32c49 21 68 46 65 88h-41v109h98v-95c0 -76 -38 -113 -109 -134z" />
    <glyph glyph-name="twodotleader.tab" horiz-adv-x="630" 
d="M112 0v103h94v-103h-94zM424 0v103h94v-103h-94z" />
    <glyph glyph-name="periodcentered.tab" horiz-adv-x="315" 
d="M109 257v109h98v-109h-98z" />
    <glyph glyph-name="slash.tab" horiz-adv-x="630" 
d="M603 830l-527 -963h-64l527 963h64z" />
    <glyph glyph-name="bar.tab" horiz-adv-x="315" 
d="M129 -133v963h58v-963h-58z" />
    <glyph glyph-name="underscore.tab" horiz-adv-x="630" 
d="M1 -166v57h628v-57h-628z" />
    <glyph glyph-name="plus.tab" horiz-adv-x="630" 
d="M558 335h-210v-216h-66v216h-210v63l210 -1v216h66v-216l210 1v-63z" />
    <glyph glyph-name="minus.tab" horiz-adv-x="630" 
d="M558 333h-486v66h486v-66z" />
    <glyph glyph-name="divide.tab" horiz-adv-x="630" 
d="M267 519v101h96v-101h-96zM558 335h-486v62h486v-62zM267 112v101h96v-101h-96z" />
    <glyph glyph-name="equal.tab" horiz-adv-x="630" 
d="M540 451h-450v65h450v-65zM540 217h-450v64h450v-64z" />
    <glyph glyph-name="multiply.tab" horiz-adv-x="630" 
d="M497 138l-183 185l-183 -185l-44 44l185 183l-185 183l46 46l183 -185l183 185l44 -44l-185 -183l185 -183z" />
    <glyph glyph-name="less.tab" horiz-adv-x="630" 
d="M530 97l-458 242v55l458 241v-67l-387 -201l387 -202v-68z" />
    <glyph glyph-name="greater.tab" horiz-adv-x="630" 
d="M558 339l-458 -242v67l387 201l-387 203v67l458 -241v-55z" />
    <glyph glyph-name="plusminus.tab" horiz-adv-x="630" 
d="M558 376h-210v-207h-66v207h-210v63l210 -1v207h66v-207l210 1v-63zM558 0h-486v62h486v-62z" />
    <glyph glyph-name="baht" unicode="&#xe3f;" horiz-adv-x="668" 
d="M271 -123h-56l19 123h-131v728h251l13 82h56l-14 -87c103 -17 170 -81 170 -176v-1c0 -100 -64 -150 -129 -173c89 -23 158 -74 158 -174v-1c0 -124 -101 -198 -252 -198h-66zM168 394h135l44 275h-179v-275zM514 538c0 66 -43 114 -118 127l-44 -271
c98 3 162 54 162 143v1zM168 59h80l46 281h-126v-281zM350 340h-7l-46 -281h61c114 0 185 52 185 140v1c0 89 -69 141 -193 140z" />
    <glyph glyph-name="colonmonetary" unicode="&#x20a1;" horiz-adv-x="637" 
d="M268 78c31 -15 65 -23 102 -23l100 596c-29 14 -62 22 -100 22h-1zM125 360c0 -117 41 -206 104 -257l95 565c-115 -23 -199 -134 -199 -300v-8zM495 810h49l-19 -120c20 -12 39 -26 58 -42l-34 -52c-13 11 -25 22 -39 31l-95 -568c52 9 93 35 137 76l36 -44
c-50 -47 -106 -82 -181 -91l-20 -123h-49l20 121c-35 1 -67 7 -98 18l-22 -139h-50l27 162c-94 57 -155 171 -155 321v7c0 203 115 342 272 361l13 82h50l-14 -79c37 -1 69 -8 97 -19z" />
    <glyph glyph-name="florin" unicode="&#x192;" horiz-adv-x="541" 
d="M100 -5c-22 0 -38 2 -52 4v58c15 -3 28 -4 46 -4c45 0 73 26 83 82l48 258h-107v59h118l25 132c20 104 66 149 156 149c34 0 56 -3 81 -11v-58c-24 6 -50 10 -72 10c-55 0 -83 -28 -96 -98l-23 -124h155v-59h-165l-50 -264c-17 -92 -63 -134 -147 -134z" />
    <glyph glyph-name="naira" unicode="&#x20a6;" horiz-adv-x="866" 
d="M221 652v-163h102l-101 163h-1zM423 440l93 -148h128v148h-221zM221 440v-148h225l-92 148h-133zM644 87v156h-98zM812 241h-103v-241h-84l-150 241h-253v-241h-65v241h-103v52h103v146h-103v52h103v237h91l147 -237h249v237h65v-237h103v-52h-103v-146h103v-52z" />
    <glyph glyph-name="peso" unicode="&#x20b1;" horiz-adv-x="757" 
d="M145 0v467h-101v52h101v209h206c154 0 260 -79 270 -209h102v-52h-102c-12 -142 -139 -215 -284 -215h-122v-252h-70zM214 666v-149h338c-10 98 -90 149 -208 149h-130zM340 313c121 0 204 62 212 156h-338v-156h126z" />
    <glyph glyph-name="R_p" horiz-adv-x="1242" 
d="M158 346h174c111 0 188 61 188 162v2c0 100 -71 157 -186 157h-176v-321zM954 47c92 0 169 80 169 218v8c0 135 -80 218 -169 218s-177 -85 -177 -217v-9c0 -133 88 -218 177 -218zM92 0v728h246c153 0 249 -87 249 -215v-3c0 -114 -76 -187 -177 -211l203 -299h-81
l-193 287h-181v-287h-66zM716 -166v704h64v-109c38 65 97 120 185 120c112 0 224 -99 224 -275v-9c0 -175 -112 -276 -224 -276c-89 0 -148 55 -185 116v-271h-64z" />
    <glyph glyph-name="rupee" unicode="&#x20a8;" horiz-adv-x="1129" 
d="M158 346h174c111 0 188 61 188 162v2c0 100 -71 157 -186 157h-176v-321zM92 0v728h246c153 0 249 -87 249 -215v-3c0 -114 -76 -187 -177 -211l203 -299h-81l-193 287h-181v-287h-66zM883 -10c-77 0 -153 30 -209 75l35 49c56 -43 110 -67 177 -67c65 0 118 35 118 91v2
c0 43 -28 68 -129 101c-123 39 -176 79 -176 156v2c0 87 76 146 174 146c68 0 131 -24 183 -59l-31 -52c-47 32 -99 54 -154 54c-65 0 -109 -37 -109 -85v-2c0 -45 33 -70 136 -103c121 -37 170 -77 170 -155v-2c0 -94 -84 -151 -185 -151z" />
    <glyph glyph-name="won" unicode="&#x20a9;" horiz-adv-x="1157" 
d="M576 654l-42 -144h88l-41 144h-5zM520 459l-48 -166h213l-48 166h-117zM706 439l41 -146h128l38 146h-207zM247 439l38 -146h128l41 146h-207zM811 66h5l46 176h-100zM345 66h5l49 176h-100zM1062 728l-69 -239h116v-51h-130l-42 -145h172v-51h-186l-70 -245h-80l-73 245
h-243l-72 -245h-81l-70 245h-186v51h171l-41 145h-130v51h115l-68 239h76l65 -239h232l70 241h85l68 -241h235l65 239h71z" />
    <glyph glyph-name="hryvnia" unicode="&#x20b4;" horiz-adv-x="669" 
d="M69 450l6 46l328 -40c61 49 83 81 82 122c0 64 -54 100 -134 100c-60 0 -130 -25 -189 -75l-39 50c57 49 141 87 232 87c132 0 204 -71 204 -161c0 -53 -25 -90 -73 -133l139 -16l-7 -46l-183 22l-110 -88l279 -33l-6 -46l-325 39c-71 -58 -90 -90 -89 -127
c0 -70 60 -102 140 -102c67 0 138 25 206 77l39 -51c-68 -51 -151 -87 -248 -87c-147 0 -211 72 -211 160c0 47 24 89 80 140l-142 17l7 46l185 -22l111 87z" />
    <glyph glyph-name="numero" unicode="&#x2116;" horiz-adv-x="1177" 
d="M924 298c-109 0 -184 94 -184 213v6c0 120 77 214 186 214s184 -94 184 -213v-6c0 -120 -77 -214 -186 -214zM925 349c76 0 129 73 129 162v6c0 91 -53 163 -129 163s-128 -73 -128 -162v-6c0 -91 52 -163 128 -163zM95 0v728h63l398 -597v597h64v-728h-54l-407 611v-611
h-64zM743 152v50h364v-50h-364z" />
    <glyph glyph-name="sheqel" unicode="&#x20aa;" horiz-adv-x="656" 
d="M372 369c0 76 -37 106 -113 106h-117v-475h-59v534h181c106 0 159 -45 159 -152v-197h-51v184zM251 145l-34 214h53l32 -196c11 -70 44 -104 114 -104h98v475h60v-534h-159c-98 0 -148 48 -164 145z" />
    <glyph glyph-name="Delta" unicode="&#x2206;" horiz-adv-x="831" 
d="M62 0l-6 52l325 681h69l325 -681l-6 -52h-707zM414 655l-279 -591h557z" />
    <glyph glyph-name="Omega" unicode="&#x2126;" horiz-adv-x="913" 
d="M457 740c216 0 360 -150 360 -348v-1c0 -138 -71 -243 -196 -330l221 2v-63h-310v59c126 83 212 172 212 329v1c0 168 -116 289 -288 288c-171 0 -287 -119 -287 -288v-1c0 -150 84 -245 212 -329v-59h-310v63l220 -2c-122 87 -195 188 -195 331v1c0 191 143 348 361 347
z" />
    <glyph glyph-name="mu" unicode="&#xb5;" horiz-adv-x="701" 
d="M676 56v-58c-15 -3 -29 -6 -52 -6c-72 0 -114 33 -124 100c-38 -65 -98 -104 -169 -104c-77 0 -137 38 -173 111h-1c7 -59 7 -88 7 -133v-132h-66v700h67v-308c0 -99 71 -178 166 -178s165 79 165 178v308h67v-410c2 -49 25 -73 73 -73c16 0 29 2 40 5z" />
    <glyph glyph-name="asciicircum" unicode="^" horiz-adv-x="530" 
d="M75 513l162 218h56l162 -218h-64l-127 166l-127 -166h-62z" />
    <glyph glyph-name="asciitilde" unicode="~" horiz-adv-x="496" 
d="M317 258c-22 0 -45 10 -71 22c-23 10 -48 21 -65 21c-26 0 -38 -14 -53 -52l-43 12c21 76 47 103 94 103c22 0 45 -9 71 -21c23 -10 48 -21 65 -21c26 0 38 13 53 52l43 -12c-20 -77 -47 -104 -94 -104z" />
    <glyph glyph-name="hcoslug" horiz-adv-x="694" 
d="M644 700v-800h-594v800h594zM247 428c0 17 11 29 27 29c17 0 29 -15 29 -38c0 -17 -7 -33 -18 -50c-23 22 -38 36 -38 59zM312 342c19 13 33 24 42 34c23 -23 18 -47 -1 -80c-13 15 -25 30 -41 46zM261 219c-30 0 -52 23 -52 54c0 15 5 29 16 40c18 -17 46 -47 74 -82
c-11 -9 -23 -12 -38 -12zM382 264c15 20 31 33 46 42c9 -15 25 -25 43 -25c28 0 50 23 50 54s-22 52 -50 52c-25 0 -44 -14 -60 -38c-2 27 -22 38 -49 37c6 10 9 21 9 34c0 35 -33 74 -95 74c-67 0 -109 -42 -109 -85c0 -29 10 -47 31 -69c-53 -18 -82 -49 -82 -91
c0 -53 49 -93 109 -93c42 0 76 14 104 45c33 -34 55 -45 85 -45c43 0 78 36 80 94l-7 2c-10 -17 -22 -29 -43 -29c-20 0 -37 12 -62 41zM286 124l-12 -2v-9h-7v-7h7v-20c0 -8 4 -13 12 -13s12 4 14 13l-5 2c-1 -5 -3 -7 -5 -7c-3 0 -4 2 -4 5v20h13v7h-13v11zM174 94
c0 -13 9 -21 21 -21s21 9 21 21s-9 20 -21 20s-21 -8 -21 -20zM203 94c0 -12 -3 -16 -8 -16s-8 4 -8 16c0 11 3 15 8 15s8 -4 8 -15zM219 81v-7h22v7h-4v15c0 6 3 10 7 10s6 -3 6 -7v-18h-4v-7h22v7h-6v19c0 8 -3 14 -12 14c-7 0 -11 -4 -14 -11v10h-17v-7h6v-25h-6zM379 93
c0 -8 -2 -13 -7 -13c-6 0 -8 5 -8 13c0 7 2 13 8 13c5 0 7 -5 7 -13zM125 81v-7h30v7h-10v16h4c5 0 5 -1 6 -8h7v23h-7c-1 -7 -1 -8 -6 -8h-4v18h12c7 0 9 -2 11 -13h8v20h-51v-7h7v-41h-7zM302 88v-14h7l1 4c3 -2 6 -5 13 -5c9 0 14 6 14 13c0 16 -24 10 -24 18
c0 2 2 4 5 4c4 0 7 -3 10 -7h7v13h-6l-2 -5c-2 3 -6 5 -11 5c-9 0 -14 -6 -14 -12c0 -16 24 -11 24 -19c0 -2 -2 -4 -5 -4c-5 0 -8 3 -12 9h-7zM352 125v-52h6l4 8c3 -5 7 -8 14 -8c12 0 16 12 16 21c0 12 -6 20 -15 20c-6 0 -11 -3 -13 -9v27h-18v-7h6zM405 65
c3 3 2 10 -5 10c-4 0 -7 -3 -7 -7c0 -5 4 -9 11 -9c9 0 14 6 18 16l13 31h5v7h-17v-7h5l-8 -20l-9 20h6v7h-25v-7h5s12 -23 16 -33c-1 -5 -4 -8 -8 -8zM294 39v3c0 10 3 12 6 12c2 0 3 -1 3 -1s-1 -1 -1 -3c0 -4 3 -6 6 -6v-5h-14zM464 33h-18v-7h6c-1 -3 -4 -7 -6 -9
c-4 4 -7 8 -12 13c7 3 11 6 11 12s-5 12 -14 12c-10 0 -17 -7 -17 -14c0 -5 2 -8 6 -12c-7 -2 -13 -7 -13 -15s6 -14 18 -14c6 0 11 2 15 6c4 -5 7 -6 12 -6c8 0 11 5 13 12l-5 1c-1 -4 -2 -5 -4 -5s-4 2 -6 5c3 4 6 8 9 14h5v7zM469 27c0 -17 11 -28 29 -28
c15 0 23 9 24 23h-8c-1 -9 -6 -16 -14 -16c-10 0 -16 7 -16 22c0 16 6 22 14 22s11 -4 15 -16h8v22h-8l-1 -6c-4 4 -9 7 -16 7c-14 0 -27 -12 -27 -30zM431 33c-4 4 -6 7 -6 10s2 5 5 5c4 0 6 -3 6 -6c0 -4 -2 -7 -5 -9zM340 18h26c1 13 -5 22 -19 22c-11 0 -20 -9 -20 -21
s8 -20 21 -20c11 0 16 6 18 14h-7c-1 -5 -4 -7 -9 -7c-7 0 -10 3 -10 12zM525 20c0 -13 9 -21 21 -21s21 9 21 21s-9 20 -21 20s-21 -8 -21 -20zM189 20c0 -13 9 -21 21 -21s21 9 21 21s-9 20 -21 20s-21 -8 -21 -20zM247 18h26c1 13 -5 22 -19 22c-11 0 -20 -9 -20 -21
s8 -20 21 -20c11 0 16 6 18 14h-7c-1 -5 -4 -7 -9 -7c-7 0 -10 3 -10 12zM340 23c0 9 3 12 7 12c5 0 7 -4 7 -12h-14zM554 20c0 -12 -3 -16 -8 -16s-8 4 -8 16c0 11 3 15 8 15s8 -4 8 -15zM218 20c0 -12 -3 -16 -8 -16s-8 4 -8 16c0 11 3 15 8 15s8 -4 8 -15zM247 23
c0 9 3 12 7 12c5 0 7 -4 7 -12h-14zM368 7v-7h26v7h-8v16c2 5 5 9 7 9v-1c0 -4 3 -6 6 -6c4 0 7 3 7 7c0 5 -3 8 -8 8s-9 -3 -12 -11v10h-18v-7h6v-25h-6zM276 7v-7h23v7h-5v25h14v-25h-5v-7h23v7h-6v52l-10 -2c-2 1 -6 2 -9 2c-10 0 -19 -6 -19 -19v-1h-7v-7h7v-25h-6z
M124 7v-7h29v7h-8v18h22v-18h-8v-7h29v7h-8v41h8v7h-29v-7h8v-16h-22v16h8v7h-29v-7h8v-41h-8zM437 9c-3 -2 -6 -3 -8 -3c-6 0 -10 4 -10 10c0 4 2 7 4 9c5 -5 9 -10 14 -16zM583 6c0 4 -3 7 -7 7s-7 -3 -7 -7s3 -7 7 -7s7 3 7 7z" />
    <glyph glyph-name="space" unicode=" " horiz-adv-x="322" 
 />
    <glyph glyph-name="uni00A0" unicode="&#xa0;" horiz-adv-x="322" 
 />
    <glyph glyph-name="emspace" unicode="&#x2003;" horiz-adv-x="1000" 
 />
    <glyph glyph-name="enspace" unicode="&#x2002;" horiz-adv-x="500" 
 />
    <glyph glyph-name="threeperemspace" unicode="&#x2004;" horiz-adv-x="333" 
 />
    <glyph glyph-name="fourperemspace" unicode="&#x2005;" horiz-adv-x="250" 
 />
    <glyph glyph-name="thinspace" unicode="&#x2009;" horiz-adv-x="133" 
 />
    <glyph glyph-name="hairspace" unicode="&#x200a;" horiz-adv-x="75" 
 />
    <glyph glyph-name="space.tab" horiz-adv-x="315" 
 />
    <glyph glyph-name="figurespace" unicode="&#x2007;" horiz-adv-x="630" 
 />
    <glyph glyph-name="NUL" horiz-adv-x="0" 
 />
    <glyph glyph-name="acute" unicode="&#xb4;" horiz-adv-x="530" 
d="M200 619l95 145l74 -35l-115 -110h-54z" />
    <glyph glyph-name="hungarumlaut" unicode="&#x2dd;" horiz-adv-x="530" 
d="M109 619l96 145l68 -35l-109 -110h-55zM258 619l96 145l69 -35l-110 -110h-55z" />
    <glyph glyph-name="grave" unicode="`" horiz-adv-x="530" 
d="M276 619l-115 110l74 35l95 -145h-54z" />
    <glyph glyph-name="caron.alt" horiz-adv-x="530" 
d="M223 606l16 164h71v-3l-52 -161h-35z" />
    <glyph glyph-name="circumflex" unicode="&#x2c6;" horiz-adv-x="530" 
d="M129 619l107 132h58l108 -132h-60l-78 70l-78 -70h-57z" />
    <glyph glyph-name="caron" unicode="&#x2c7;" horiz-adv-x="530" 
d="M402 751l-108 -132h-58l-107 132h59l78 -70l78 70h58z" />
    <glyph glyph-name="breve" unicode="&#x2d8;" horiz-adv-x="530" 
d="M265 617c-82 0 -141 46 -147 124h50c13 -39 43 -66 97 -66s84 27 97 66h50c-6 -78 -65 -124 -147 -124z" />
    <glyph glyph-name="tilde" unicode="&#x2dc;" horiz-adv-x="530" 
d="M334 619c-22 0 -45 10 -71 21c-23 10 -48 21 -65 21c-26 0 -38 -13 -53 -52l-43 12c20 77 47 104 94 104c22 0 45 -10 71 -21c23 -10 48 -21 65 -21c26 0 38 13 53 51l43 -11c-20 -77 -47 -104 -94 -104z" />
    <glyph glyph-name="macron" unicode="&#xaf;" horiz-adv-x="530" 
d="M107 643v57h316v-57h-316z" />
    <glyph glyph-name="dieresis" unicode="&#xa8;" horiz-adv-x="530" 
d="M135 619v92h84v-92h-84zM311 619v92h84v-92h-84z" />
    <glyph glyph-name="dotaccent" unicode="&#x2d9;" horiz-adv-x="530" 
d="M221 619v92h88v-92h-88z" />
    <glyph glyph-name="ring" unicode="&#x2da;" horiz-adv-x="530" 
d="M265 617c-61 0 -111 48 -111 106c0 59 50 107 111 107s111 -48 111 -107c0 -58 -50 -106 -111 -106zM265 651c39 0 72 33 72 72c0 40 -33 73 -72 73s-72 -33 -72 -73c0 -39 33 -72 72 -72z" />
    <glyph glyph-name="commaaccent" unicode="&#x326;" horiz-adv-x="530" 
d="M206 -244l-7 28c45 9 64 27 61 61h-38v80h86v-70c0 -59 -34 -91 -102 -99z" />
    <glyph glyph-name="cedilla" unicode="&#xb8;" horiz-adv-x="530" 
d="M235 -158l-68 31l94 139h55z" />
    <glyph glyph-name="ogonek" unicode="&#x2db;" horiz-adv-x="530" 
d="M344 -128v-43h-7c-87 3 -132 35 -132 83c0 39 26 69 71 105l47 -15c-39 -32 -57 -53 -57 -81c0 -29 22 -45 78 -49z" />
    <glyph glyph-name="uni0384" unicode="&#x384;" horiz-adv-x="530" 
d="M211 619l65 155l75 -31l-91 -124h-49z" />
    <glyph glyph-name="uni0385" unicode="&#x385;" horiz-adv-x="530" 
d="M221 619l40 173l75 -18l-68 -155h-47zM101 619v91h81v-91h-81zM348 619v91h81v-91h-81z" />
    <glyph glyph-name="uni0387" unicode="&#x387;" horiz-adv-x="268" 
d="M92 434v100h84v-100h-84z" />
    <glyph glyph-name="descendercyrillic" horiz-adv-x="530" 
d="M207 14h62c46 -33 70 -62 70 -99c0 -50 -46 -86 -126 -86c-14 0 -28 1 -36 2v42h23c48 -1 78 17 78 49c0 26 -15 47 -71 92z" />
    <glyph glyph-name="acute.cap" horiz-adv-x="530" 
d="M196 794l101 129l73 -34l-116 -95h-58z" />
    <glyph glyph-name="hungarumlaut.cap" horiz-adv-x="530" 
d="M257 794l101 129l72 -34l-115 -95h-58zM104 794l101 129l72 -34l-116 -95h-57z" />
    <glyph glyph-name="grave.cap" horiz-adv-x="530" 
d="M334 794h-58l-116 95l73 34z" />
    <glyph glyph-name="circumflex.cap" horiz-adv-x="530" 
d="M122 794l111 118h64l111 -118h-67l-77 63l-77 -63h-65z" />
    <glyph glyph-name="caron.cap" horiz-adv-x="530" 
d="M408 912l-111 -118h-64l-111 118h67l77 -63l77 63h65z" />
    <glyph glyph-name="breve.cap" horiz-adv-x="530" 
d="M265 792c-82 0 -141 41 -147 112h55c12 -34 41 -54 92 -54s80 20 92 54h55c-6 -71 -65 -112 -147 -112z" />
    <glyph glyph-name="tilde.cap" horiz-adv-x="530" 
d="M336 794c-23 0 -50 11 -77 22c-21 9 -43 18 -59 18c-26 0 -38 -14 -53 -49l-46 12c21 70 48 100 92 100c23 0 50 -11 77 -23c21 -8 43 -17 59 -17c26 0 38 13 53 48l46 -13c-21 -69 -48 -98 -92 -98z" />
    <glyph glyph-name="macron.cap" horiz-adv-x="530" 
d="M98 818v60h334v-60h-334z" />
    <glyph glyph-name="dieresis.cap" horiz-adv-x="530" 
d="M126 794v87h88v-87h-88zM316 794v87h87v-87h-87z" />
    <glyph glyph-name="dotaccent.cap" horiz-adv-x="530" 
d="M220 794v87h90v-87h-90z" />
    <glyph glyph-name="ring.cap" horiz-adv-x="530" 
d="M265 792c-62 0 -113 43 -113 101s51 101 113 101s113 -43 113 -101s-51 -101 -113 -101zM265 829c40 0 70 27 70 64s-30 65 -70 65s-70 -28 -70 -65s30 -64 70 -64z" />
    <glyph glyph-name="uni0384.cap" horiz-adv-x="530" 
d="M108 548l18 180h78l-57 -180h-39z" />
    <glyph glyph-name="commaaccent.rot" horiz-adv-x="530" 
d="M301 789l7 -29c-45 -8 -64 -27 -61 -60h37v-81h-85v70c0 59 34 91 102 100z" />
    <glyph glyph-name="acute.altlc" horiz-adv-x="530" 
d="M200 859l97 127l73 -35l-113 -92h-57z" />
    <glyph glyph-name="acute.altuc" horiz-adv-x="530" 
d="M198 913l102 117l71 -33l-115 -84h-58z" />
    <glyph glyph-name="caron.alt.cap" horiz-adv-x="530" 
d="M223 606l16 164h71v-3l-52 -161h-35z" />
    <glyph glyph-name="cedilla.cap" horiz-adv-x="530" 
d="M235 -158l-68 31l94 139h55z" />
    <glyph glyph-name="commaaccent.cap" horiz-adv-x="530" 
d="M206 -244l-7 28c45 9 64 27 61 61h-38v80h86v-70c0 -59 -34 -91 -102 -99z" />
    <glyph glyph-name="ogonek.cap" horiz-adv-x="530" 
d="M344 -128v-43h-7c-87 3 -132 35 -132 83c0 39 26 69 71 105l47 -15c-39 -32 -57 -53 -57 -81c0 -29 22 -45 78 -49z" />
    <glyph glyph-name="uni0385.cap" horiz-adv-x="530" 
d="M221 619l40 173l75 -18l-68 -155h-47zM101 619v91h81v-91h-81zM348 619v91h81v-91h-81z" />
    </font>
</defs>
</svg>
