<?xml version="1.0" standalone="no"?>
<!DOCTYPE svg PUBLIC "-//W3C//DTD SVG 1.1//EN" "http://www.w3.org/Graphics/SVG/1.1/DTD/svg11.dtd" >
<svg xmlns="http://www.w3.org/2000/svg" xmlns:xlink="http://www.w3.org/1999/xlink" version="1.1">
<metadata>
Created by FontForge 20190801 at Tue Apr 21 18:02:58 2015
 By Jimmy Wärting
Copyright C 2010, 2014 Hoefler &#38; Co. http:www.typography.com
</metadata>
<defs>
<font id="GothamSSm-ExtraLight" horiz-adv-x="420" >
  <font-face 
    font-family="Gotham SSm"
    font-weight="275"
    font-stretch="normal"
    units-per-em="1000"
    panose-1="0 0 0 0 0 0 0 0 0 0"
    ascent="800"
    descent="-200"
    x-height="527"
    cap-height="728"
    bbox="-210 -223 1186 1020"
    underline-thickness="50"
    underline-position="-100"
    stemh="40"
    stemv="47"
    unicode-range="U+0020-FB04"
  />
<missing-glyph horiz-adv-x="500" 
d="M0 -200v1000h500v-1000h-500zM71 750l179 -390l179 390h-358zM450 676l-172 -376l172 -376v752zM50 -76l172 376l-172 376v-752zM250 240l-179 -390h358z" />
    <glyph glyph-name="f_f" unicode="ff" horiz-adv-x="742" 
d="M500 0v489h-78v38h78v59c0 60 17 107 46 136c26 26 62 40 108 40c31 0 54 -4 77 -13v-40c-27 10 -50 14 -77 14c-74 0 -111 -45 -111 -139v-57h186v-38h-186v-489h-43zM135 0v489h-78v38h78v59c0 60 17 107 46 136c26 26 62 40 108 40c31 0 54 -4 77 -13v-40
c-27 10 -50 14 -77 14c-74 0 -111 -45 -111 -139v-57h186v-38h-186v-489h-43z" />
    <glyph glyph-name="fi" unicode="fi" horiz-adv-x="627" 
d="M469 669v66h54v-66h-54zM135 0v489h-78v38h78v59c0 60 17 107 46 136c26 26 62 40 108 40c31 0 54 -4 77 -13v-40c-27 10 -50 14 -77 14c-74 0 -111 -45 -111 -139v-57h186v-38h-186v-489h-43zM475 0v527h42v-527h-42z" />
    <glyph glyph-name="fl" unicode="fl" horiz-adv-x="627" 
d="M475 0v759h42v-759h-42zM135 0v489h-78v38h78v59c0 60 17 107 46 136c26 26 62 40 108 40c31 0 54 -4 77 -13v-40c-27 10 -50 14 -77 14c-74 0 -111 -45 -111 -139v-57h186v-38h-186v-489h-43z" />
    <glyph glyph-name="f_f_i" unicode="ffi" horiz-adv-x="991" 
d="M834 669v66h54v-66h-54zM500 0v489h-78v38h78v59c0 60 17 107 46 136c26 26 62 40 108 40c31 0 54 -4 77 -13v-40c-27 10 -50 14 -77 14c-74 0 -111 -45 -111 -139v-57h186v-38h-186v-489h-43zM135 0v489h-78v38h78v59c0 60 17 107 46 136c26 26 62 40 108 40
c31 0 54 -4 77 -13v-40c-27 10 -50 14 -77 14c-74 0 -111 -45 -111 -139v-57h186v-38h-186v-489h-43zM840 0v527h42v-527h-42z" />
    <glyph glyph-name="f_f_l" unicode="ffl" horiz-adv-x="991" 
d="M840 0v759h42v-759h-42zM500 0v489h-78v38h78v59c0 60 17 107 46 136c26 26 62 40 108 40c31 0 54 -4 77 -13v-40c-27 10 -50 14 -77 14c-74 0 -111 -45 -111 -139v-57h186v-38h-186v-489h-43zM135 0v489h-78v38h78v59c0 60 17 107 46 136c26 26 62 40 108 40
c31 0 54 -4 77 -13v-40c-27 10 -50 14 -77 14c-74 0 -111 -45 -111 -139v-57h186v-38h-186v-489h-43z" />
    <glyph glyph-name=".notdef" horiz-adv-x="500" 
d="M0 -200v1000h500v-1000h-500zM71 750l179 -390l179 390h-358zM450 676l-172 -376l172 -376v752zM50 -76l172 376l-172 376v-752zM250 240l-179 -390h358z" />
    <glyph glyph-name="A" unicode="A" horiz-adv-x="826" 
d="M211 249h402l-201 434zM50 0l342 733h42l343 -733h-49l-96 208h-440l-96 -208h-46z" />
    <glyph glyph-name="B" unicode="B" horiz-adv-x="764" 
d="M114 0v728h300c83 0 149 -23 190 -64c30 -30 47 -69 47 -116v-2c0 -96 -62 -150 -129 -173c91 -20 169 -75 169 -175v-2c0 -122 -102 -196 -261 -196h-316zM605 542v2c0 86 -70 143 -192 143h-254v-299h256c109 0 190 53 190 154zM645 197c0 96 -84 150 -221 150h-265
v-306h272c133 0 214 59 214 154v2z" />
    <glyph glyph-name="C" unicode="C" horiz-adv-x="779" 
d="M442 -12c-207 0 -360 166 -360 374v2c0 206 153 376 362 376c132 0 208 -48 281 -116l-32 -32c-61 60 -135 108 -250 108c-180 0 -315 -149 -315 -334v-2c0 -187 137 -336 316 -336c109 0 186 45 255 115l30 -30c-73 -73 -158 -125 -287 -125z" />
    <glyph glyph-name="D" unicode="D" horiz-adv-x="823" 
d="M114 0v728h240c229 0 387 -157 387 -362v-2c0 -205 -158 -364 -387 -364h-240zM354 687h-195v-646h195c207 0 341 142 341 321v2c0 178 -135 323 -341 323z" />
    <glyph glyph-name="E" unicode="E" horiz-adv-x="706" 
d="M114 0v728h515v-41h-470v-300h424v-41h-424v-305h475v-41h-520z" />
    <glyph glyph-name="F" unicode="F" horiz-adv-x="684" 
d="M114 0v728h510v-41h-465v-311h419v-41h-419v-335h-45z" />
    <glyph glyph-name="G" unicode="G" horiz-adv-x="826" 
d="M446 -12c-229 0 -364 170 -364 374v2c0 196 141 376 360 376c116 0 189 -34 262 -95l-29 -33c-60 51 -127 88 -236 88c-185 0 -311 -157 -311 -334v-2c0 -189 120 -337 320 -337c97 0 184 42 240 88v217h-251v42h294v-276c-67 -60 -167 -110 -285 -110z" />
    <glyph glyph-name="H" unicode="H" horiz-adv-x="800" 
d="M114 0v728h45v-341h482v341h45v-728h-45v346h-482v-346h-45z" />
    <glyph glyph-name="I" unicode="I" horiz-adv-x="288" 
d="M121 0v728h45v-728h-45z" />
    <glyph glyph-name="J" unicode="J" horiz-adv-x="578" 
d="M259 -11c-103 0 -174 56 -217 139l38 23c41 -79 97 -121 182 -121c94 0 168 69 168 207v491h45v-487c0 -87 -26 -152 -67 -193c-39 -39 -91 -59 -149 -59z" />
    <glyph glyph-name="K" unicode="K" horiz-adv-x="746" 
d="M114 0v728h45v-482l476 482h61l-318 -317l331 -411h-58l-304 379l-188 -187v-192h-45z" />
    <glyph glyph-name="L" unicode="L" horiz-adv-x="641" 
d="M114 0v728h45v-687h433v-41h-478z" />
    <glyph glyph-name="M" unicode="M" horiz-adv-x="912" 
d="M114 0v728h42l300 -437l300 437h42v-728h-45v649l-296 -428h-3l-297 428v-649h-43z" />
    <glyph glyph-name="N" unicode="N" horiz-adv-x="830" 
d="M114 0v728h42l517 -651v651h43v-728h-34l-525 660v-660h-43z" />
    <glyph glyph-name="O" unicode="O" horiz-adv-x="894" 
d="M446 -12c-220 0 -364 176 -364 374v2c0 199 145 376 365 376c221 0 365 -176 365 -374v-2c0 -199 -145 -376 -366 -376zM448 28c187 0 317 152 317 334v2c0 182 -133 336 -319 336c-187 0 -318 -152 -318 -334v-2c0 -182 133 -336 320 -336z" />
    <glyph glyph-name="P" unicode="P" horiz-adv-x="707" 
d="M114 0v728h262c165 0 273 -82 273 -221v-2c0 -150 -125 -229 -284 -229h-206v-276h-45zM159 317h208c143 0 237 71 237 185v2c0 118 -91 183 -232 183h-213v-370z" />
    <glyph glyph-name="Q" unicode="Q" horiz-adv-x="894" 
d="M819 16l-31 -34l-104 92c-61 -53 -143 -86 -238 -86c-220 0 -364 176 -364 374v2c0 199 145 376 365 376c221 0 365 -176 365 -374v-2c0 -98 -35 -190 -97 -259zM448 28c80 0 150 28 203 74l-147 127l32 35l146 -131c52 60 83 141 83 229v2c0 182 -133 336 -319 336
c-187 0 -318 -152 -318 -334v-2c0 -182 133 -336 320 -336z" />
    <glyph glyph-name="Q.alt" horiz-adv-x="894" 
d="M781 -105l-152 140c-52 -30 -114 -47 -183 -47c-220 0 -364 176 -364 374v2c0 199 145 376 365 376c221 0 365 -176 365 -374v-2c0 -120 -53 -232 -143 -302l175 -164v-3h-63zM448 28c187 0 317 152 317 334v2c0 182 -133 336 -319 336c-187 0 -318 -152 -318 -334v-2
c0 -182 133 -336 320 -336z" />
    <glyph glyph-name="R" unicode="R" horiz-adv-x="764" 
d="M159 347h251c135 0 223 67 223 171v2c0 103 -81 167 -218 167h-256v-340zM114 0v728h303c91 0 163 -27 207 -71c34 -34 54 -82 54 -135v-2c0 -122 -93 -193 -221 -207l241 -313h-57l-234 306h-248v-306h-45z" />
    <glyph glyph-name="S" unicode="S" horiz-adv-x="678" 
d="M359 -10c-115 0 -207 39 -292 116l30 33c78 -73 158 -109 265 -109c117 0 196 65 196 153v2c0 81 -45 126 -216 161c-176 35 -246 93 -246 201v2c0 106 99 189 235 189c103 0 177 -30 249 -86l-29 -36c-67 56 -139 82 -222 82c-114 0 -188 -67 -188 -145v-3
c0 -80 44 -127 219 -162c174 -36 243 -95 243 -199v-2c0 -115 -99 -197 -244 -197z" />
    <glyph glyph-name="T" unicode="T" horiz-adv-x="658" 
d="M307 0v687h-257v41h558v-41h-257v-687h-44z" />
    <glyph glyph-name="U" unicode="U" horiz-adv-x="800" 
d="M400 -11c-174 0 -297 110 -297 320v419h44v-416c0 -183 99 -283 255 -283c152 0 250 94 250 279v420h45v-415c0 -213 -121 -324 -297 -324z" />
    <glyph glyph-name="V" unicode="V" horiz-adv-x="785" 
d="M373 -5l-323 733h49l294 -679l295 679h47l-323 -733h-39z" />
    <glyph glyph-name="W" unicode="W" horiz-adv-x="1132" 
d="M314 -5l-258 733h50l228 -663l216 665h34l216 -665l229 663h46l-257 -733h-37l-215 650l-216 -650h-36z" />
    <glyph glyph-name="X" unicode="X" horiz-adv-x="747" 
d="M629 728h53l-281 -357l292 -371h-54l-266 341l-265 -341h-53l291 371l-281 357h53l256 -328z" />
    <glyph glyph-name="Y" unicode="Y" horiz-adv-x="738" 
d="M347 0v293l-311 435h56l278 -395l279 395h53l-310 -434v-294h-45z" />
    <glyph glyph-name="Z" unicode="Z" horiz-adv-x="721" 
d="M76 0v25l507 663h-489v40h553v-25l-507 -663h506v-40h-570z" />
    <glyph glyph-name="a" unicode="a" horiz-adv-x="606" 
d="M263 27c118 0 210 74 210 169v62c-47 15 -107 27 -184 27c-114 0 -185 -49 -185 -130v-2c0 -81 75 -126 159 -126zM261 -12c-100 0 -202 55 -202 163v2c0 110 97 170 232 170c73 0 130 -10 182 -25v29c0 113 -69 169 -182 169c-64 0 -117 -18 -168 -43l-15 37
c57 27 115 46 186 46c72 0 129 -20 167 -58c34 -35 53 -84 53 -149v-329h-41v99c-32 -54 -102 -111 -212 -111z" />
    <glyph glyph-name="a.alt" horiz-adv-x="697" 
d="M331 28c119 0 223 99 223 235v2c0 135 -104 234 -223 234c-124 0 -217 -92 -217 -233v-2c0 -139 96 -236 217 -236zM327 -12c-135 0 -259 108 -259 274v2c0 166 124 276 259 276c110 0 185 -65 225 -141v128h42v-527h-42v131c-41 -78 -115 -143 -225 -143z" />
    <glyph glyph-name="b" unicode="b" horiz-adv-x="697" 
d="M370 -12c-111 0 -185 64 -225 140v-128h-42v759h42v-363c41 78 115 144 225 144c135 0 258 -109 258 -275v-2c0 -166 -123 -275 -258 -275zM366 28c123 0 217 92 217 234v2c0 139 -96 235 -217 235c-120 0 -224 -99 -224 -234v-2c0 -136 105 -235 224 -235z" />
    <glyph glyph-name="c" unicode="c" horiz-adv-x="603" 
d="M335 -12c-151 0 -269 125 -269 274v2c0 148 118 276 269 276c99 0 161 -45 211 -98l-30 -30c-46 47 -100 88 -182 88c-126 0 -222 -105 -222 -234v-2c0 -130 100 -237 226 -237c79 0 138 41 183 91l29 -26c-52 -60 -117 -104 -215 -104z" />
    <glyph glyph-name="d" unicode="d" horiz-adv-x="697" 
d="M331 28c119 0 223 99 223 235v2c0 135 -104 234 -223 234c-124 0 -217 -92 -217 -233v-2c0 -139 96 -236 217 -236zM327 -12c-135 0 -259 108 -259 274v2c0 166 124 276 259 276c110 0 185 -65 225 -141v360h42v-759h-42v131c-41 -78 -115 -143 -225 -143z" />
    <glyph glyph-name="e" unicode="e" horiz-adv-x="619" 
d="M326 -12c-140 0 -260 109 -260 275v2c0 154 108 275 251 275c154 0 242 -128 242 -277v-16h-448c8 -137 106 -220 217 -220c82 0 142 40 185 90l30 -26c-51 -60 -118 -103 -217 -103zM111 285h403c-7 111 -72 216 -198 216c-113 0 -197 -93 -205 -216z" />
    <glyph glyph-name="f" unicode="f" horiz-adv-x="377" 
d="M135 0v489h-78v38h78v59c0 60 17 107 46 136c26 26 62 40 108 40c31 0 54 -4 77 -13v-40c-27 10 -50 14 -77 14c-74 0 -111 -45 -111 -139v-57h186v-38h-186v-489h-43z" />
    <glyph glyph-name="g" unicode="g" horiz-adv-x="694" 
d="M328 80c116 0 224 87 224 208v2c0 122 -108 209 -224 209c-117 0 -214 -84 -214 -208v-2c0 -121 98 -209 214 -209zM333 -169c-88 0 -168 27 -241 81l25 34c65 -49 138 -75 217 -75c127 0 215 72 215 214v85c-43 -72 -120 -131 -225 -131c-132 0 -256 102 -256 249v2
c0 147 124 250 256 250c106 0 183 -58 225 -128v115h42v-446c0 -77 -24 -138 -67 -180c-45 -45 -113 -70 -191 -70z" />
    <glyph glyph-name="h" unicode="h" horiz-adv-x="648" 
d="M103 0v759h42v-344c30 63 92 125 197 125c136 0 214 -93 214 -225v-315h-43v308c0 116 -63 193 -177 193c-108 0 -191 -85 -191 -200v-301h-42z" />
    <glyph glyph-name="i" unicode="i" horiz-adv-x="262" 
d="M104 669v66h54v-66h-54zM110 0v527h42v-527h-42z" />
    <glyph glyph-name="j" unicode="j" horiz-adv-x="262" 
d="M104 669v66h54v-66h-54zM42 -171c-16 0 -26 1 -41 4v38c12 -2 27 -3 41 -3c40 0 68 27 68 81v578h43v-575c0 -83 -44 -123 -111 -123z" />
    <glyph glyph-name="k" unicode="k" horiz-adv-x="587" 
d="M103 0v759h42v-571l338 339h56l-236 -233l246 -294h-53l-222 264l-129 -127v-137h-42z" />
    <glyph glyph-name="l" unicode="l" horiz-adv-x="262" 
d="M110 0v759h42v-759h-42z" />
    <glyph glyph-name="m" unicode="m" horiz-adv-x="992" 
d="M103 0v527h42v-106c29 59 83 119 178 119c98 0 156 -59 182 -127c30 64 92 127 189 127c123 0 202 -85 202 -223v-317h-42v312c0 121 -63 189 -163 189c-89 0 -171 -75 -171 -194v-307h-42v314c0 118 -64 187 -161 187c-93 0 -172 -85 -172 -196v-305h-42z" />
    <glyph glyph-name="n" unicode="n" horiz-adv-x="648" 
d="M103 0v527h42v-112c30 63 92 125 197 125c136 0 214 -93 214 -225v-315h-43v308c0 116 -63 193 -177 193c-108 0 -191 -85 -191 -200v-301h-42z" />
    <glyph glyph-name="o" unicode="o" horiz-adv-x="676" 
d="M337 -12c-158 0 -271 126 -271 274v2c0 147 113 276 273 276c158 0 271 -126 271 -274v-2c0 -148 -113 -276 -273 -276zM339 27c132 0 225 107 225 235v2c0 130 -98 236 -227 236c-132 0 -226 -106 -226 -235v-2c0 -130 98 -236 228 -236z" />
    <glyph glyph-name="p" unicode="p" horiz-adv-x="697" 
d="M366 28c123 0 217 92 217 234v2c0 139 -96 235 -217 235c-120 0 -224 -99 -224 -234v-2c0 -136 105 -235 224 -235zM103 -166v693h42v-131c41 78 115 144 225 144c135 0 258 -109 258 -275v-2c0 -166 -123 -275 -258 -275c-111 0 -185 64 -225 140v-294h-42z" />
    <glyph glyph-name="q" unicode="q" horiz-adv-x="697" 
d="M552 -166v297c-41 -78 -115 -143 -225 -143c-135 0 -259 108 -259 274v2c0 166 124 276 259 276c110 0 185 -65 225 -141v128h42v-693h-42zM331 28c119 0 223 99 223 235v2c0 135 -104 234 -223 234c-124 0 -217 -92 -217 -233v-2c0 -139 96 -236 217 -236z" />
    <glyph glyph-name="r" unicode="r" horiz-adv-x="408" 
d="M103 0v527h42v-155c36 92 121 168 229 165v-46h-5c-125 0 -224 -107 -224 -258v-233h-42z" />
    <glyph glyph-name="s" unicode="s" horiz-adv-x="527" 
d="M271 -10c-76 0 -159 30 -216 77l26 34c57 -46 124 -71 192 -71c78 0 139 42 139 105v2c0 68 -73 91 -150 112c-92 27 -182 53 -182 144v2c0 82 72 142 177 142c62 0 132 -22 186 -58l-23 -35c-49 33 -109 54 -164 54c-80 0 -132 -43 -132 -98v-2c0 -62 72 -85 153 -108
c90 -25 178 -56 178 -148v-2c0 -91 -81 -150 -184 -150z" />
    <glyph glyph-name="t" unicode="t" 
d="M275 -9c-84 0 -144 47 -144 144v354h-79v38h79v173h42v-173h188v-38h-188v-349c0 -77 43 -110 108 -110c26 0 49 6 78 19v-40c-26 -12 -53 -18 -84 -18z" />
    <glyph glyph-name="u" unicode="u" horiz-adv-x="648" 
d="M306 -12c-136 0 -214 92 -214 224v315h43v-308c0 -115 63 -192 177 -192c108 0 191 84 191 199v301h42v-527h-42v112c-30 -63 -92 -124 -197 -124z" />
    <glyph glyph-name="v" unicode="v" horiz-adv-x="610" 
d="M288 -4l-239 531h48l209 -480l209 480h47l-239 -531h-35z" />
    <glyph glyph-name="w" unicode="w" horiz-adv-x="890" 
d="M247 -4l-190 531h47l162 -473l163 476h34l162 -476l163 473h45l-191 -531h-36l-161 466l-162 -466h-36z" />
    <glyph glyph-name="x" unicode="x" horiz-adv-x="592" 
d="M110 527l186 -230l188 230h51l-212 -258l220 -269h-52l-196 240l-195 -240h-51l220 268l-211 259h52z" />
    <glyph glyph-name="y" unicode="y" horiz-adv-x="618" 
d="M322 46l201 481h46l-233 -543c-51 -118 -101 -154 -174 -154c-39 0 -71 10 -103 25l16 37c26 -14 53 -22 89 -22c57 0 92 30 137 132l-254 525h49z" />
    <glyph glyph-name="z" unicode="z" horiz-adv-x="567" 
d="M59 0v24l387 465h-373v38h436v-24l-387 -465h388v-38h-451z" />
    <glyph glyph-name="uni0391" unicode="&#x391;" horiz-adv-x="826" 
d="M211 249h402l-201 434zM50 0l342 733h42l343 -733h-49l-96 208h-440l-96 -208h-46z" />
    <glyph glyph-name="uni0392" unicode="&#x392;" horiz-adv-x="764" 
d="M114 0v728h300c83 0 149 -23 190 -64c30 -30 47 -69 47 -116v-2c0 -96 -62 -150 -129 -173c91 -20 169 -75 169 -175v-2c0 -122 -102 -196 -261 -196h-316zM605 542v2c0 86 -70 143 -192 143h-254v-299h256c109 0 190 53 190 154zM645 197c0 96 -84 150 -221 150h-265
v-306h272c133 0 214 59 214 154v2z" />
    <glyph glyph-name="uni0393" unicode="&#x393;" horiz-adv-x="641" 
d="M114 0v728h478v-41h-433v-687h-45z" />
    <glyph glyph-name="uni0394" unicode="&#x394;" horiz-adv-x="825" 
d="M59 0l-4 34l337 699h41l338 -699l-5 -34h-707zM412 681l-307 -640h612z" />
    <glyph glyph-name="uni0395" unicode="&#x395;" horiz-adv-x="706" 
d="M114 0v728h515v-41h-470v-300h424v-41h-424v-305h475v-41h-520z" />
    <glyph glyph-name="uni0396" unicode="&#x396;" horiz-adv-x="721" 
d="M76 0v25l507 663h-489v40h553v-25l-507 -663h506v-40h-570z" />
    <glyph glyph-name="uni0397" unicode="&#x397;" horiz-adv-x="800" 
d="M114 0v728h45v-341h482v341h45v-728h-45v346h-482v-346h-45z" />
    <glyph glyph-name="uni0398" unicode="&#x398;" horiz-adv-x="894" 
d="M446 -12c-220 0 -364 176 -364 374v2c0 199 145 376 365 376c221 0 365 -176 365 -374v-2c0 -199 -145 -376 -366 -376zM448 28c187 0 317 152 317 334v2c0 182 -133 336 -319 336c-187 0 -318 -152 -318 -334v-2c0 -182 133 -336 320 -336zM659 388v-43h-424v43h424z
" />
    <glyph glyph-name="uni0399" unicode="&#x399;" horiz-adv-x="288" 
d="M121 0v728h45v-728h-45z" />
    <glyph glyph-name="uni039A" unicode="&#x39a;" horiz-adv-x="746" 
d="M114 0v728h45v-482l476 482h61l-318 -317l331 -411h-58l-304 379l-188 -187v-192h-45z" />
    <glyph glyph-name="uni039B" unicode="&#x39b;" horiz-adv-x="808" 
d="M423 733l336 -733h-50l-306 677l-306 -677h-47l333 733h40z" />
    <glyph glyph-name="uni039C" unicode="&#x39c;" horiz-adv-x="912" 
d="M114 0v728h42l300 -437l300 437h42v-728h-45v649l-296 -428h-3l-297 428v-649h-43z" />
    <glyph glyph-name="uni039D" unicode="&#x39d;" horiz-adv-x="830" 
d="M114 0v728h42l517 -651v651h43v-728h-34l-525 660v-660h-43z" />
    <glyph glyph-name="uni039E" unicode="&#x39e;" horiz-adv-x="710" 
d="M633 685h-556v43h556v-43zM603 345h-497v43h497v-43zM638 0h-566v43h566v-43z" />
    <glyph glyph-name="uni039E.alt" horiz-adv-x="790" 
d="M718 41v-41h-646v41h301v305h-267v41h267v300h-296v41h636v-41h-296v-300h266v-41h-266v-305h301z" />
    <glyph glyph-name="uni039F" unicode="&#x39f;" horiz-adv-x="894" 
d="M446 -12c-220 0 -364 176 -364 374v2c0 199 145 376 365 376c221 0 365 -176 365 -374v-2c0 -199 -145 -376 -366 -376zM448 28c187 0 317 152 317 334v2c0 182 -133 336 -319 336c-187 0 -318 -152 -318 -334v-2c0 -182 133 -336 320 -336z" />
    <glyph glyph-name="uni03A0" unicode="&#x3a0;" horiz-adv-x="798" 
d="M114 0v728h570v-728h-45v687h-480v-687h-45z" />
    <glyph glyph-name="uni03A1" unicode="&#x3a1;" horiz-adv-x="707" 
d="M114 0v728h262c165 0 273 -82 273 -221v-2c0 -150 -125 -229 -284 -229h-206v-276h-45zM159 317h208c143 0 237 71 237 185v2c0 118 -91 183 -232 183h-213v-370z" />
    <glyph glyph-name="uni03A3" unicode="&#x3a3;" horiz-adv-x="702" 
d="M447 364l-309 -323h499v-41h-562v33l315 331l-313 331v33h552v-41h-489z" />
    <glyph glyph-name="uni03A4" unicode="&#x3a4;" horiz-adv-x="658" 
d="M307 0v687h-257v41h558v-41h-257v-687h-44z" />
    <glyph glyph-name="uni03A5" unicode="&#x3a5;" horiz-adv-x="738" 
d="M347 0v293l-311 435h56l278 -395l279 395h53l-310 -434v-294h-45z" />
    <glyph glyph-name="uni03A6" unicode="&#x3a6;" horiz-adv-x="944" 
d="M450 -17v97c-240 3 -381 118 -381 287v1c0 167 140 284 381 287v90h44v-90c239 -3 381 -118 381 -288v-1c0 -165 -141 -284 -381 -286v-97h-44zM829 368c0 140 -114 244 -335 247v-495c218 3 335 104 335 247v1zM115 366c0 -138 113 -244 335 -246v495
c-219 -3 -335 -104 -335 -248v-1z" />
    <glyph glyph-name="uni03A7" unicode="&#x3a7;" horiz-adv-x="747" 
d="M629 728h53l-281 -357l292 -371h-54l-266 341l-265 -341h-53l291 371l-281 357h53l256 -328z" />
    <glyph glyph-name="uni03A8" unicode="&#x3a8;" horiz-adv-x="895" 
d="M806 728v-249c0 -203 -136 -285 -336 -288v-191h-45v191c-199 3 -336 84 -336 286v251h45v-250c0 -173 113 -243 291 -246v496h45v-496c180 3 291 72 291 245v251h45z" />
    <glyph glyph-name="uni03A9" unicode="&#x3a9;" horiz-adv-x="910" 
d="M455 740c215 0 357 -153 357 -351v-1c0 -149 -80 -259 -213 -349l239 2v-41h-304v37c137 89 232 187 232 350v1c0 179 -125 312 -311 312s-310 -133 -310 -312v-1c0 -160 93 -261 231 -350v-37h-304v41l239 -2c-131 89 -212 198 -212 349v1c0 195 141 351 356 351z" />
    <glyph glyph-name="uni03B1" unicode="&#x3b1;" horiz-adv-x="736" 
d="M331 28c119 0 223 99 223 235v2c0 135 -104 234 -223 234c-124 0 -217 -92 -217 -233v-2c0 -139 96 -236 217 -236zM714 37v-39c-12 -4 -26 -6 -44 -6c-76 0 -119 41 -118 134c-42 -76 -119 -138 -225 -138c-135 0 -259 108 -259 274v2c0 166 124 276 259 276
c110 0 185 -65 225 -141v128h42v-404c0 -64 28 -92 79 -92c16 0 30 2 41 6z" />
    <glyph glyph-name="uni03B2" unicode="&#x3b2;" horiz-adv-x="681" 
d="M145 506v-107h146c155 0 246 65 246 171c0 92 -75 157 -186 157c-129 0 -206 -85 -206 -221zM292 361h-147v-102c0 -138 106 -232 237 -232c116 0 187 68 187 156c0 107 -85 178 -277 178zM145 -166h-42v672c0 161 95 260 248 260c139 0 231 -82 231 -197v-1
c0 -104 -75 -167 -174 -185c112 -19 207 -75 207 -201v-1c0 -103 -84 -194 -233 -193c-109 0 -193 56 -237 140v-294z" />
    <glyph glyph-name="uni03B3" unicode="&#x3b3;" horiz-adv-x="610" 
d="M562 527l-236 -525v-168h-42v171l-235 522h48l209 -479l209 479h47z" />
    <glyph glyph-name="uni03B4" unicode="&#x3b4;" horiz-adv-x="663" 
d="M520 721h-332l207 -170c138 -113 199 -193 199 -306c0 -138 -103 -257 -265 -257c-161 0 -262 116 -262 255c0 143 85 227 264 309l-212 177v30h401v-38zM371 520l-8 6c-184 -82 -253 -160 -253 -283c0 -121 87 -216 219 -216c136 0 221 97 221 218
c0 99 -50 168 -179 275z" />
    <glyph glyph-name="uni03B5" unicode="&#x3b5;" horiz-adv-x="585" 
d="M412 249h-121c-124 0 -178 -50 -178 -108v-1c0 -66 70 -113 188 -113c84 0 154 25 213 61l22 -34c-66 -40 -142 -66 -236 -66c-155 0 -232 66 -232 150v1c0 71 58 116 130 129c-67 17 -115 56 -115 126v2c0 77 77 144 218 144c96 0 166 -28 226 -68l-25 -35
c-52 38 -121 64 -202 64c-112 0 -173 -50 -173 -108v-1c0 -68 66 -105 163 -105h122v-38z" />
    <glyph glyph-name="uni03B6" unicode="&#x3b6;" horiz-adv-x="563" 
d="M480 -133v122l-138 17c-181 22 -274 95 -274 211c0 89 40 149 184 293l211 211h-355v38h416v-33l-241 -242c-130 -130 -170 -184 -170 -266c0 -95 82 -152 237 -170l171 -21v-160h-41z" />
    <glyph glyph-name="uni03B7" unicode="&#x3b7;" horiz-adv-x="648" 
d="M556 -166h-43v474c0 116 -63 193 -177 193c-108 0 -191 -85 -191 -200v-301h-42v527h42v-112c30 63 92 125 197 125c136 0 214 -93 214 -225v-481z" />
    <glyph glyph-name="uni03B8" unicode="&#x3b8;" horiz-adv-x="692" 
d="M346 -12c-175 0 -270 178 -270 375v23c0 198 95 376 270 376s270 -178 270 -376v-23c0 -197 -95 -375 -270 -375zM345 723c-138 0 -223 -145 -225 -328h452c-3 183 -90 328 -227 328zM347 27c138 0 222 145 225 329h-452c2 -184 90 -329 227 -329z" />
    <glyph glyph-name="uni03B9" unicode="&#x3b9;" horiz-adv-x="288" 
d="M102 122v405h42v-404c0 -64 28 -92 79 -92c16 0 30 2 41 6v-39c-12 -4 -26 -6 -44 -6c-76 0 -118 41 -118 130z" />
    <glyph glyph-name="uni03BA" unicode="&#x3ba;" horiz-adv-x="587" 
d="M145 527v-341l341 341h57l-238 -235l245 -292h-54l-221 264l-130 -129v-135h-42v527h42z" />
    <glyph glyph-name="uni03BB" unicode="&#x3bb;" horiz-adv-x="619" 
d="M100 710v39c20 8 42 12 64 12c75 0 104 -41 152 -155l255 -606h-48l-206 494l-220 -493l-48 -1l247 544l-20 48c-41 98 -65 130 -117 130c-17 0 -38 -4 -59 -12z" />
    <glyph glyph-name="uni03BC" unicode="&#x3bc;" horiz-adv-x="699" 
d="M677 37v-39c-12 -4 -26 -6 -44 -6c-73 0 -115 37 -118 118c-33 -67 -97 -122 -185 -122c-95 0 -157 55 -188 128h-1c4 -55 4 -92 4 -137v-145h-42v693h42v-300c0 -113 81 -200 185 -200c105 0 185 89 185 200v300h42v-404c0 -64 28 -92 79 -92c16 0 30 2 41 6z" />
    <glyph glyph-name="uni03BD" unicode="&#x3bd;" horiz-adv-x="610" 
d="M288 -4l-239 531h48l209 -480l209 480h47l-239 -531h-35z" />
    <glyph glyph-name="uni03BE" unicode="&#x3be;" horiz-adv-x="579" 
d="M547 683l-27 -34c-53 46 -113 78 -191 78c-110 0 -183 -63 -183 -161c0 -107 91 -163 205 -163h97v-38h-105c-147 0 -231 -66 -231 -158c0 -104 99 -143 253 -160l167 -20v-160h-41v122l-132 16c-175 18 -293 72 -293 201c0 106 90 162 178 180c-48 14 -143 64 -143 181
c0 110 88 199 228 199c92 0 159 -35 218 -83z" />
    <glyph glyph-name="uni03BF" unicode="&#x3bf;" horiz-adv-x="676" 
d="M337 -12c-158 0 -271 126 -271 274v2c0 147 113 276 273 276c158 0 271 -126 271 -274v-2c0 -148 -113 -276 -273 -276zM339 27c132 0 225 107 225 235v2c0 130 -98 236 -227 236c-132 0 -226 -106 -226 -235v-2c0 -130 98 -236 228 -236z" />
    <glyph glyph-name="uni03C0" unicode="&#x3c0;" horiz-adv-x="729" 
d="M33 527h643v-38h-118v-366c0 -64 28 -92 80 -92c15 0 29 2 41 6v-39c-13 -4 -27 -6 -45 -6c-76 0 -118 41 -118 130v367h-323v-489h-42v489h-118v38z" />
    <glyph glyph-name="uni03C1" unicode="&#x3c1;" horiz-adv-x="683" 
d="M354 28c122 0 215 92 215 234v2c0 138 -94 235 -215 235c-129 0 -220 -98 -220 -234v-2c0 -136 101 -235 220 -235zM89 -166v431c0 153 109 275 264 275c144 0 261 -110 261 -274v-2c0 -166 -123 -276 -258 -276c-110 0 -186 64 -225 144v-298h-42z" />
    <glyph glyph-name="uni03C3" unicode="&#x3c3;" horiz-adv-x="700" 
d="M664 489h-204c90 -41 148 -129 148 -230v-2c0 -148 -115 -269 -272 -269c-156 0 -270 119 -270 268v1c0 149 110 270 279 270h319v-38zM338 27c130 0 224 100 224 229v1c0 133 -98 231 -226 231c-132 0 -224 -100 -224 -229v-2c0 -131 98 -230 226 -230z" />
    <glyph glyph-name="uni03C2" unicode="&#x3c2;" horiz-adv-x="602" 
d="M468 -133v122l-124 16c-187 23 -296 113 -296 272v1c0 146 109 262 264 262c105 0 168 -46 219 -102l-32 -32c-47 54 -105 94 -188 94c-127 0 -218 -93 -218 -221v-1c0 -141 100 -212 257 -231l160 -20v-160h-42z" />
    <glyph glyph-name="uni03C4" unicode="&#x3c4;" horiz-adv-x="583" 
d="M538 489h-239v-336c0 -96 45 -122 112 -122c26 0 50 3 76 13v-38c-22 -9 -49 -14 -77 -14c-92 0 -153 38 -153 160v337h-230v38h511v-38z" />
    <glyph glyph-name="uni03C5" unicode="&#x3c5;" horiz-adv-x="650" 
d="M325 -12c-138 0 -231 81 -231 238v301h43v-300c0 -137 78 -200 188 -200c112 0 189 64 189 200v300h42v-301c0 -157 -93 -238 -231 -238z" />
    <glyph glyph-name="uni03C6" unicode="&#x3c6;" horiz-adv-x="856" 
d="M449 -166h-42v163c-223 3 -342 114 -342 265v1c0 152 119 264 342 267v229h42v-229c223 -3 342 -114 342 -265v-1c0 -152 -119 -264 -342 -267v-163zM110 263c0 -131 99 -225 297 -227v455c-198 -3 -297 -95 -297 -227v-1zM746 264c0 132 -100 224 -297 227v-455
c198 2 297 95 297 227v1z" />
    <glyph glyph-name="uni03C7" unicode="&#x3c7;" horiz-adv-x="622" 
d="M114 527l197 -296l200 296h51l-225 -327l252 -366h-53l-226 333l-225 -333h-51l251 365l-225 328h54z" />
    <glyph glyph-name="uni03C8" unicode="&#x3c8;" horiz-adv-x="835" 
d="M439 -166h-42v163c-196 2 -305 108 -305 270v260h43v-258c0 -144 96 -231 262 -233v723h42v-723c166 2 262 90 262 233v258h42v-258c0 -163 -111 -270 -304 -272v-163z" />
    <glyph glyph-name="uni03C9" unicode="&#x3c9;" horiz-adv-x="921" 
d="M439 430h42v-151c0 -144 52 -252 169 -252c89 0 152 76 152 203c0 124 -62 223 -131 297h54c62 -71 121 -171 121 -297c0 -155 -82 -242 -196 -242c-109 0 -170 78 -190 171c-20 -92 -80 -171 -191 -171c-114 0 -195 86 -195 242c0 126 61 226 122 297h53
c-70 -73 -131 -173 -131 -297c0 -125 65 -203 151 -203c119 0 170 108 170 252v151z" />
    <glyph glyph-name="uni0410" unicode="&#x410;" horiz-adv-x="826" 
d="M211 249h402l-201 434zM50 0l342 733h42l343 -733h-49l-96 208h-440l-96 -208h-46z" />
    <glyph glyph-name="uni0411" unicode="&#x411;" horiz-adv-x="740" 
d="M114 0v728h505v-41h-460v-283h252c160 0 268 -65 268 -196v-2c0 -141 -125 -206 -279 -206h-286zM159 41h243c138 0 232 57 232 162v3c0 108 -90 157 -226 157h-249v-322z" />
    <glyph glyph-name="uni0412" unicode="&#x412;" horiz-adv-x="764" 
d="M114 0v728h300c83 0 149 -23 190 -64c30 -30 47 -69 47 -116v-2c0 -96 -62 -150 -129 -173c91 -20 169 -75 169 -175v-2c0 -122 -102 -196 -261 -196h-316zM605 542v2c0 86 -70 143 -192 143h-254v-299h256c109 0 190 53 190 154zM645 197c0 96 -84 150 -221 150h-265
v-306h272c133 0 214 59 214 154v2z" />
    <glyph glyph-name="uni0413" unicode="&#x413;" horiz-adv-x="641" 
d="M114 0v728h478v-41h-433v-687h-45z" />
    <glyph glyph-name="uni0414" unicode="&#x414;" horiz-adv-x="894" 
d="M447 679l-285 -638h568zM45 41h70l310 692h44l310 -692h70v-193h-44v152h-716v-152h-44v193z" />
    <glyph glyph-name="uni0415" unicode="&#x415;" horiz-adv-x="706" 
d="M114 0v728h515v-41h-470v-300h424v-41h-424v-305h475v-41h-520z" />
    <glyph glyph-name="uni0401" unicode="&#x401;" horiz-adv-x="706" 
d="M256 802v70h66v-70h-66zM428 802v70h65v-70h-65zM114 0v728h515v-41h-470v-300h424v-41h-424v-305h475v-41h-520z" />
    <glyph glyph-name="uni0416" unicode="&#x416;" horiz-adv-x="1118" 
d="M46 728h57l317 -335h116v335h45v-335h117l317 335h57l-335 -353l345 -375h-56l-326 352h-119v-352h-45v352h-121l-325 -352h-55l345 375z" />
    <glyph glyph-name="uni0417" unicode="&#x417;" horiz-adv-x="687" 
d="M88 604l-28 30c63 55 155 106 282 106c148 0 254 -77 254 -190v-2c0 -87 -61 -156 -163 -179c103 -18 179 -82 179 -175v-2c0 -119 -115 -204 -279 -204c-123 0 -211 40 -282 97l27 33c68 -55 147 -91 255 -91c134 0 232 68 232 164v2c0 98 -88 154 -237 154h-125v40h124
c126 0 223 55 223 159v2c0 89 -83 153 -209 153c-109 0 -190 -44 -253 -97z" />
    <glyph glyph-name="uni0418" unicode="&#x418;" horiz-adv-x="830" 
d="M716 0h-44v660l-524 -660h-34v728h45v-651l516 651h41v-728z" />
    <glyph glyph-name="uni0419" unicode="&#x419;" horiz-adv-x="830" 
d="M415 789c-78 0 -130 38 -136 99h37c11 -34 42 -58 99 -58s87 24 99 58h37c-7 -61 -58 -99 -136 -99zM716 0h-44v660l-524 -660h-34v728h45v-651l516 651h41v-728z" />
    <glyph glyph-name="uni041A" unicode="&#x41a;" horiz-adv-x="746" 
d="M114 0v728h45v-335h152l327 335h60l-348 -354l362 -374h-62l-338 352h-153v-352h-45z" />
    <glyph glyph-name="uni041B" unicode="&#x41b;" horiz-adv-x="808" 
d="M423 733l336 -733h-50l-306 677l-306 -677h-47l333 733h40z" />
    <glyph glyph-name="uni041C" unicode="&#x41c;" horiz-adv-x="912" 
d="M114 0v728h42l300 -437l300 437h42v-728h-45v649l-296 -428h-3l-297 428v-649h-43z" />
    <glyph glyph-name="uni041D" unicode="&#x41d;" horiz-adv-x="800" 
d="M114 0v728h45v-341h482v341h45v-728h-45v346h-482v-346h-45z" />
    <glyph glyph-name="uni041E" unicode="&#x41e;" horiz-adv-x="894" 
d="M446 -12c-220 0 -364 176 -364 374v2c0 199 145 376 365 376c221 0 365 -176 365 -374v-2c0 -199 -145 -376 -366 -376zM448 28c187 0 317 152 317 334v2c0 182 -133 336 -319 336c-187 0 -318 -152 -318 -334v-2c0 -182 133 -336 320 -336z" />
    <glyph glyph-name="uni041F" unicode="&#x41f;" horiz-adv-x="798" 
d="M114 0v728h570v-728h-45v687h-480v-687h-45z" />
    <glyph glyph-name="uni0420" unicode="&#x420;" horiz-adv-x="707" 
d="M114 0v728h262c165 0 273 -82 273 -221v-2c0 -150 -125 -229 -284 -229h-206v-276h-45zM159 317h208c143 0 237 71 237 185v2c0 118 -91 183 -232 183h-213v-370z" />
    <glyph glyph-name="uni0421" unicode="&#x421;" horiz-adv-x="779" 
d="M442 -12c-207 0 -360 166 -360 374v2c0 206 153 376 362 376c132 0 208 -48 281 -116l-32 -32c-61 60 -135 108 -250 108c-180 0 -315 -149 -315 -334v-2c0 -187 137 -336 316 -336c109 0 186 45 255 115l30 -30c-73 -73 -158 -125 -287 -125z" />
    <glyph glyph-name="uni0422" unicode="&#x422;" horiz-adv-x="658" 
d="M307 0v687h-257v41h558v-41h-257v-687h-44z" />
    <glyph glyph-name="uni0423" unicode="&#x423;" horiz-adv-x="735" 
d="M258 0h-51l158 256l-321 472h53l292 -433l258 433h52z" />
    <glyph glyph-name="uni0424" unicode="&#x424;" horiz-adv-x="944" 
d="M450 -17v97c-240 3 -381 118 -381 287v1c0 167 140 284 381 287v90h44v-90c239 -3 381 -118 381 -288v-1c0 -165 -141 -284 -381 -286v-97h-44zM829 368c0 140 -114 244 -335 247v-495c218 3 335 104 335 247v1zM115 366c0 -138 113 -244 335 -246v495
c-219 -3 -335 -104 -335 -248v-1z" />
    <glyph glyph-name="uni0424.bgr" horiz-adv-x="956" 
d="M456 -104v103c-224 4 -375 162 -375 363v2c0 198 151 359 375 365v103h44v-103c225 -5 375 -165 375 -363v-2c0 -198 -150 -360 -375 -365v-103h-44zM828 364c0 182 -138 319 -328 324v-649c193 6 328 141 328 323v2zM127 364c0 -184 138 -319 329 -325v649
c-193 -5 -329 -142 -329 -322v-2z" />
    <glyph glyph-name="uni0425" unicode="&#x425;" horiz-adv-x="747" 
d="M629 728h53l-281 -357l292 -371h-54l-266 341l-265 -341h-53l291 371l-281 357h53l256 -328z" />
    <glyph glyph-name="uni0426" unicode="&#x426;" horiz-adv-x="809" 
d="M710 -152v152h-596v728h45v-687h480v687h45v-687h70v-193h-44z" />
    <glyph glyph-name="uni0427" unicode="&#x427;" horiz-adv-x="740" 
d="M581 0v308c-72 -22 -154 -33 -220 -33c-171 0 -269 68 -269 243v210h45v-202c0 -152 75 -210 227 -210c64 0 145 11 217 34v378h45v-728h-45z" />
    <glyph glyph-name="uni0428" unicode="&#x428;" horiz-adv-x="1152" 
d="M114 0v728h45v-687h395v687h45v-687h395v687h44v-728h-924z" />
    <glyph glyph-name="uni0429" unicode="&#x429;" horiz-adv-x="1163" 
d="M114 0v728h45v-687h395v687h45v-687h395v687h44v-687h70v-193h-44v152h-950z" />
    <glyph glyph-name="uni042A" unicode="&#x42a;" horiz-adv-x="892" 
d="M299 0v687h-253v41h298v-282h218c164 0 272 -81 272 -218v-3c0 -147 -127 -225 -284 -225h-251zM344 41h209c141 0 236 70 236 182v2c0 116 -90 179 -230 179h-215v-363z" />
    <glyph glyph-name="uni042B" unicode="&#x42b;" horiz-adv-x="960" 
d="M801 0v728h45v-728h-45zM114 0v728h45v-282h218c164 0 272 -81 272 -218v-3c0 -147 -127 -225 -284 -225h-251zM159 41h209c141 0 236 70 236 182v2c0 116 -90 179 -230 179h-215v-363z" />
    <glyph glyph-name="uni042C" unicode="&#x42c;" horiz-adv-x="707" 
d="M114 0v728h45v-282h218c164 0 272 -81 272 -218v-3c0 -147 -127 -225 -284 -225h-251zM159 41h209c141 0 236 70 236 182v2c0 116 -90 179 -230 179h-215v-363z" />
    <glyph glyph-name="uni042D" unicode="&#x42d;" horiz-adv-x="782" 
d="M57 623c72 67 162 117 287 117c209 0 356 -161 356 -374v-2c0 -207 -145 -376 -362 -376c-123 0 -215 51 -285 123l31 31c69 -70 149 -114 254 -114c183 0 309 139 316 319h-442v40h441c-10 180 -136 313 -309 313c-106 0 -189 -43 -258 -107z" />
    <glyph glyph-name="uni042E" unicode="&#x42e;" horiz-adv-x="1139" 
d="M114 0v728h45v-341h192c10 187 148 353 353 353c214 0 353 -179 353 -374v-2c0 -196 -141 -376 -354 -376c-207 0 -345 169 -353 358h-191v-346h-45zM705 28c179 0 306 155 306 334v2c0 180 -128 336 -308 336s-307 -155 -307 -334v-2c0 -180 129 -336 309 -336z" />
    <glyph glyph-name="uni042F" unicode="&#x42f;" horiz-adv-x="764" 
d="M605 347v340h-255c-139 0 -219 -68 -219 -167v-2c0 -111 94 -171 229 -171h245zM312 310c-132 12 -226 86 -226 210v1c0 121 101 207 266 207h298v-728h-45v306h-241l-241 -306h-57z" />
    <glyph glyph-name="uni0430" unicode="&#x430;" horiz-adv-x="606" 
d="M263 27c118 0 210 74 210 169v62c-47 15 -107 27 -184 27c-114 0 -185 -49 -185 -130v-2c0 -81 75 -126 159 -126zM261 -12c-100 0 -202 55 -202 163v2c0 110 97 170 232 170c73 0 130 -10 182 -25v29c0 113 -69 169 -182 169c-64 0 -117 -18 -168 -43l-15 37
c57 27 115 46 186 46c72 0 129 -20 167 -58c34 -35 53 -84 53 -149v-329h-41v99c-32 -54 -102 -111 -212 -111z" />
    <glyph glyph-name="uni0431" unicode="&#x431;" horiz-adv-x="678" 
d="M346 -12c-77 0 -139 26 -184 71c-54 53 -83 135 -83 242v1c0 297 78 403 294 440l164 28l8 -40l-167 -29c-184 -32 -242 -113 -257 -325c42 93 133 144 236 144c152 0 255 -116 255 -261v-1c0 -145 -107 -271 -266 -270zM347 27c132 0 220 101 220 230v1
c0 128 -88 222 -212 222c-132 0 -231 -92 -231 -214c0 -146 100 -239 223 -239z" />
    <glyph glyph-name="uni0432" unicode="&#x432;" horiz-adv-x="632" 
d="M103 0v527h266c108 0 175 -49 175 -133c0 -65 -42 -107 -107 -125c76 -15 126 -57 126 -129c0 -87 -72 -140 -192 -140h-268zM499 392c0 60 -46 97 -131 97h-223v-202h213c89 0 141 41 141 105zM519 140c0 66 -55 109 -160 109h-214v-210h226c96 0 148 41 148 101z" />
    <glyph glyph-name="uni0432.bgr" horiz-adv-x="671" 
d="M92 262v244c0 161 95 260 248 260c139 0 232 -82 232 -197v-1c0 -104 -75 -167 -175 -185c112 -19 207 -72 207 -195v-1c0 -108 -88 -200 -247 -199c-166 0 -265 91 -265 274zM134 506v-107h147c154 0 245 65 245 171c0 92 -75 157 -186 157c-129 0 -206 -85 -206 -221z
M281 361h-147v-99c0 -146 72 -235 224 -235c126 0 201 70 201 162c0 104 -85 172 -278 172z" />
    <glyph glyph-name="uni0433" unicode="&#x433;" horiz-adv-x="513" 
d="M103 0v527h376v-38h-334v-489h-42z" />
    <glyph glyph-name="uni0433.bgr" horiz-adv-x="537" 
d="M253 -10c-115 0 -179 51 -179 134v2c0 85 63 120 189 162c130 44 159 71 159 120v2c0 49 -41 88 -126 88c-67 0 -133 -24 -183 -57l-23 34c60 39 136 62 206 62c110 0 170 -53 170 -127v-2c0 -78 -59 -113 -191 -157c-110 -36 -157 -63 -157 -123v-2
c0 -66 52 -96 138 -96c67 0 141 25 200 70l24 -34c-65 -46 -143 -76 -227 -76z" />
    <glyph glyph-name="uni0434" unicode="&#x434;" horiz-adv-x="687" 
d="M343 489l-203 -450h404zM322 531h43l227 -492h62v-184h-40v145h-541v-145h-40v184h62z" />
    <glyph glyph-name="uni0434.bgr" horiz-adv-x="694" 
d="M328 80c116 0 224 87 224 208v2c0 122 -108 209 -224 209c-117 0 -214 -84 -214 -208v-2c0 -121 98 -209 214 -209zM333 -169c-88 0 -168 27 -241 81l25 34c65 -49 138 -75 217 -75c127 0 215 72 215 214v85c-43 -72 -120 -131 -225 -131c-132 0 -256 102 -256 249v2
c0 147 124 250 256 250c106 0 183 -58 225 -128v115h42v-446c0 -77 -24 -138 -67 -180c-45 -45 -113 -70 -191 -70z" />
    <glyph glyph-name="uni0435" unicode="&#x435;" horiz-adv-x="619" 
d="M326 -12c-140 0 -260 109 -260 275v2c0 154 108 275 251 275c154 0 242 -128 242 -277v-16h-448c8 -137 106 -220 217 -220c82 0 142 40 185 90l30 -26c-51 -60 -118 -103 -217 -103zM111 285h403c-7 111 -72 216 -198 216c-113 0 -197 -93 -205 -216z" />
    <glyph glyph-name="uni0451" unicode="&#x451;" horiz-adv-x="619" 
d="M207 625v74h61v-74h-61zM366 625v74h61v-74h-61zM326 -12c-140 0 -260 109 -260 275v2c0 154 108 275 251 275c154 0 242 -128 242 -277v-16h-448c8 -137 106 -220 217 -220c82 0 142 40 185 90l30 -26c-51 -60 -118 -103 -217 -103zM111 285h403
c-7 111 -72 216 -198 216c-113 0 -197 -93 -205 -216z" />
    <glyph glyph-name="uni0436" unicode="&#x436;" horiz-adv-x="894" 
d="M468 527v-241h110l217 241h54l-236 -260l246 -267h-55l-226 247h-110v-247h-42v247h-112l-226 -247h-54l245 267l-235 260h55l217 -241h110v241h42z" />
    <glyph glyph-name="uni0436.bgr" horiz-adv-x="894" 
d="M468 759v-473h110l217 241h54l-236 -260l246 -267h-55l-226 247h-110v-247h-42v247h-112l-226 -247h-54l245 267l-235 260h55l217 -241h110v473h42z" />
    <glyph glyph-name="uni0437" unicode="&#x437;" horiz-adv-x="584" 
d="M51 57l24 36c53 -38 127 -66 210 -66c112 0 184 46 184 114v1c0 66 -66 108 -180 107h-118v38h118c104 0 166 43 166 108v1c0 62 -61 105 -163 105c-74 0 -146 -25 -211 -71l-22 34c65 45 142 76 232 76c131 0 208 -59 208 -143v-2c0 -72 -59 -111 -121 -125
c76 -12 136 -55 136 -129v-1c0 -86 -83 -152 -229 -152c-92 0 -177 29 -234 69z" />
    <glyph glyph-name="uni0438" unicode="&#x438;" horiz-adv-x="671" 
d="M103 0v527h42v-466l382 466h42v-527h-43v465l-382 -465h-41z" />
    <glyph glyph-name="uni0438.bgr" horiz-adv-x="648" 
d="M306 -12c-136 0 -214 92 -214 224v315h43v-308c0 -115 63 -192 177 -192c108 0 191 84 191 199v301h42v-527h-42v112c-30 -63 -92 -124 -197 -124z" />
    <glyph glyph-name="uni0439" unicode="&#x439;" horiz-adv-x="671" 
d="M335 615c-78 0 -130 44 -136 112h34c11 -39 44 -71 102 -71c59 0 91 32 102 71h34c-6 -68 -59 -112 -136 -112zM103 0v527h42v-466l382 466h42v-527h-43v465l-382 -465h-41z" />
    <glyph glyph-name="uni0439.bgr" horiz-adv-x="648" 
d="M318 615c-78 0 -130 44 -136 112h34c11 -39 44 -71 102 -71c59 0 91 32 102 71h34c-6 -68 -59 -112 -136 -112zM306 -12c-136 0 -214 92 -214 224v315h43v-308c0 -115 63 -192 177 -192c108 0 191 84 191 199v301h42v-527h-42v112c-30 -63 -92 -124 -197 -124z" />
    <glyph glyph-name="uni043A" unicode="&#x43a;" horiz-adv-x="587" 
d="M145 527v-241h120l227 241h54l-244 -259l253 -268h-57l-231 247h-122v-247h-42v527h42z" />
    <glyph glyph-name="uni043A.bgr" horiz-adv-x="587" 
d="M145 759v-473h120l227 241h54l-244 -259l253 -268h-57l-231 247h-122v-247h-42v759h42z" />
    <glyph glyph-name="uni043B" unicode="&#x43b;" horiz-adv-x="627" 
d="M332 531l247 -531h-49l-217 478l-218 -478h-47l247 531h37z" />
    <glyph glyph-name="uni043C" unicode="&#x43c;" horiz-adv-x="758" 
d="M103 0v527h44l232 -334l232 334h44v-527h-44v456l-231 -328h-3l-232 327v-455h-42z" />
    <glyph glyph-name="uni043D" unicode="&#x43d;" horiz-adv-x="667" 
d="M103 0v527h42v-241h377v241h42v-527h-42v247h-377v-247h-42z" />
    <glyph glyph-name="uni043E" unicode="&#x43e;" horiz-adv-x="676" 
d="M337 -12c-158 0 -271 126 -271 274v2c0 147 113 276 273 276c158 0 271 -126 271 -274v-2c0 -148 -113 -276 -273 -276zM339 27c132 0 225 107 225 235v2c0 130 -98 236 -227 236c-132 0 -226 -106 -226 -235v-2c0 -130 98 -236 228 -236z" />
    <glyph glyph-name="uni043F" unicode="&#x43f;" horiz-adv-x="664" 
d="M103 0v527h459v-527h-42v489h-375v-489h-42z" />
    <glyph glyph-name="uni043F.bgr" horiz-adv-x="648" 
d="M103 0v527h42v-112c30 63 92 125 197 125c136 0 214 -93 214 -225v-315h-43v308c0 116 -63 193 -177 193c-108 0 -191 -85 -191 -200v-301h-42z" />
    <glyph glyph-name="uni0440" unicode="&#x440;" horiz-adv-x="697" 
d="M366 28c123 0 217 92 217 234v2c0 139 -96 235 -217 235c-120 0 -224 -99 -224 -234v-2c0 -136 105 -235 224 -235zM103 -166v693h42v-131c41 78 115 144 225 144c135 0 258 -109 258 -275v-2c0 -166 -123 -275 -258 -275c-111 0 -185 64 -225 140v-294h-42z" />
    <glyph glyph-name="uni0441" unicode="&#x441;" horiz-adv-x="603" 
d="M335 -12c-151 0 -269 125 -269 274v2c0 148 118 276 269 276c99 0 161 -45 211 -98l-30 -30c-46 47 -100 88 -182 88c-126 0 -222 -105 -222 -234v-2c0 -130 100 -237 226 -237c79 0 138 41 183 91l29 -26c-52 -60 -117 -104 -215 -104z" />
    <glyph glyph-name="uni0442" unicode="&#x442;" horiz-adv-x="568" 
d="M263 0v489h-232v38h506v-38h-232v-489h-42z" />
    <glyph glyph-name="uni0442.bgr" horiz-adv-x="992" 
d="M103 0v527h42v-106c29 59 83 119 178 119c98 0 156 -59 182 -127c30 64 92 127 189 127c123 0 202 -85 202 -223v-317h-42v312c0 121 -63 189 -163 189c-89 0 -171 -75 -171 -194v-307h-42v314c0 118 -64 187 -161 187c-93 0 -172 -85 -172 -196v-305h-42z" />
    <glyph glyph-name="uni0443" unicode="&#x443;" horiz-adv-x="618" 
d="M322 46l201 481h46l-233 -543c-51 -118 -101 -154 -174 -154c-39 0 -71 10 -103 25l16 37c26 -14 53 -22 89 -22c57 0 92 30 137 132l-254 525h49z" />
    <glyph glyph-name="uni0444" unicode="&#x444;" horiz-adv-x="856" 
d="M449 -166h-42v163c-223 3 -342 114 -342 265v1c0 152 119 264 342 267v229h42v-229c223 -3 342 -114 342 -265v-1c0 -152 -119 -264 -342 -267v-163zM110 263c0 -131 99 -225 297 -227v455c-198 -3 -297 -95 -297 -227v-1zM746 264c0 132 -100 224 -297 227v-455
c198 2 297 95 297 227v1z" />
    <glyph glyph-name="uni0445" unicode="&#x445;" horiz-adv-x="592" 
d="M110 527l186 -230l188 230h51l-212 -258l220 -269h-52l-196 240l-195 -240h-51l220 268l-211 259h52z" />
    <glyph glyph-name="uni0446" unicode="&#x446;" horiz-adv-x="677" 
d="M584 -145v145h-481v527h42v-488h375v488h42v-488h62v-184h-40z" />
    <glyph glyph-name="uni0446.bgr" horiz-adv-x="660" 
d="M306 -12c-136 0 -214 92 -214 224v315h43v-308c0 -115 63 -192 177 -192c108 0 191 84 191 199v301h42v-488h62v-184h-40v145h-64v112c-30 -63 -92 -124 -197 -124z" />
    <glyph glyph-name="uni0447" unicode="&#x447;" horiz-adv-x="616" 
d="M471 0v198c-50 -13 -114 -25 -174 -25c-136 0 -216 55 -216 193v161h42v-159c0 -111 59 -155 177 -155c59 0 116 10 171 25v289h42v-527h-42z" />
    <glyph glyph-name="uni0448" unicode="&#x448;" horiz-adv-x="965" 
d="M103 0v527h42v-488h316v488h43v-488h316v488h42v-527h-759z" />
    <glyph glyph-name="uni0448.bgr" horiz-adv-x="992" 
d="M890 527v-527h-43v106c-28 -58 -83 -118 -177 -118c-99 0 -156 58 -182 126c-30 -64 -92 -126 -190 -126c-123 0 -202 84 -202 222v317h43v-312c0 -121 63 -188 162 -188c89 0 171 74 171 193v307h42v-314c0 -118 64 -186 161 -186c93 0 172 85 172 195v305h43z" />
    <glyph glyph-name="uni0449" unicode="&#x449;" horiz-adv-x="977" 
d="M103 0v527h42v-488h316v488h43v-488h316v488h42v-488h62v-184h-40v145h-781z" />
    <glyph glyph-name="uni0449.bgr" horiz-adv-x="1004" 
d="M912 -145v145h-65v106c-28 -58 -83 -118 -177 -118c-99 0 -156 58 -182 126c-30 -64 -92 -126 -190 -126c-123 0 -202 84 -202 222v317h43v-312c0 -121 63 -188 162 -188c89 0 171 74 171 193v307h42v-314c0 -118 64 -186 161 -186c93 0 172 85 172 195v305h43v-488h62
v-184h-40z" />
    <glyph glyph-name="uni044A" unicode="&#x44a;" horiz-adv-x="714" 
d="M27 527h236v-196h198c126 0 201 -68 201 -164v-3c0 -96 -75 -164 -201 -164h-240v489h-194v38zM263 292v-254h198c105 0 157 51 157 127v1c0 75 -53 126 -157 126h-198z" />
    <glyph glyph-name="uni044B" unicode="&#x44b;" horiz-adv-x="800" 
d="M655 0v527h42v-527h-42zM145 527v-196h198c126 0 201 -68 201 -164v-3c0 -96 -75 -164 -201 -164h-240v527h42zM145 292v-254h198c104 0 157 51 157 127v1c0 75 -53 126 -157 126h-198z" />
    <glyph glyph-name="uni044C" unicode="&#x44c;" horiz-adv-x="596" 
d="M145 527v-196h198c126 0 201 -68 201 -164v-3c0 -96 -75 -164 -201 -164h-240v527h42zM145 292v-254h198c104 0 157 51 157 127v1c0 75 -53 126 -157 126h-198z" />
    <glyph glyph-name="uni044D" unicode="&#x44d;" horiz-adv-x="605" 
d="M81 114c48 -53 108 -87 191 -87c122 0 217 98 221 222h-319v39h318c-7 119 -98 212 -217 212c-82 0 -145 -36 -193 -83l-27 31c53 51 122 92 220 92c151 0 264 -118 264 -275v-2c0 -146 -113 -275 -267 -275c-96 0 -163 35 -221 96z" />
    <glyph glyph-name="uni044E" unicode="&#x44e;" horiz-adv-x="894" 
d="M145 247v-247h-42v527h42v-241h154c10 137 116 254 265 254c157 0 264 -128 264 -274v-2c0 -147 -108 -276 -265 -276c-152 0 -258 118 -265 259h-153zM564 27c130 0 219 108 219 235v2c0 129 -93 236 -221 236c-130 0 -219 -106 -219 -235v-2c0 -129 94 -236 221 -236z
" />
    <glyph glyph-name="uni044E.bgr" horiz-adv-x="894" 
d="M563 -12c-152 0 -258 118 -265 259h-153v-247h-42v759h42v-473h154c10 137 116 254 265 254c157 0 264 -128 264 -274v-2c0 -147 -108 -276 -265 -276zM564 27c130 0 219 108 219 235v2c0 129 -93 236 -221 236c-130 0 -219 -106 -219 -235v-2c0 -129 94 -236 221 -236z
" />
    <glyph glyph-name="uni044F" unicode="&#x44f;" horiz-adv-x="641" 
d="M496 489h-216c-93 0 -153 -51 -153 -120v-1c0 -73 58 -122 154 -122h215v243zM496 209h-216l-164 -209h-54l170 212c-94 15 -149 75 -149 156v1c0 90 78 158 199 158h257v-527h-43v209z" />
    <glyph glyph-name="Aacute" unicode="&#xc1;" horiz-adv-x="826" 
d="M394 805l99 116l50 -24l-111 -92h-38zM211 249h402l-201 434zM50 0l342 733h42l343 -733h-49l-96 208h-440l-96 -208h-46z" />
    <glyph glyph-name="aacute" unicode="&#xe1;" horiz-adv-x="606" 
d="M285 619l91 132l52 -25l-108 -107h-35zM263 27c118 0 210 74 210 169v62c-47 15 -107 27 -184 27c-114 0 -185 -49 -185 -130v-2c0 -81 75 -126 159 -126zM261 -12c-100 0 -202 55 -202 163v2c0 110 97 170 232 170c73 0 130 -10 182 -25v29c0 113 -69 169 -182 169
c-64 0 -117 -18 -168 -43l-15 37c57 27 115 46 186 46c72 0 129 -20 167 -58c34 -35 53 -84 53 -149v-329h-41v99c-32 -54 -102 -111 -212 -111z" />
    <glyph glyph-name="aacute.alt" horiz-adv-x="697" 
d="M332 619l91 132l52 -25l-108 -107h-35zM331 28c119 0 223 99 223 235v2c0 135 -104 234 -223 234c-124 0 -217 -92 -217 -233v-2c0 -139 96 -236 217 -236zM327 -12c-135 0 -259 108 -259 274v2c0 166 124 276 259 276c110 0 185 -65 225 -141v128h42v-527h-42v131
c-41 -78 -115 -143 -225 -143z" />
    <glyph glyph-name="Abreve" unicode="&#x102;" horiz-adv-x="826" 
d="M413 803c-78 0 -130 38 -136 99h37c11 -34 42 -58 99 -58s87 24 99 58h37c-7 -61 -58 -99 -136 -99zM211 249h402l-201 434zM50 0l342 733h42l343 -733h-49l-96 208h-440l-96 -208h-46z" />
    <glyph glyph-name="abreve" unicode="&#x103;" horiz-adv-x="606" 
d="M304 617c-78 0 -130 44 -136 112h34c11 -39 44 -71 102 -71c59 0 91 32 102 71h34c-6 -68 -59 -112 -136 -112zM263 27c118 0 210 74 210 169v62c-47 15 -107 27 -184 27c-114 0 -185 -49 -185 -130v-2c0 -81 75 -126 159 -126zM261 -12c-100 0 -202 55 -202 163v2
c0 110 97 170 232 170c73 0 130 -10 182 -25v29c0 113 -69 169 -182 169c-64 0 -117 -18 -168 -43l-15 37c57 27 115 46 186 46c72 0 129 -20 167 -58c34 -35 53 -84 53 -149v-329h-41v99c-32 -54 -102 -111 -212 -111z" />
    <glyph glyph-name="abreve.alt" horiz-adv-x="697" 
d="M351 617c-78 0 -130 44 -136 112h34c11 -39 44 -71 102 -71c59 0 91 32 102 71h34c-6 -68 -59 -112 -136 -112zM331 28c119 0 223 99 223 235v2c0 135 -104 234 -223 234c-124 0 -217 -92 -217 -233v-2c0 -139 96 -236 217 -236zM327 -12c-135 0 -259 108 -259 274v2
c0 166 124 276 259 276c110 0 185 -65 225 -141v128h42v-527h-42v131c-41 -78 -115 -143 -225 -143z" />
    <glyph glyph-name="Acircumflex" unicode="&#xc2;" horiz-adv-x="826" 
d="M285 803l108 108h40l108 -108h-46l-83 67l-82 -67h-45zM211 249h402l-201 434zM50 0l342 733h42l343 -733h-49l-96 208h-440l-96 -208h-46z" />
    <glyph glyph-name="acircumflex" unicode="&#xe2;" horiz-adv-x="606" 
d="M182 619l105 124h34l105 -124h-40l-83 76l-83 -76h-38zM263 27c118 0 210 74 210 169v62c-47 15 -107 27 -184 27c-114 0 -185 -49 -185 -130v-2c0 -81 75 -126 159 -126zM261 -12c-100 0 -202 55 -202 163v2c0 110 97 170 232 170c73 0 130 -10 182 -25v29
c0 113 -69 169 -182 169c-64 0 -117 -18 -168 -43l-15 37c57 27 115 46 186 46c72 0 129 -20 167 -58c34 -35 53 -84 53 -149v-329h-41v99c-32 -54 -102 -111 -212 -111z" />
    <glyph glyph-name="acircumflex.alt" horiz-adv-x="697" 
d="M229 619l105 124h34l105 -124h-40l-83 76l-83 -76h-38zM331 28c119 0 223 99 223 235v2c0 135 -104 234 -223 234c-124 0 -217 -92 -217 -233v-2c0 -139 96 -236 217 -236zM327 -12c-135 0 -259 108 -259 274v2c0 166 124 276 259 276c110 0 185 -65 225 -141v128h42
v-527h-42v131c-41 -78 -115 -143 -225 -143z" />
    <glyph glyph-name="Adieresis" unicode="&#xc4;" horiz-adv-x="826" 
d="M295 811v70h66v-70h-66zM467 811v70h65v-70h-65zM211 249h402l-201 434zM50 0l342 733h42l343 -733h-49l-96 208h-440l-96 -208h-46z" />
    <glyph glyph-name="adieresis" unicode="&#xe4;" horiz-adv-x="606" 
d="M194 625v74h61v-74h-61zM353 625v74h61v-74h-61zM263 27c118 0 210 74 210 169v62c-47 15 -107 27 -184 27c-114 0 -185 -49 -185 -130v-2c0 -81 75 -126 159 -126zM261 -12c-100 0 -202 55 -202 163v2c0 110 97 170 232 170c73 0 130 -10 182 -25v29
c0 113 -69 169 -182 169c-64 0 -117 -18 -168 -43l-15 37c57 27 115 46 186 46c72 0 129 -20 167 -58c34 -35 53 -84 53 -149v-329h-41v99c-32 -54 -102 -111 -212 -111z" />
    <glyph glyph-name="adieresis.alt" horiz-adv-x="697" 
d="M241 625v74h61v-74h-61zM400 625v74h61v-74h-61zM331 28c119 0 223 99 223 235v2c0 135 -104 234 -223 234c-124 0 -217 -92 -217 -233v-2c0 -139 96 -236 217 -236zM327 -12c-135 0 -259 108 -259 274v2c0 166 124 276 259 276c110 0 185 -65 225 -141v128h42v-527h-42
v131c-41 -78 -115 -143 -225 -143z" />
    <glyph glyph-name="Agrave" unicode="&#xc0;" horiz-adv-x="826" 
d="M432 805h-38l-111 92l50 24zM211 249h402l-201 434zM50 0l342 733h42l343 -733h-49l-96 208h-440l-96 -208h-46z" />
    <glyph glyph-name="agrave" unicode="&#xe0;" horiz-adv-x="606" 
d="M288 619l-108 107l52 25l91 -132h-35zM263 27c118 0 210 74 210 169v62c-47 15 -107 27 -184 27c-114 0 -185 -49 -185 -130v-2c0 -81 75 -126 159 -126zM261 -12c-100 0 -202 55 -202 163v2c0 110 97 170 232 170c73 0 130 -10 182 -25v29c0 113 -69 169 -182 169
c-64 0 -117 -18 -168 -43l-15 37c57 27 115 46 186 46c72 0 129 -20 167 -58c34 -35 53 -84 53 -149v-329h-41v99c-32 -54 -102 -111 -212 -111z" />
    <glyph glyph-name="agrave.alt" horiz-adv-x="697" 
d="M335 619l-108 107l52 25l91 -132h-35zM331 28c119 0 223 99 223 235v2c0 135 -104 234 -223 234c-124 0 -217 -92 -217 -233v-2c0 -139 96 -236 217 -236zM327 -12c-135 0 -259 108 -259 274v2c0 166 124 276 259 276c110 0 185 -65 225 -141v128h42v-527h-42v131
c-41 -78 -115 -143 -225 -143z" />
    <glyph glyph-name="Amacron" unicode="&#x100;" horiz-adv-x="826" 
d="M258 832v42h310v-42h-310zM211 249h402l-201 434zM50 0l342 733h42l343 -733h-49l-96 208h-440l-96 -208h-46z" />
    <glyph glyph-name="amacron" unicode="&#x101;" horiz-adv-x="606" 
d="M156 646v40h296v-40h-296zM263 27c118 0 210 74 210 169v62c-47 15 -107 27 -184 27c-114 0 -185 -49 -185 -130v-2c0 -81 75 -126 159 -126zM261 -12c-100 0 -202 55 -202 163v2c0 110 97 170 232 170c73 0 130 -10 182 -25v29c0 113 -69 169 -182 169
c-64 0 -117 -18 -168 -43l-15 37c57 27 115 46 186 46c72 0 129 -20 167 -58c34 -35 53 -84 53 -149v-329h-41v99c-32 -54 -102 -111 -212 -111z" />
    <glyph glyph-name="amacron.alt" horiz-adv-x="697" 
d="M203 646v40h296v-40h-296zM331 28c119 0 223 99 223 235v2c0 135 -104 234 -223 234c-124 0 -217 -92 -217 -233v-2c0 -139 96 -236 217 -236zM327 -12c-135 0 -259 108 -259 274v2c0 166 124 276 259 276c110 0 185 -65 225 -141v128h42v-527h-42v131
c-41 -78 -115 -143 -225 -143z" />
    <glyph glyph-name="Aogonek" unicode="&#x104;" horiz-adv-x="826" 
d="M789 -138v-31h-1c-79 2 -126 34 -125 81c0 34 22 64 62 94v1l-93 201h-440l-96 -208h-46l342 733h42l343 -733h-12c-41 -31 -59 -54 -59 -83c0 -31 24 -50 83 -55zM211 249h402l-201 434z" />
    <glyph glyph-name="aogonek" unicode="&#x105;" horiz-adv-x="606" 
d="M534 -169h-1c-79 2 -126 34 -125 81c0 35 23 65 65 97v90c-32 -54 -102 -111 -212 -111c-100 0 -202 55 -202 163v2c0 110 97 170 232 170c73 0 130 -10 182 -25v29c0 113 -69 169 -182 169c-64 0 -117 -18 -168 -43l-15 37c57 27 115 46 186 46c72 0 129 -20 167 -58
c34 -35 53 -84 53 -149v-329h-4c-41 -31 -59 -54 -59 -83c0 -31 24 -50 83 -55v-31zM263 27c118 0 210 74 210 169v62c-47 15 -107 27 -184 27c-114 0 -185 -49 -185 -130v-2c0 -81 75 -126 159 -126z" />
    <glyph glyph-name="aogonek.alt" horiz-adv-x="697" 
d="M614 -169h-1c-79 2 -126 34 -125 81c0 35 22 65 64 96v123c-41 -78 -115 -143 -225 -143c-135 0 -259 108 -259 274v2c0 166 124 276 259 276c110 0 185 -65 225 -141v128h42v-527h-4c-41 -31 -59 -54 -59 -83c0 -31 24 -50 83 -55v-31zM331 28c119 0 223 99 223 235v2
c0 135 -104 234 -223 234c-124 0 -217 -92 -217 -233v-2c0 -139 96 -236 217 -236z" />
    <glyph glyph-name="Aring" unicode="&#xc5;" horiz-adv-x="826" 
d="M413 719c42 0 75 28 75 68c0 39 -33 68 -75 68s-75 -29 -75 -68c0 -40 33 -68 75 -68zM211 249h402l-201 434zM50 0l325 696c-42 13 -71 48 -71 91c0 55 49 96 109 96s109 -41 109 -96c0 -43 -29 -78 -70 -91l325 -696h-49l-96 208h-440l-96 -208h-46z" />
    <glyph glyph-name="aring" unicode="&#xe5;" horiz-adv-x="606" 
d="M304 617c-58 0 -106 46 -106 102s48 102 106 102s106 -46 106 -102s-48 -102 -106 -102zM304 644c41 0 76 34 76 75s-35 75 -76 75s-76 -34 -76 -75s35 -75 76 -75zM263 27c118 0 210 74 210 169v62c-47 15 -107 27 -184 27c-114 0 -185 -49 -185 -130v-2
c0 -81 75 -126 159 -126zM261 -12c-100 0 -202 55 -202 163v2c0 110 97 170 232 170c73 0 130 -10 182 -25v29c0 113 -69 169 -182 169c-64 0 -117 -18 -168 -43l-15 37c57 27 115 46 186 46c72 0 129 -20 167 -58c34 -35 53 -84 53 -149v-329h-41v99
c-32 -54 -102 -111 -212 -111z" />
    <glyph glyph-name="aring.alt" horiz-adv-x="697" 
d="M351 617c-58 0 -106 46 -106 102s48 102 106 102s106 -46 106 -102s-48 -102 -106 -102zM351 644c41 0 76 34 76 75s-35 75 -76 75s-76 -34 -76 -75s35 -75 76 -75zM331 28c119 0 223 99 223 235v2c0 135 -104 234 -223 234c-124 0 -217 -92 -217 -233v-2
c0 -139 96 -236 217 -236zM327 -12c-135 0 -259 108 -259 274v2c0 166 124 276 259 276c110 0 185 -65 225 -141v128h42v-527h-42v131c-41 -78 -115 -143 -225 -143z" />
    <glyph glyph-name="aring.alt2" horiz-adv-x="606" 
d="M228 611c0 -41 34 -75 76 -75c41 0 75 34 75 75s-34 75 -75 75c-42 0 -76 -34 -76 -75zM263 27c118 0 210 74 210 169v62c-47 15 -107 27 -184 27c-114 0 -185 -49 -185 -130v-2c0 -81 75 -126 159 -126zM261 -12c-100 0 -202 55 -202 163v2c0 110 97 170 232 170
c73 0 130 -10 182 -25v29c0 113 -69 169 -182 169c-64 0 -117 -18 -168 -43l-15 37c42 19 84 35 132 42c-26 17 -42 45 -42 79c0 56 48 101 106 101s106 -45 106 -101c0 -35 -19 -65 -47 -83c40 -8 72 -25 98 -50c34 -35 53 -84 53 -149v-329h-41v99
c-32 -54 -102 -111 -212 -111z" />
    <glyph glyph-name="Aringacute" unicode="&#x1fa;" horiz-adv-x="826" 
d="M391 915l96 105l48 -24l-105 -81h-39zM413 719c42 0 75 28 75 68c0 39 -33 68 -75 68s-75 -29 -75 -68c0 -40 33 -68 75 -68zM211 249h402l-201 434zM50 0l325 696c-42 13 -71 48 -71 91c0 55 49 96 109 96s109 -41 109 -96c0 -43 -29 -78 -70 -91l325 -696h-49l-96 208
h-440l-96 -208h-46z" />
    <glyph glyph-name="aringacute" unicode="&#x1fb;" horiz-adv-x="606" 
d="M284 853l92 115l50 -25l-105 -90h-37zM304 617c-58 0 -106 46 -106 102s48 102 106 102s106 -46 106 -102s-48 -102 -106 -102zM304 644c41 0 76 34 76 75s-35 75 -76 75s-76 -34 -76 -75s35 -75 76 -75zM263 27c118 0 210 74 210 169v62c-47 15 -107 27 -184 27
c-114 0 -185 -49 -185 -130v-2c0 -81 75 -126 159 -126zM261 -12c-100 0 -202 55 -202 163v2c0 110 97 170 232 170c73 0 130 -10 182 -25v29c0 113 -69 169 -182 169c-64 0 -117 -18 -168 -43l-15 37c57 27 115 46 186 46c72 0 129 -20 167 -58c34 -35 53 -84 53 -149v-329
h-41v99c-32 -54 -102 -111 -212 -111z" />
    <glyph glyph-name="aringacute.alt" horiz-adv-x="697" 
d="M331 853l92 115l50 -25l-105 -90h-37zM351 617c-58 0 -106 46 -106 102s48 102 106 102s106 -46 106 -102s-48 -102 -106 -102zM351 644c41 0 76 34 76 75s-35 75 -76 75s-76 -34 -76 -75s35 -75 76 -75zM331 28c119 0 223 99 223 235v2c0 135 -104 234 -223 234
c-124 0 -217 -92 -217 -233v-2c0 -139 96 -236 217 -236zM327 -12c-135 0 -259 108 -259 274v2c0 166 124 276 259 276c110 0 185 -65 225 -141v128h42v-527h-42v131c-41 -78 -115 -143 -225 -143z" />
    <glyph glyph-name="aringacute.alt2" horiz-adv-x="606" 
d="M284 752l92 115l50 -25l-105 -90h-37zM228 611c0 -41 34 -75 76 -75c41 0 75 34 75 75s-34 75 -75 75c-42 0 -76 -34 -76 -75zM263 27c118 0 210 74 210 169v62c-47 15 -107 27 -184 27c-114 0 -185 -49 -185 -130v-2c0 -81 75 -126 159 -126zM261 -12
c-100 0 -202 55 -202 163v2c0 110 97 170 232 170c73 0 130 -10 182 -25v29c0 113 -69 169 -182 169c-64 0 -117 -18 -168 -43l-15 37c42 19 84 35 132 42c-26 17 -42 45 -42 79c0 56 48 101 106 101s106 -45 106 -101c0 -35 -19 -65 -47 -83c40 -8 72 -25 98 -50
c34 -35 53 -84 53 -149v-329h-41v99c-32 -54 -102 -111 -212 -111z" />
    <glyph glyph-name="Atilde" unicode="&#xc3;" horiz-adv-x="826" 
d="M483 808c-21 0 -46 12 -73 24c-21 10 -43 20 -59 20c-25 0 -39 -13 -54 -52l-31 8c17 63 44 87 82 87c21 0 46 -11 73 -24c21 -10 43 -20 59 -20c25 0 39 13 54 52l31 -9c-17 -62 -44 -86 -82 -86zM211 249h402l-201 434zM50 0l342 733h42l343 -733h-49l-96 208h-440
l-96 -208h-46z" />
    <glyph glyph-name="atilde" unicode="&#xe3;" horiz-adv-x="606" 
d="M374 622c-21 0 -44 12 -70 24c-23 12 -47 24 -64 24c-25 0 -39 -13 -54 -56l-29 8c17 70 44 92 83 92c21 0 44 -11 70 -24c23 -12 47 -24 64 -24c25 0 39 13 54 56l29 -7c-17 -71 -44 -93 -83 -93zM263 27c118 0 210 74 210 169v62c-47 15 -107 27 -184 27
c-114 0 -185 -49 -185 -130v-2c0 -81 75 -126 159 -126zM261 -12c-100 0 -202 55 -202 163v2c0 110 97 170 232 170c73 0 130 -10 182 -25v29c0 113 -69 169 -182 169c-64 0 -117 -18 -168 -43l-15 37c57 27 115 46 186 46c72 0 129 -20 167 -58c34 -35 53 -84 53 -149v-329
h-41v99c-32 -54 -102 -111 -212 -111z" />
    <glyph glyph-name="atilde.alt" horiz-adv-x="697" 
d="M420 622c-21 0 -44 12 -70 24c-23 12 -47 24 -64 24c-25 0 -39 -13 -54 -56l-29 8c17 70 44 92 83 92c21 0 44 -11 70 -24c23 -12 47 -24 64 -24c25 0 39 13 54 56l29 -7c-17 -71 -44 -93 -83 -93zM331 28c119 0 223 99 223 235v2c0 135 -104 234 -223 234
c-124 0 -217 -92 -217 -233v-2c0 -139 96 -236 217 -236zM327 -12c-135 0 -259 108 -259 274v2c0 166 124 276 259 276c110 0 185 -65 225 -141v128h42v-527h-42v131c-41 -78 -115 -143 -225 -143z" />
    <glyph glyph-name="Cacute" unicode="&#x106;" horiz-adv-x="779" 
d="M419 805l99 116l50 -24l-111 -92h-38zM442 -12c-207 0 -360 166 -360 374v2c0 206 153 376 362 376c132 0 208 -48 281 -116l-32 -32c-61 60 -135 108 -250 108c-180 0 -315 -149 -315 -334v-2c0 -187 137 -336 316 -336c109 0 186 45 255 115l30 -30
c-73 -73 -158 -125 -287 -125z" />
    <glyph glyph-name="cacute" unicode="&#x107;" horiz-adv-x="603" 
d="M314 619l91 132l52 -25l-108 -107h-35zM335 -12c-151 0 -269 125 -269 274v2c0 148 118 276 269 276c99 0 161 -45 211 -98l-30 -30c-46 47 -100 88 -182 88c-126 0 -222 -105 -222 -234v-2c0 -130 100 -237 226 -237c79 0 138 41 183 91l29 -26
c-52 -60 -117 -104 -215 -104z" />
    <glyph glyph-name="Ccaron" unicode="&#x10c;" horiz-adv-x="779" 
d="M567 913l-108 -108h-40l-108 108h46l83 -68l82 68h45zM442 -12c-207 0 -360 166 -360 374v2c0 206 153 376 362 376c132 0 208 -48 281 -116l-32 -32c-61 60 -135 108 -250 108c-180 0 -315 -149 -315 -334v-2c0 -187 137 -336 316 -336c109 0 186 45 255 115l30 -30
c-73 -73 -158 -125 -287 -125z" />
    <glyph glyph-name="ccaron" unicode="&#x10d;" horiz-adv-x="603" 
d="M454 743l-105 -124h-34l-105 124h40l83 -77l83 77h38zM335 -12c-151 0 -269 125 -269 274v2c0 148 118 276 269 276c99 0 161 -45 211 -98l-30 -30c-46 47 -100 88 -182 88c-126 0 -222 -105 -222 -234v-2c0 -130 100 -237 226 -237c79 0 138 41 183 91l29 -26
c-52 -60 -117 -104 -215 -104z" />
    <glyph glyph-name="Ccedilla" unicode="&#xc7;" horiz-adv-x="779" 
d="M382 -152l-46 23l79 118c-193 14 -333 174 -333 373v2c0 206 153 376 362 376c132 0 208 -48 281 -116l-32 -32c-61 60 -135 108 -250 108c-180 0 -315 -149 -315 -334v-2c0 -187 137 -336 316 -336c109 0 186 45 255 115l30 -30c-71 -71 -153 -122 -275 -125z" />
    <glyph glyph-name="ccedilla" unicode="&#xe7;" horiz-adv-x="603" 
d="M276 -152l-46 23l79 119c-138 12 -243 131 -243 272v2c0 148 118 276 269 276c99 0 161 -45 211 -98l-30 -30c-46 47 -100 88 -182 88c-126 0 -222 -105 -222 -234v-2c0 -130 100 -237 226 -237c79 0 138 41 183 91l29 -26c-50 -58 -111 -100 -202 -104z" />
    <glyph glyph-name="Cdotaccent" unicode="&#x10a;" horiz-adv-x="779" 
d="M405 811v70h68v-70h-68zM442 -12c-207 0 -360 166 -360 374v2c0 206 153 376 362 376c132 0 208 -48 281 -116l-32 -32c-61 60 -135 108 -250 108c-180 0 -315 -149 -315 -334v-2c0 -187 137 -336 316 -336c109 0 186 45 255 115l30 -30c-73 -73 -158 -125 -287 -125z
" />
    <glyph glyph-name="cdotaccent" unicode="&#x10b;" horiz-adv-x="603" 
d="M300 625v74h64v-74h-64zM335 -12c-151 0 -269 125 -269 274v2c0 148 118 276 269 276c99 0 161 -45 211 -98l-30 -30c-46 47 -100 88 -182 88c-126 0 -222 -105 -222 -234v-2c0 -130 100 -237 226 -237c79 0 138 41 183 91l29 -26c-52 -60 -117 -104 -215 -104z" />
    <glyph glyph-name="Dcaron" unicode="&#x10e;" horiz-adv-x="823" 
d="M519 904l-108 -108h-40l-108 108h46l83 -68l82 68h45zM114 0v728h240c229 0 387 -157 387 -362v-2c0 -205 -158 -364 -387 -364h-240zM354 687h-195v-646h195c207 0 341 142 341 321v2c0 178 -135 323 -341 323z" />
    <glyph glyph-name="dcaron" unicode="&#x10f;" horiz-adv-x="697" 
d="M663 604l18 155h52v-3l-45 -152h-25zM331 28c119 0 223 99 223 235v2c0 135 -104 234 -223 234c-124 0 -217 -92 -217 -233v-2c0 -139 96 -236 217 -236zM327 -12c-135 0 -259 108 -259 274v2c0 166 124 276 259 276c110 0 185 -65 225 -141v360h42v-759h-42v131
c-41 -78 -115 -143 -225 -143z" />
    <glyph glyph-name="Dcroat" unicode="&#x110;" horiz-adv-x="854" 
d="M145 0v345h-78v42h78v341h240c229 0 387 -157 387 -362v-2c0 -205 -158 -364 -387 -364h-240zM438 345h-248v-304h195c207 0 341 142 341 321v2c0 178 -135 323 -341 323h-195v-300h248v-42z" />
    <glyph glyph-name="dcroat" unicode="&#x111;" horiz-adv-x="697" 
d="M331 28c119 0 223 99 223 235v2c0 135 -104 234 -223 234c-124 0 -217 -92 -217 -233v-2c0 -139 96 -236 217 -236zM359 643v38h193v78h42v-78h73v-38h-73v-643h-42v131c-41 -78 -115 -143 -225 -143c-135 0 -259 108 -259 274v2c0 166 124 276 259 276
c110 0 185 -65 225 -141v244h-193z" />
    <glyph glyph-name="Eacute" unicode="&#xc9;" horiz-adv-x="706" 
d="M355 796l99 116l50 -24l-111 -92h-38zM114 0v728h515v-41h-470v-300h424v-41h-424v-305h475v-41h-520z" />
    <glyph glyph-name="eacute" unicode="&#xe9;" horiz-adv-x="619" 
d="M298 619l91 132l52 -25l-108 -107h-35zM326 -12c-140 0 -260 109 -260 275v2c0 154 108 275 251 275c154 0 242 -128 242 -277v-16h-448c8 -137 106 -220 217 -220c82 0 142 40 185 90l30 -26c-51 -60 -118 -103 -217 -103zM111 285h403c-7 111 -72 216 -198 216
c-113 0 -197 -93 -205 -216z" />
    <glyph glyph-name="Ebreve" unicode="&#x114;" horiz-adv-x="706" 
d="M374 794c-78 0 -130 38 -136 99h37c11 -34 42 -58 99 -58s87 24 99 58h37c-7 -61 -58 -99 -136 -99zM114 0v728h515v-41h-470v-300h424v-41h-424v-305h475v-41h-520z" />
    <glyph glyph-name="ebreve" unicode="&#x115;" horiz-adv-x="619" 
d="M317 617c-78 0 -130 44 -136 112h34c11 -39 44 -71 102 -71c59 0 91 32 102 71h34c-6 -68 -59 -112 -136 -112zM326 -12c-140 0 -260 109 -260 275v2c0 154 108 275 251 275c154 0 242 -128 242 -277v-16h-448c8 -137 106 -220 217 -220c82 0 142 40 185 90l30 -26
c-51 -60 -118 -103 -217 -103zM111 285h403c-7 111 -72 216 -198 216c-113 0 -197 -93 -205 -216z" />
    <glyph glyph-name="Ecaron" unicode="&#x11a;" horiz-adv-x="706" 
d="M502 904l-108 -108h-40l-108 108h46l83 -68l82 68h45zM114 0v728h515v-41h-470v-300h424v-41h-424v-305h475v-41h-520z" />
    <glyph glyph-name="ecaron" unicode="&#x11b;" horiz-adv-x="619" 
d="M439 743l-105 -124h-34l-105 124h40l83 -77l83 77h38zM326 -12c-140 0 -260 109 -260 275v2c0 154 108 275 251 275c154 0 242 -128 242 -277v-16h-448c8 -137 106 -220 217 -220c82 0 142 40 185 90l30 -26c-51 -60 -118 -103 -217 -103zM111 285h403
c-7 111 -72 216 -198 216c-113 0 -197 -93 -205 -216z" />
    <glyph glyph-name="Ecircumflex" unicode="&#xca;" horiz-adv-x="706" 
d="M246 796l108 108h40l108 -108h-46l-83 67l-82 -67h-45zM114 0v728h515v-41h-470v-300h424v-41h-424v-305h475v-41h-520z" />
    <glyph glyph-name="ecircumflex" unicode="&#xea;" horiz-adv-x="619" 
d="M195 619l105 124h34l105 -124h-40l-83 76l-83 -76h-38zM326 -12c-140 0 -260 109 -260 275v2c0 154 108 275 251 275c154 0 242 -128 242 -277v-16h-448c8 -137 106 -220 217 -220c82 0 142 40 185 90l30 -26c-51 -60 -118 -103 -217 -103zM111 285h403
c-7 111 -72 216 -198 216c-113 0 -197 -93 -205 -216z" />
    <glyph glyph-name="Edieresis" unicode="&#xcb;" horiz-adv-x="706" 
d="M256 802v70h66v-70h-66zM428 802v70h65v-70h-65zM114 0v728h515v-41h-470v-300h424v-41h-424v-305h475v-41h-520z" />
    <glyph glyph-name="edieresis" unicode="&#xeb;" horiz-adv-x="619" 
d="M207 625v74h61v-74h-61zM366 625v74h61v-74h-61zM326 -12c-140 0 -260 109 -260 275v2c0 154 108 275 251 275c154 0 242 -128 242 -277v-16h-448c8 -137 106 -220 217 -220c82 0 142 40 185 90l30 -26c-51 -60 -118 -103 -217 -103zM111 285h403
c-7 111 -72 216 -198 216c-113 0 -197 -93 -205 -216z" />
    <glyph glyph-name="Edotaccent" unicode="&#x116;" horiz-adv-x="706" 
d="M340 802v70h68v-70h-68zM114 0v728h515v-41h-470v-300h424v-41h-424v-305h475v-41h-520z" />
    <glyph glyph-name="edotaccent" unicode="&#x117;" horiz-adv-x="619" 
d="M285 625v74h64v-74h-64zM326 -12c-140 0 -260 109 -260 275v2c0 154 108 275 251 275c154 0 242 -128 242 -277v-16h-448c8 -137 106 -220 217 -220c82 0 142 40 185 90l30 -26c-51 -60 -118 -103 -217 -103zM111 285h403c-7 111 -72 216 -198 216
c-113 0 -197 -93 -205 -216z" />
    <glyph glyph-name="Egrave" unicode="&#xc8;" horiz-adv-x="706" 
d="M393 796h-38l-111 92l50 24zM114 0v728h515v-41h-470v-300h424v-41h-424v-305h475v-41h-520z" />
    <glyph glyph-name="egrave" unicode="&#xe8;" horiz-adv-x="619" 
d="M301 619l-108 107l52 25l91 -132h-35zM326 -12c-140 0 -260 109 -260 275v2c0 154 108 275 251 275c154 0 242 -128 242 -277v-16h-448c8 -137 106 -220 217 -220c82 0 142 40 185 90l30 -26c-51 -60 -118 -103 -217 -103zM111 285h403c-7 111 -72 216 -198 216
c-113 0 -197 -93 -205 -216z" />
    <glyph glyph-name="Emacron" unicode="&#x112;" horiz-adv-x="706" 
d="M219 823v42h310v-42h-310zM114 0v728h515v-41h-470v-300h424v-41h-424v-305h475v-41h-520z" />
    <glyph glyph-name="emacron" unicode="&#x113;" horiz-adv-x="619" 
d="M169 646v40h296v-40h-296zM326 -12c-140 0 -260 109 -260 275v2c0 154 108 275 251 275c154 0 242 -128 242 -277v-16h-448c8 -137 106 -220 217 -220c82 0 142 40 185 90l30 -26c-51 -60 -118 -103 -217 -103zM111 285h403c-7 111 -72 216 -198 216
c-113 0 -197 -93 -205 -216z" />
    <glyph glyph-name="Eogonek" unicode="&#x118;" horiz-adv-x="706" 
d="M114 0v728h515v-41h-470v-300h424v-41h-424v-305h475v-41h-24c-41 -31 -59 -54 -59 -83c0 -31 24 -50 83 -55v-31h-1c-79 2 -126 34 -125 81c0 32 19 60 53 88h-447z" />
    <glyph glyph-name="eogonek" unicode="&#x119;" horiz-adv-x="619" 
d="M513 117l30 -26c-18 -21 -33 -35 -64 -60c-60 -50 -77 -78 -77 -109c0 -36 25 -54 83 -60v-31h-1c-78 2 -126 33 -125 84c0 30 14 55 44 83c-25 -7 -49 -10 -77 -10c-140 0 -260 109 -260 275v2c0 154 108 275 251 275c154 0 242 -128 242 -277c0 -7 1 -10 0 -16h-448
c8 -137 106 -220 217 -220c82 0 142 40 185 90zM111 285h403c-7 111 -72 216 -198 216c-113 0 -197 -93 -205 -216z" />
    <glyph glyph-name="Gbreve" unicode="&#x11e;" horiz-adv-x="826" 
d="M434 803c-78 0 -130 38 -136 99h37c11 -34 42 -58 99 -58s87 24 99 58h37c-7 -61 -58 -99 -136 -99zM446 -12c-229 0 -364 170 -364 374v2c0 196 141 376 360 376c116 0 189 -34 262 -95l-29 -33c-60 51 -127 88 -236 88c-185 0 -311 -157 -311 -334v-2
c0 -189 120 -337 320 -337c97 0 184 42 240 88v217h-251v42h294v-276c-67 -60 -167 -110 -285 -110z" />
    <glyph glyph-name="gbreve" unicode="&#x11f;" horiz-adv-x="694" 
d="M351 617c-78 0 -130 44 -136 112h34c11 -39 44 -71 102 -71c59 0 91 32 102 71h34c-6 -68 -59 -112 -136 -112zM328 80c116 0 224 87 224 208v2c0 122 -108 209 -224 209c-117 0 -214 -84 -214 -208v-2c0 -121 98 -209 214 -209zM333 -169c-88 0 -168 27 -241 81l25 34
c65 -49 138 -75 217 -75c127 0 215 72 215 214v85c-43 -72 -120 -131 -225 -131c-132 0 -256 102 -256 249v2c0 147 124 250 256 250c106 0 183 -58 225 -128v115h42v-446c0 -77 -24 -138 -67 -180c-45 -45 -113 -70 -191 -70z" />
    <glyph glyph-name="Gcommaaccent" unicode="&#x122;" horiz-adv-x="826" 
d="M446 -12c-229 0 -364 170 -364 374v2c0 196 141 376 360 376c116 0 189 -34 262 -95l-29 -33c-60 51 -127 88 -236 88c-185 0 -311 -157 -311 -334v-2c0 -189 120 -337 320 -337c97 0 184 42 240 88v217h-251v42h294v-276c-67 -60 -167 -110 -285 -110zM388 -223l-7 22
c35 9 50 25 48 56h-28v66h64v-52c0 -54 -25 -82 -77 -92z" />
    <glyph glyph-name="gcommaaccent" unicode="&#x123;" horiz-adv-x="694" 
d="M396 768l6 -21c-35 -10 -49 -26 -48 -56h28v-67h-63v52c0 54 24 82 77 92zM328 80c116 0 224 87 224 208v2c0 122 -108 209 -224 209c-117 0 -214 -84 -214 -208v-2c0 -121 98 -209 214 -209zM333 -169c-88 0 -168 27 -241 81l25 34c65 -49 138 -75 217 -75
c127 0 215 72 215 214v85c-43 -72 -120 -131 -225 -131c-132 0 -256 102 -256 249v2c0 147 124 250 256 250c106 0 183 -58 225 -128v115h42v-446c0 -77 -24 -138 -67 -180c-45 -45 -113 -70 -191 -70z" />
    <glyph glyph-name="Gdotaccent" unicode="&#x120;" horiz-adv-x="826" 
d="M400 811v70h68v-70h-68zM446 -12c-229 0 -364 170 -364 374v2c0 196 141 376 360 376c116 0 189 -34 262 -95l-29 -33c-60 51 -127 88 -236 88c-185 0 -311 -157 -311 -334v-2c0 -189 120 -337 320 -337c97 0 184 42 240 88v217h-251v42h294v-276
c-67 -60 -167 -110 -285 -110z" />
    <glyph glyph-name="gdotaccent" unicode="&#x121;" horiz-adv-x="694" 
d="M319 625v74h64v-74h-64zM328 80c116 0 224 87 224 208v2c0 122 -108 209 -224 209c-117 0 -214 -84 -214 -208v-2c0 -121 98 -209 214 -209zM333 -169c-88 0 -168 27 -241 81l25 34c65 -49 138 -75 217 -75c127 0 215 72 215 214v85c-43 -72 -120 -131 -225 -131
c-132 0 -256 102 -256 249v2c0 147 124 250 256 250c106 0 183 -58 225 -128v115h42v-446c0 -77 -24 -138 -67 -180c-45 -45 -113 -70 -191 -70z" />
    <glyph glyph-name="Hbar" unicode="&#x126;" horiz-adv-x="844" 
d="M181 383h482v153h-482v-153zM58 536v38h78v154h45v-154h482v154h45v-154h78v-38h-78v-536h-45v342h-482v-342h-45v536h-78z" />
    <glyph glyph-name="hbar" unicode="&#x127;" horiz-adv-x="648" 
d="M337 643h-192v-228c30 63 92 125 197 125c136 0 214 -93 214 -225v-315h-43v308c0 116 -63 193 -177 193c-108 0 -191 -85 -191 -200v-301h-42v643h-73v38h73v78h42v-78h192v-38z" />
    <glyph glyph-name="Iacute" unicode="&#xcd;" horiz-adv-x="288" 
d="M124 796l99 116l50 -24l-111 -92h-38zM121 0v728h45v-728h-45z" />
    <glyph glyph-name="iacute" unicode="&#xed;" horiz-adv-x="262" 
d="M111 619l91 132l52 -25l-108 -107h-35zM110 0v527h42v-527h-42z" />
    <glyph glyph-name="Ibreve" unicode="&#x12c;" horiz-adv-x="288" 
d="M144 794c-78 0 -130 38 -136 99h37c11 -34 42 -58 99 -58s87 24 99 58h37c-7 -61 -58 -99 -136 -99zM121 0v728h45v-728h-45z" />
    <glyph glyph-name="ibreve" unicode="&#x12d;" horiz-adv-x="262" 
d="M130 617c-78 0 -130 44 -136 112h34c11 -39 44 -71 102 -71c59 0 91 32 102 71h34c-6 -68 -59 -112 -136 -112zM110 0v527h42v-527h-42z" />
    <glyph glyph-name="Icircumflex" unicode="&#xce;" horiz-adv-x="288" 
d="M16 796l108 108h40l108 -108h-46l-83 67l-82 -67h-45zM121 0v728h45v-728h-45z" />
    <glyph glyph-name="icircumflex" unicode="&#xee;" horiz-adv-x="262" 
d="M8 619l105 124h34l105 -124h-40l-83 76l-83 -76h-38zM110 0v527h42v-527h-42z" />
    <glyph glyph-name="Idieresis" unicode="&#xcf;" horiz-adv-x="288" 
d="M26 802v70h66v-70h-66zM198 802v70h65v-70h-65zM121 0v728h45v-728h-45z" />
    <glyph glyph-name="idieresis" unicode="&#xef;" horiz-adv-x="262" 
d="M20 625v74h61v-74h-61zM179 625v74h61v-74h-61zM110 0v527h42v-527h-42z" />
    <glyph glyph-name="Idotaccent" unicode="&#x130;" horiz-adv-x="288" 
d="M110 802v70h68v-70h-68zM121 0v728h45v-728h-45z" />
    <glyph glyph-name="i.dot" horiz-adv-x="262" 
d="M104 669v66h54v-66h-54zM110 0v527h42v-527h-42z" />
    <glyph glyph-name="dotlessi" unicode="&#x131;" horiz-adv-x="262" 
d="M110 0v527h42v-527h-42z" />
    <glyph glyph-name="Igrave" unicode="&#xcc;" horiz-adv-x="288" 
d="M163 796h-38l-111 92l50 24zM121 0v728h45v-728h-45z" />
    <glyph glyph-name="igrave" unicode="&#xec;" horiz-adv-x="262" 
d="M114 619l-108 107l52 25l91 -132h-35zM110 0v527h42v-527h-42z" />
    <glyph glyph-name="Imacron" unicode="&#x12a;" horiz-adv-x="288" 
d="M-11 823v42h310v-42h-310zM121 0v728h45v-728h-45z" />
    <glyph glyph-name="imacron" unicode="&#x12b;" horiz-adv-x="262" 
d="M-18 646v40h296v-40h-296zM110 0v527h42v-527h-42z" />
    <glyph glyph-name="Iogonek" unicode="&#x12e;" horiz-adv-x="288" 
d="M186 -169h-1c-79 2 -126 34 -125 81c0 34 21 63 61 94v722h45v-728h-4c-41 -31 -59 -54 -59 -83c0 -31 24 -50 83 -55v-31z" />
    <glyph glyph-name="iogonek" unicode="&#x12f;" horiz-adv-x="262" 
d="M104 669v66h54v-66h-54zM173 -169h-1c-79 2 -126 34 -125 81c0 35 22 64 63 95v520h42v-527h-3c-41 -31 -59 -54 -59 -83c0 -31 24 -50 83 -55v-31z" />
    <glyph glyph-name="Kcommaaccent" unicode="&#x136;" horiz-adv-x="746" 
d="M114 0v728h45v-482l476 482h61l-318 -317l331 -411h-58l-304 379l-188 -187v-192h-45zM334 -216l-7 22c35 9 50 25 48 56h-28v66h64v-52c0 -54 -25 -82 -77 -92z" />
    <glyph glyph-name="kcommaaccent" unicode="&#x137;" horiz-adv-x="587" 
d="M103 0v759h42v-571l338 339h56l-236 -233l246 -294h-53l-222 264l-129 -127v-137h-42zM263 -219l-7 22c35 9 50 25 48 56h-28v66h64v-52c0 -54 -25 -82 -77 -92z" />
    <glyph glyph-name="Lacute" unicode="&#x139;" horiz-adv-x="641" 
d="M128 796l99 116l50 -24l-111 -92h-38zM114 0v728h45v-687h433v-41h-478z" />
    <glyph glyph-name="lacute" unicode="&#x13a;" horiz-adv-x="262" 
d="M111 816l99 116l50 -24l-111 -92h-38zM110 0v759h42v-759h-42z" />
    <glyph glyph-name="Lcaron" unicode="&#x13d;" horiz-adv-x="641" 
d="M272 573l18 155h52v-3l-45 -152h-25zM114 0v728h45v-687h433v-41h-478z" />
    <glyph glyph-name="lcaron" unicode="&#x13e;" horiz-adv-x="262" 
d="M110 0v759h42v-759h-42zM221 604l18 155h52v-3l-45 -152h-25z" />
    <glyph glyph-name="Lcommaaccent" unicode="&#x13b;" horiz-adv-x="641" 
d="M114 0v728h45v-687h433v-41h-478zM302 -221l-7 22c35 9 50 25 48 56h-28v66h64v-52c0 -54 -25 -82 -77 -92z" />
    <glyph glyph-name="lcommaaccent" unicode="&#x13c;" horiz-adv-x="262" 
d="M110 0v759h42v-759h-42zM84 -221l-7 22c35 9 50 25 48 56h-28v66h64v-52c0 -54 -25 -82 -77 -92z" />
    <glyph glyph-name="Ldot" unicode="&#x13f;" horiz-adv-x="641" 
d="M114 0v728h45v-687h433v-41h-478zM440 336v77h63v-77h-63z" />
    <glyph glyph-name="ldot" unicode="&#x140;" horiz-adv-x="305" 
d="M110 0v759h42v-759h-42zM247 342v76h63v-76h-63z" />
    <glyph glyph-name="Lslash" unicode="&#x141;" horiz-adv-x="671" 
d="M392 433l-204 -98v-294h434v-41h-478v314l-84 -40v46l84 39v369h44v-348l204 98v-45z" />
    <glyph glyph-name="lslash" unicode="&#x142;" horiz-adv-x="318" 
d="M260 416l-80 -44v-372h-42v348l-81 -45v46l81 44v366h42v-342l80 45v-46z" />
    <glyph glyph-name="Nacute" unicode="&#x143;" horiz-adv-x="830" 
d="M398 791l99 116l50 -24l-111 -92h-38zM114 0v728h42l517 -651v651h43v-728h-34l-525 660v-660h-43z" />
    <glyph glyph-name="nacute" unicode="&#x144;" horiz-adv-x="648" 
d="M310 619l91 132l52 -25l-108 -107h-35zM103 0v527h42v-112c30 63 92 125 197 125c136 0 214 -93 214 -225v-315h-43v308c0 116 -63 193 -177 193c-108 0 -191 -85 -191 -200v-301h-42z" />
    <glyph glyph-name="Ncaron" unicode="&#x147;" horiz-adv-x="830" 
d="M546 899l-108 -108h-40l-108 108h46l83 -68l82 68h45zM114 0v728h42l517 -651v651h43v-728h-34l-525 660v-660h-43z" />
    <glyph glyph-name="ncaron" unicode="&#x148;" horiz-adv-x="648" 
d="M451 743l-105 -124h-34l-105 124h40l83 -77l83 77h38zM103 0v527h42v-112c30 63 92 125 197 125c136 0 214 -93 214 -225v-315h-43v308c0 116 -63 193 -177 193c-108 0 -191 -85 -191 -200v-301h-42z" />
    <glyph glyph-name="Ncommaaccent" unicode="&#x145;" horiz-adv-x="830" 
d="M114 0v728h42l517 -651v651h43v-728h-34l-525 660v-660h-43zM372 -216l-7 22c35 9 50 25 48 56h-28v66h64v-52c0 -54 -25 -82 -77 -92z" />
    <glyph glyph-name="ncommaaccent" unicode="&#x146;" horiz-adv-x="648" 
d="M103 0v527h42v-112c30 63 92 125 197 125c136 0 214 -93 214 -225v-315h-43v308c0 116 -63 193 -177 193c-108 0 -191 -85 -191 -200v-301h-42zM283 -219l-7 22c35 9 50 25 48 56h-28v66h64v-52c0 -54 -25 -82 -77 -92z" />
    <glyph glyph-name="Ntilde" unicode="&#xd1;" horiz-adv-x="830" 
d="M488 794c-21 0 -46 12 -73 24c-21 10 -43 20 -59 20c-25 0 -39 -13 -54 -52l-31 8c17 63 44 87 82 87c21 0 46 -11 73 -24c21 -10 43 -20 59 -20c25 0 39 13 54 52l31 -9c-17 -62 -44 -86 -82 -86zM114 0v728h42l517 -651v651h43v-728h-34l-525 660v-660h-43z" />
    <glyph glyph-name="ntilde" unicode="&#xf1;" horiz-adv-x="648" 
d="M399 622c-21 0 -44 12 -70 24c-23 12 -47 24 -64 24c-25 0 -39 -13 -54 -56l-29 8c17 70 44 92 83 92c21 0 44 -11 70 -24c23 -12 47 -24 64 -24c25 0 39 13 54 56l29 -7c-17 -71 -44 -93 -83 -93zM103 0v527h42v-112c30 63 92 125 197 125c136 0 214 -93 214 -225v-315
h-43v308c0 116 -63 193 -177 193c-108 0 -191 -85 -191 -200v-301h-42z" />
    <glyph glyph-name="Oacute" unicode="&#xd3;" horiz-adv-x="894" 
d="M427 805l99 116l50 -24l-111 -92h-38zM446 -12c-220 0 -364 176 -364 374v2c0 199 145 376 365 376c221 0 365 -176 365 -374v-2c0 -199 -145 -376 -366 -376zM448 28c187 0 317 152 317 334v2c0 182 -133 336 -319 336c-187 0 -318 -152 -318 -334v-2
c0 -182 133 -336 320 -336z" />
    <glyph glyph-name="oacute" unicode="&#xf3;" horiz-adv-x="676" 
d="M319 619l91 132l52 -25l-108 -107h-35zM337 -12c-158 0 -271 126 -271 274v2c0 147 113 276 273 276c158 0 271 -126 271 -274v-2c0 -148 -113 -276 -273 -276zM339 27c132 0 225 107 225 235v2c0 130 -98 236 -227 236c-132 0 -226 -106 -226 -235v-2
c0 -130 98 -236 228 -236z" />
    <glyph glyph-name="Obreve" unicode="&#x14e;" horiz-adv-x="894" 
d="M447 803c-78 0 -130 38 -136 99h37c11 -34 42 -58 99 -58s87 24 99 58h37c-7 -61 -58 -99 -136 -99zM446 -12c-220 0 -364 176 -364 374v2c0 199 145 376 365 376c221 0 365 -176 365 -374v-2c0 -199 -145 -376 -366 -376zM448 28c187 0 317 152 317 334v2
c0 182 -133 336 -319 336c-187 0 -318 -152 -318 -334v-2c0 -182 133 -336 320 -336z" />
    <glyph glyph-name="obreve" unicode="&#x14f;" horiz-adv-x="676" 
d="M338 617c-78 0 -130 44 -136 112h34c11 -39 44 -71 102 -71c59 0 91 32 102 71h34c-6 -68 -59 -112 -136 -112zM337 -12c-158 0 -271 126 -271 274v2c0 147 113 276 273 276c158 0 271 -126 271 -274v-2c0 -148 -113 -276 -273 -276zM339 27c132 0 225 107 225 235v2
c0 130 -98 236 -227 236c-132 0 -226 -106 -226 -235v-2c0 -130 98 -236 228 -236z" />
    <glyph glyph-name="Ocircumflex" unicode="&#xd4;" horiz-adv-x="894" 
d="M319 805l108 108h40l108 -108h-46l-83 67l-82 -67h-45zM446 -12c-220 0 -364 176 -364 374v2c0 199 145 376 365 376c221 0 365 -176 365 -374v-2c0 -199 -145 -376 -366 -376zM448 28c187 0 317 152 317 334v2c0 182 -133 336 -319 336c-187 0 -318 -152 -318 -334v-2
c0 -182 133 -336 320 -336z" />
    <glyph glyph-name="ocircumflex" unicode="&#xf4;" horiz-adv-x="676" 
d="M216 619l105 124h34l105 -124h-40l-83 76l-83 -76h-38zM337 -12c-158 0 -271 126 -271 274v2c0 147 113 276 273 276c158 0 271 -126 271 -274v-2c0 -148 -113 -276 -273 -276zM339 27c132 0 225 107 225 235v2c0 130 -98 236 -227 236c-132 0 -226 -106 -226 -235v-2
c0 -130 98 -236 228 -236z" />
    <glyph glyph-name="Odieresis" unicode="&#xd6;" horiz-adv-x="894" 
d="M328 811v70h66v-70h-66zM500 811v70h65v-70h-65zM446 -12c-220 0 -364 176 -364 374v2c0 199 145 376 365 376c221 0 365 -176 365 -374v-2c0 -199 -145 -376 -366 -376zM448 28c187 0 317 152 317 334v2c0 182 -133 336 -319 336c-187 0 -318 -152 -318 -334v-2
c0 -182 133 -336 320 -336z" />
    <glyph glyph-name="odieresis" unicode="&#xf6;" horiz-adv-x="676" 
d="M228 625v74h61v-74h-61zM387 625v74h61v-74h-61zM337 -12c-158 0 -271 126 -271 274v2c0 147 113 276 273 276c158 0 271 -126 271 -274v-2c0 -148 -113 -276 -273 -276zM339 27c132 0 225 107 225 235v2c0 130 -98 236 -227 236c-132 0 -226 -106 -226 -235v-2
c0 -130 98 -236 228 -236z" />
    <glyph glyph-name="Ograve" unicode="&#xd2;" horiz-adv-x="894" 
d="M466 805h-38l-111 92l50 24zM446 -12c-220 0 -364 176 -364 374v2c0 199 145 376 365 376c221 0 365 -176 365 -374v-2c0 -199 -145 -376 -366 -376zM448 28c187 0 317 152 317 334v2c0 182 -133 336 -319 336c-187 0 -318 -152 -318 -334v-2c0 -182 133 -336 320 -336z
" />
    <glyph glyph-name="ograve" unicode="&#xf2;" horiz-adv-x="676" 
d="M322 619l-108 107l52 25l91 -132h-35zM337 -12c-158 0 -271 126 -271 274v2c0 147 113 276 273 276c158 0 271 -126 271 -274v-2c0 -148 -113 -276 -273 -276zM339 27c132 0 225 107 225 235v2c0 130 -98 236 -227 236c-132 0 -226 -106 -226 -235v-2
c0 -130 98 -236 228 -236z" />
    <glyph glyph-name="Ohungarumlaut" unicode="&#x150;" horiz-adv-x="894" 
d="M488 805l99 116l50 -24l-110 -92h-39zM348 805l99 116l50 -24l-110 -92h-39zM446 -12c-220 0 -364 176 -364 374v2c0 199 145 376 365 376c221 0 365 -176 365 -374v-2c0 -199 -145 -376 -366 -376zM448 28c187 0 317 152 317 334v2c0 182 -133 336 -319 336
c-187 0 -318 -152 -318 -334v-2c0 -182 133 -336 320 -336z" />
    <glyph glyph-name="ohungarumlaut" unicode="&#x151;" horiz-adv-x="676" 
d="M246 619l92 132l48 -25l-104 -107h-36zM377 619l92 132l47 -25l-104 -107h-35zM337 -12c-158 0 -271 126 -271 274v2c0 147 113 276 273 276c158 0 271 -126 271 -274v-2c0 -148 -113 -276 -273 -276zM339 27c132 0 225 107 225 235v2c0 130 -98 236 -227 236
c-132 0 -226 -106 -226 -235v-2c0 -130 98 -236 228 -236z" />
    <glyph glyph-name="Omacron" unicode="&#x14c;" horiz-adv-x="894" 
d="M292 832v42h310v-42h-310zM446 -12c-220 0 -364 176 -364 374v2c0 199 145 376 365 376c221 0 365 -176 365 -374v-2c0 -199 -145 -376 -366 -376zM448 28c187 0 317 152 317 334v2c0 182 -133 336 -319 336c-187 0 -318 -152 -318 -334v-2c0 -182 133 -336 320 -336z
" />
    <glyph glyph-name="omacron" unicode="&#x14d;" horiz-adv-x="676" 
d="M190 646v40h296v-40h-296zM337 -12c-158 0 -271 126 -271 274v2c0 147 113 276 273 276c158 0 271 -126 271 -274v-2c0 -148 -113 -276 -273 -276zM339 27c132 0 225 107 225 235v2c0 130 -98 236 -227 236c-132 0 -226 -106 -226 -235v-2c0 -130 98 -236 228 -236z" />
    <glyph glyph-name="Oslash" unicode="&#xd8;" horiz-adv-x="894" 
d="M764 733h52l-101 -108c62 -69 97 -162 97 -259v-2c0 -199 -145 -376 -366 -376c-97 0 -179 34 -240 89l-77 -82h-52l102 108c-62 69 -97 161 -97 259v2c0 199 145 376 365 376c97 0 179 -34 240 -89zM127 365c0 -89 30 -170 82 -230l451 483c-55 51 -129 83 -214 83
c-188 0 -319 -152 -319 -335v-1zM448 27c188 0 318 152 318 335v1c0 88 -30 169 -82 230l-450 -484c55 -51 128 -82 214 -82z" />
    <glyph glyph-name="oslash" unicode="&#xf8;" horiz-adv-x="676" 
d="M570 534h49l-79 -83c44 -50 70 -115 70 -185v-2c0 -148 -113 -276 -273 -276c-70 0 -130 24 -177 64l-54 -57h-50l79 82c-44 49 -69 114 -69 185v2c0 147 113 276 273 276c69 0 130 -25 176 -64zM111 264c0 -60 20 -114 54 -156l323 336c-40 36 -92 57 -151 57
c-133 0 -226 -107 -226 -236v-1zM339 27c133 0 226 106 226 235v1c0 60 -20 115 -55 157l-322 -337c40 -35 92 -57 151 -56z" />
    <glyph glyph-name="Oslashacute" unicode="&#x1fe;" horiz-adv-x="894" 
d="M427 805l99 116l50 -24l-111 -92h-38zM764 733h52l-101 -108c62 -69 97 -162 97 -259v-2c0 -199 -145 -376 -366 -376c-97 0 -179 34 -240 89l-77 -82h-52l102 108c-62 69 -97 161 -97 259v2c0 199 145 376 365 376c97 0 179 -34 240 -89zM127 365c0 -89 30 -170 82 -230
l451 483c-55 51 -129 83 -214 83c-188 0 -319 -152 -319 -335v-1zM448 27c188 0 318 152 318 335v1c0 88 -30 169 -82 230l-450 -484c55 -51 128 -82 214 -82z" />
    <glyph glyph-name="oslashacute" unicode="&#x1ff;" horiz-adv-x="676" 
d="M319 619l91 132l52 -25l-108 -107h-35zM570 534h49l-79 -83c44 -50 70 -115 70 -185v-2c0 -148 -113 -276 -273 -276c-70 0 -130 24 -177 64l-54 -57h-50l79 82c-44 49 -69 114 -69 185v2c0 147 113 276 273 276c69 0 130 -25 176 -64zM111 264c0 -60 20 -114 54 -156
l323 336c-40 36 -92 57 -151 57c-133 0 -226 -107 -226 -236v-1zM339 27c133 0 226 106 226 235v1c0 60 -20 115 -55 157l-322 -337c40 -35 92 -57 151 -56z" />
    <glyph glyph-name="Otilde" unicode="&#xd5;" horiz-adv-x="894" 
d="M517 808c-21 0 -46 12 -73 24c-21 10 -43 20 -59 20c-25 0 -39 -13 -54 -52l-31 8c17 63 44 87 82 87c21 0 46 -11 73 -24c21 -10 43 -20 59 -20c25 0 39 13 54 52l31 -9c-17 -62 -44 -86 -82 -86zM446 -12c-220 0 -364 176 -364 374v2c0 199 145 376 365 376
c221 0 365 -176 365 -374v-2c0 -199 -145 -376 -366 -376zM448 28c187 0 317 152 317 334v2c0 182 -133 336 -319 336c-187 0 -318 -152 -318 -334v-2c0 -182 133 -336 320 -336z" />
    <glyph glyph-name="otilde" unicode="&#xf5;" horiz-adv-x="676" 
d="M408 622c-21 0 -44 12 -70 24c-23 12 -47 24 -64 24c-25 0 -39 -13 -54 -56l-29 8c17 70 44 92 83 92c21 0 44 -11 70 -24c23 -12 47 -24 64 -24c25 0 39 13 54 56l29 -7c-17 -71 -44 -93 -83 -93zM337 -12c-158 0 -271 126 -271 274v2c0 147 113 276 273 276
c158 0 271 -126 271 -274v-2c0 -148 -113 -276 -273 -276zM339 27c132 0 225 107 225 235v2c0 130 -98 236 -227 236c-132 0 -226 -106 -226 -235v-2c0 -130 98 -236 228 -236z" />
    <glyph glyph-name="Racute" unicode="&#x154;" horiz-adv-x="764" 
d="M351 796l99 116l50 -24l-111 -92h-38zM159 347h251c135 0 223 67 223 171v2c0 103 -81 167 -218 167h-256v-340zM114 0v728h303c91 0 163 -27 207 -71c34 -34 54 -82 54 -135v-2c0 -122 -93 -193 -221 -207l241 -313h-57l-234 306h-248v-306h-45z" />
    <glyph glyph-name="racute" unicode="&#x155;" horiz-adv-x="408" 
d="M199 619l91 132l52 -25l-108 -107h-35zM103 0v527h42v-155c36 92 121 168 229 165v-46h-5c-125 0 -224 -107 -224 -258v-233h-42z" />
    <glyph glyph-name="Rcaron" unicode="&#x158;" horiz-adv-x="764" 
d="M498 904l-108 -108h-40l-108 108h46l83 -68l82 68h45zM159 347h251c135 0 223 67 223 171v2c0 103 -81 167 -218 167h-256v-340zM114 0v728h303c91 0 163 -27 207 -71c34 -34 54 -82 54 -135v-2c0 -122 -93 -193 -221 -207l241 -313h-57l-234 306h-248v-306h-45z" />
    <glyph glyph-name="rcaron" unicode="&#x159;" horiz-adv-x="408" 
d="M340 743l-105 -124h-34l-105 124h40l83 -77l83 77h38zM103 0v527h42v-155c36 92 121 168 229 165v-46h-5c-125 0 -224 -107 -224 -258v-233h-42z" />
    <glyph glyph-name="Rcommaaccent" unicode="&#x156;" horiz-adv-x="764" 
d="M159 347h251c135 0 223 67 223 171v2c0 103 -81 167 -218 167h-256v-340zM114 0v728h303c91 0 163 -27 207 -71c34 -34 54 -82 54 -135v-2c0 -122 -93 -193 -221 -207l241 -313h-57l-234 306h-248v-306h-45zM324 -216l-7 22c35 9 50 25 48 56h-28v66h64v-52
c0 -54 -25 -82 -77 -92z" />
    <glyph glyph-name="rcommaaccent" unicode="&#x157;" horiz-adv-x="408" 
d="M103 0v527h42v-155c36 92 121 168 229 165v-46h-5c-125 0 -224 -107 -224 -258v-233h-42zM85 -221l-7 22c35 9 50 25 48 56h-28v66h64v-52c0 -54 -25 -82 -77 -92z" />
    <glyph glyph-name="Sacute" unicode="&#x15a;" horiz-adv-x="678" 
d="M329 805l99 116l50 -24l-111 -92h-38zM359 -10c-115 0 -207 39 -292 116l30 33c78 -73 158 -109 265 -109c117 0 196 65 196 153v2c0 81 -45 126 -216 161c-176 35 -246 93 -246 201v2c0 106 99 189 235 189c103 0 177 -30 249 -86l-29 -36c-67 56 -139 82 -222 82
c-114 0 -188 -67 -188 -145v-3c0 -80 44 -127 219 -162c174 -36 243 -95 243 -199v-2c0 -115 -99 -197 -244 -197z" />
    <glyph glyph-name="sacute" unicode="&#x15b;" horiz-adv-x="527" 
d="M247 619l91 132l52 -25l-108 -107h-35zM271 -10c-76 0 -159 30 -216 77l26 34c57 -46 124 -71 192 -71c78 0 139 42 139 105v2c0 68 -73 91 -150 112c-92 27 -182 53 -182 144v2c0 82 72 142 177 142c62 0 132 -22 186 -58l-23 -35c-49 33 -109 54 -164 54
c-80 0 -132 -43 -132 -98v-2c0 -62 72 -85 153 -108c90 -25 178 -56 178 -148v-2c0 -91 -81 -150 -184 -150z" />
    <glyph glyph-name="Scaron" unicode="&#x160;" horiz-adv-x="678" 
d="M476 913l-108 -108h-40l-108 108h46l83 -68l82 68h45zM359 -10c-115 0 -207 39 -292 116l30 33c78 -73 158 -109 265 -109c117 0 196 65 196 153v2c0 81 -45 126 -216 161c-176 35 -246 93 -246 201v2c0 106 99 189 235 189c103 0 177 -30 249 -86l-29 -36
c-67 56 -139 82 -222 82c-114 0 -188 -67 -188 -145v-3c0 -80 44 -127 219 -162c174 -36 243 -95 243 -199v-2c0 -115 -99 -197 -244 -197z" />
    <glyph glyph-name="scaron" unicode="&#x161;" horiz-adv-x="527" 
d="M388 743l-105 -124h-34l-105 124h40l83 -77l83 77h38zM271 -10c-76 0 -159 30 -216 77l26 34c57 -46 124 -71 192 -71c78 0 139 42 139 105v2c0 68 -73 91 -150 112c-92 27 -182 53 -182 144v2c0 82 72 142 177 142c62 0 132 -22 186 -58l-23 -35c-49 33 -109 54 -164 54
c-80 0 -132 -43 -132 -98v-2c0 -62 72 -85 153 -108c90 -25 178 -56 178 -148v-2c0 -91 -81 -150 -184 -150z" />
    <glyph glyph-name="Scedilla" unicode="&#x15e;" horiz-adv-x="678" 
d="M299 -152l-46 23l80 120c-103 5 -188 44 -266 115l30 33c78 -73 158 -109 265 -109c117 0 196 65 196 153v2c0 81 -45 126 -216 161c-176 35 -246 93 -246 201v2c0 106 99 189 235 189c103 0 177 -30 249 -86l-29 -36c-67 56 -139 82 -222 82c-114 0 -188 -67 -188 -145
v-3c0 -80 44 -127 219 -162c174 -36 243 -95 243 -199v-2c0 -112 -93 -192 -231 -197z" />
    <glyph glyph-name="scedilla" unicode="&#x15f;" horiz-adv-x="527" 
d="M207 -152l-46 23l81 121c-68 6 -137 34 -187 75l26 34c57 -46 124 -71 192 -71c78 0 139 42 139 105v2c0 68 -73 91 -150 112c-92 27 -182 53 -182 144v2c0 82 72 142 177 142c62 0 132 -22 186 -58l-23 -35c-49 33 -109 54 -164 54c-80 0 -132 -43 -132 -98v-2
c0 -62 72 -85 153 -108c90 -25 178 -56 178 -148v-2c0 -89 -77 -146 -175 -150z" />
    <glyph glyph-name="Scommaaccent" unicode="&#x218;" horiz-adv-x="678" 
d="M359 -10c-115 0 -207 39 -292 116l30 33c78 -73 158 -109 265 -109c117 0 196 65 196 153v2c0 81 -45 126 -216 161c-176 35 -246 93 -246 201v2c0 106 99 189 235 189c103 0 177 -30 249 -86l-29 -36c-67 56 -139 82 -222 82c-114 0 -188 -67 -188 -145v-3
c0 -80 44 -127 219 -162c174 -36 243 -95 243 -199v-2c0 -115 -99 -197 -244 -197zM302 -223l-7 22c35 9 50 25 48 56h-28v66h64v-52c0 -54 -25 -82 -77 -92z" />
    <glyph glyph-name="scommaaccent" unicode="&#x219;" horiz-adv-x="527" 
d="M271 -10c-76 0 -159 30 -216 77l26 34c57 -46 124 -71 192 -71c78 0 139 42 139 105v2c0 68 -73 91 -150 112c-92 27 -182 53 -182 144v2c0 82 72 142 177 142c62 0 132 -22 186 -58l-23 -35c-49 33 -109 54 -164 54c-80 0 -132 -43 -132 -98v-2c0 -62 72 -85 153 -108
c90 -25 178 -56 178 -148v-2c0 -91 -81 -150 -184 -150zM220 -223l-7 22c35 9 50 25 48 56h-28v66h64v-52c0 -54 -25 -82 -77 -92z" />
    <glyph glyph-name="Tcaron" unicode="&#x164;" horiz-adv-x="658" 
d="M457 904l-108 -108h-40l-108 108h46l83 -68l82 68h45zM307 0v687h-257v41h558v-41h-257v-687h-44z" />
    <glyph glyph-name="tcaron" unicode="&#x165;" 
d="M279 604l18 155h52v-3l-45 -152h-25zM275 -9c-84 0 -144 47 -144 144v354h-79v38h79v173h42v-173h188v-38h-188v-349c0 -77 43 -110 108 -110c26 0 49 6 78 19v-40c-26 -12 -53 -18 -84 -18z" />
    <glyph glyph-name="Tcommaaccent" unicode="&#x162;" horiz-adv-x="658" 
d="M307 0v687h-257v41h558v-41h-257v-687h-44zM283 -221l-7 22c35 9 50 25 48 56h-28v66h64v-52c0 -54 -25 -82 -77 -92z" />
    <glyph glyph-name="tcommaaccent" unicode="&#x163;" 
d="M275 -9c-84 0 -144 47 -144 144v354h-79v38h79v173h42v-173h188v-38h-188v-349c0 -77 43 -110 108 -110c26 0 49 6 78 19v-40c-26 -12 -53 -18 -84 -18zM190 -223l-7 22c35 9 50 25 48 56h-28v66h64v-52c0 -54 -25 -82 -77 -92z" />
    <glyph glyph-name="Uacute" unicode="&#xda;" horiz-adv-x="800" 
d="M381 791l99 116l50 -24l-111 -92h-38zM400 -11c-174 0 -297 110 -297 320v419h44v-416c0 -183 99 -283 255 -283c152 0 250 94 250 279v420h45v-415c0 -213 -121 -324 -297 -324z" />
    <glyph glyph-name="uacute" unicode="&#xfa;" horiz-adv-x="648" 
d="M300 617l91 132l52 -25l-108 -107h-35zM306 -12c-136 0 -214 92 -214 224v315h43v-308c0 -115 63 -192 177 -192c108 0 191 84 191 199v301h42v-527h-42v112c-30 -63 -92 -124 -197 -124z" />
    <glyph glyph-name="Ubreve" unicode="&#x16c;" horiz-adv-x="800" 
d="M400 789c-78 0 -130 38 -136 99h37c11 -34 42 -58 99 -58s87 24 99 58h37c-7 -61 -58 -99 -136 -99zM400 -11c-174 0 -297 110 -297 320v419h44v-416c0 -183 99 -283 255 -283c152 0 250 94 250 279v420h45v-415c0 -213 -121 -324 -297 -324z" />
    <glyph glyph-name="ubreve" unicode="&#x16d;" horiz-adv-x="648" 
d="M318 615c-78 0 -130 44 -136 112h34c11 -39 44 -71 102 -71c59 0 91 32 102 71h34c-6 -68 -59 -112 -136 -112zM306 -12c-136 0 -214 92 -214 224v315h43v-308c0 -115 63 -192 177 -192c108 0 191 84 191 199v301h42v-527h-42v112c-30 -63 -92 -124 -197 -124z" />
    <glyph glyph-name="Ucircumflex" unicode="&#xdb;" horiz-adv-x="800" 
d="M272 791l108 108h40l108 -108h-46l-83 67l-82 -67h-45zM400 -11c-174 0 -297 110 -297 320v419h44v-416c0 -183 99 -283 255 -283c152 0 250 94 250 279v420h45v-415c0 -213 -121 -324 -297 -324z" />
    <glyph glyph-name="ucircumflex" unicode="&#xfb;" horiz-adv-x="648" 
d="M196 617l105 124h34l105 -124h-40l-83 76l-83 -76h-38zM306 -12c-136 0 -214 92 -214 224v315h43v-308c0 -115 63 -192 177 -192c108 0 191 84 191 199v301h42v-527h-42v112c-30 -63 -92 -124 -197 -124z" />
    <glyph glyph-name="Udieresis" unicode="&#xdc;" horiz-adv-x="800" 
d="M282 797v70h66v-70h-66zM454 797v70h65v-70h-65zM400 -11c-174 0 -297 110 -297 320v419h44v-416c0 -183 99 -283 255 -283c152 0 250 94 250 279v420h45v-415c0 -213 -121 -324 -297 -324z" />
    <glyph glyph-name="udieresis" unicode="&#xfc;" horiz-adv-x="648" 
d="M208 623v74h61v-74h-61zM367 623v74h61v-74h-61zM306 -12c-136 0 -214 92 -214 224v315h43v-308c0 -115 63 -192 177 -192c108 0 191 84 191 199v301h42v-527h-42v112c-30 -63 -92 -124 -197 -124z" />
    <glyph glyph-name="Ugrave" unicode="&#xd9;" horiz-adv-x="800" 
d="M419 791h-38l-111 92l50 24zM400 -11c-174 0 -297 110 -297 320v419h44v-416c0 -183 99 -283 255 -283c152 0 250 94 250 279v420h45v-415c0 -213 -121 -324 -297 -324z" />
    <glyph glyph-name="ugrave" unicode="&#xf9;" horiz-adv-x="648" 
d="M302 617l-108 107l52 25l91 -132h-35zM306 -12c-136 0 -214 92 -214 224v315h43v-308c0 -115 63 -192 177 -192c108 0 191 84 191 199v301h42v-527h-42v112c-30 -63 -92 -124 -197 -124z" />
    <glyph glyph-name="Uhungarumlaut" unicode="&#x170;" horiz-adv-x="800" 
d="M441 791l99 116l50 -24l-110 -92h-39zM301 791l99 116l50 -24l-110 -92h-39zM400 -11c-174 0 -297 110 -297 320v419h44v-416c0 -183 99 -283 255 -283c152 0 250 94 250 279v420h45v-415c0 -213 -121 -324 -297 -324z" />
    <glyph glyph-name="uhungarumlaut" unicode="&#x171;" horiz-adv-x="648" 
d="M226 617l92 132l48 -25l-104 -107h-36zM357 617l92 132l47 -25l-104 -107h-35zM306 -12c-136 0 -214 92 -214 224v315h43v-308c0 -115 63 -192 177 -192c108 0 191 84 191 199v301h42v-527h-42v112c-30 -63 -92 -124 -197 -124z" />
    <glyph glyph-name="Umacron" unicode="&#x16a;" horiz-adv-x="800" 
d="M245 818v42h310v-42h-310zM400 -11c-174 0 -297 110 -297 320v419h44v-416c0 -183 99 -283 255 -283c152 0 250 94 250 279v420h45v-415c0 -213 -121 -324 -297 -324z" />
    <glyph glyph-name="umacron" unicode="&#x16b;" horiz-adv-x="648" 
d="M170 644v40h296v-40h-296zM306 -12c-136 0 -214 92 -214 224v315h43v-308c0 -115 63 -192 177 -192c108 0 191 84 191 199v301h42v-527h-42v112c-30 -63 -92 -124 -197 -124z" />
    <glyph glyph-name="Uogonek" unicode="&#x172;" horiz-adv-x="800" 
d="M459 -138v-31h-1c-79 2 -126 34 -125 81c0 28 14 53 42 78c-161 10 -272 119 -272 319v419h44v-416c0 -183 99 -283 255 -283c152 0 250 94 250 279v420h45v-415c0 -204 -111 -313 -274 -323c-32 -26 -47 -47 -47 -73c0 -31 24 -50 83 -55z" />
    <glyph glyph-name="uogonek" unicode="&#x173;" horiz-adv-x="648" 
d="M565 -169h-1c-79 2 -126 34 -125 81c0 35 22 65 64 96v104c-30 -63 -92 -124 -197 -124c-136 0 -214 92 -214 224v315h43v-308c0 -115 63 -192 177 -192c108 0 191 84 191 199v301h42v-527h-4c-41 -31 -59 -54 -59 -83c0 -31 24 -50 83 -55v-31z" />
    <glyph glyph-name="Uring" unicode="&#x16e;" horiz-adv-x="800" 
d="M400 778c-60 0 -109 41 -109 96c0 56 49 97 109 97s109 -41 109 -97c0 -55 -49 -96 -109 -96zM400 806c42 0 75 29 75 68c0 40 -33 69 -75 69s-75 -29 -75 -69c0 -39 33 -68 75 -68zM400 -11c-174 0 -297 110 -297 320v419h44v-416c0 -183 99 -283 255 -283
c152 0 250 94 250 279v420h45v-415c0 -213 -121 -324 -297 -324z" />
    <glyph glyph-name="uring" unicode="&#x16f;" horiz-adv-x="648" 
d="M318 605c-58 0 -106 46 -106 102s48 102 106 102s106 -46 106 -102s-48 -102 -106 -102zM318 632c41 0 76 34 76 75s-35 75 -76 75s-76 -34 -76 -75s35 -75 76 -75zM306 -12c-136 0 -214 92 -214 224v315h43v-308c0 -115 63 -192 177 -192c108 0 191 84 191 199v301h42
v-527h-42v112c-30 -63 -92 -124 -197 -124z" />
    <glyph glyph-name="Wacute" unicode="&#x1e82;" horiz-adv-x="1132" 
d="M546 796l99 116l50 -24l-111 -92h-38zM314 -5l-258 733h50l228 -663l216 665h34l216 -665l229 663h46l-257 -733h-37l-215 650l-216 -650h-36z" />
    <glyph glyph-name="wacute" unicode="&#x1e83;" horiz-adv-x="890" 
d="M426 619l91 132l52 -25l-108 -107h-35zM247 -4l-190 531h47l162 -473l163 476h34l162 -476l163 473h45l-191 -531h-36l-161 466l-162 -466h-36z" />
    <glyph glyph-name="Wcircumflex" unicode="&#x174;" horiz-adv-x="1132" 
d="M438 796l108 108h40l108 -108h-46l-83 67l-82 -67h-45zM314 -5l-258 733h50l228 -663l216 665h34l216 -665l229 663h46l-257 -733h-37l-215 650l-216 -650h-36z" />
    <glyph glyph-name="wcircumflex" unicode="&#x175;" horiz-adv-x="890" 
d="M322 619l105 124h34l105 -124h-40l-83 76l-83 -76h-38zM247 -4l-190 531h47l162 -473l163 476h34l162 -476l163 473h45l-191 -531h-36l-161 466l-162 -466h-36z" />
    <glyph glyph-name="Wdieresis" unicode="&#x1e84;" horiz-adv-x="1132" 
d="M447 802v70h66v-70h-66zM619 802v70h65v-70h-65zM314 -5l-258 733h50l228 -663l216 665h34l216 -665l229 663h46l-257 -733h-37l-215 650l-216 -650h-36z" />
    <glyph glyph-name="wdieresis" unicode="&#x1e85;" horiz-adv-x="890" 
d="M334 625v74h61v-74h-61zM493 625v74h61v-74h-61zM247 -4l-190 531h47l162 -473l163 476h34l162 -476l163 473h45l-191 -531h-36l-161 466l-162 -466h-36z" />
    <glyph glyph-name="Wgrave" unicode="&#x1e80;" horiz-adv-x="1132" 
d="M585 796h-38l-111 92l50 24zM314 -5l-258 733h50l228 -663l216 665h34l216 -665l229 663h46l-257 -733h-37l-215 650l-216 -650h-36z" />
    <glyph glyph-name="wgrave" unicode="&#x1e81;" horiz-adv-x="890" 
d="M428 619l-108 107l52 25l91 -132h-35zM247 -4l-190 531h47l162 -473l163 476h34l162 -476l163 473h45l-191 -531h-36l-161 466l-162 -466h-36z" />
    <glyph glyph-name="Yacute" unicode="&#xdd;" horiz-adv-x="738" 
d="M350 791l99 116l50 -24l-111 -92h-38zM347 0v293l-311 435h56l278 -395l279 395h53l-310 -434v-294h-45z" />
    <glyph glyph-name="yacute" unicode="&#xfd;" horiz-adv-x="618" 
d="M293 617l91 132l52 -25l-108 -107h-35zM322 46l201 481h46l-233 -543c-51 -118 -101 -154 -174 -154c-39 0 -71 10 -103 25l16 37c26 -14 53 -22 89 -22c57 0 92 30 137 132l-254 525h49z" />
    <glyph glyph-name="Ycircumflex" unicode="&#x176;" horiz-adv-x="738" 
d="M241 791l108 108h40l108 -108h-46l-83 67l-82 -67h-45zM347 0v293l-311 435h56l278 -395l279 395h53l-310 -434v-294h-45z" />
    <glyph glyph-name="ycircumflex" unicode="&#x177;" horiz-adv-x="618" 
d="M190 617l105 124h34l105 -124h-40l-83 76l-83 -76h-38zM322 46l201 481h46l-233 -543c-51 -118 -101 -154 -174 -154c-39 0 -71 10 -103 25l16 37c26 -14 53 -22 89 -22c57 0 92 30 137 132l-254 525h49z" />
    <glyph glyph-name="Ydieresis" unicode="&#x178;" horiz-adv-x="738" 
d="M251 797v70h66v-70h-66zM423 797v70h65v-70h-65zM347 0v293l-311 435h56l278 -395l279 395h53l-310 -434v-294h-45z" />
    <glyph glyph-name="ydieresis" unicode="&#xff;" horiz-adv-x="618" 
d="M202 623v74h61v-74h-61zM361 623v74h61v-74h-61zM322 46l201 481h46l-233 -543c-51 -118 -101 -154 -174 -154c-39 0 -71 10 -103 25l16 37c26 -14 53 -22 89 -22c57 0 92 30 137 132l-254 525h49z" />
    <glyph glyph-name="Ygrave" unicode="&#x1ef2;" horiz-adv-x="738" 
d="M388 791h-38l-111 92l50 24zM347 0v293l-311 435h56l278 -395l279 395h53l-310 -434v-294h-45z" />
    <glyph glyph-name="ygrave" unicode="&#x1ef3;" horiz-adv-x="618" 
d="M296 617l-108 107l52 25l91 -132h-35zM322 46l201 481h46l-233 -543c-51 -118 -101 -154 -174 -154c-39 0 -71 10 -103 25l16 37c26 -14 53 -22 89 -22c57 0 92 30 137 132l-254 525h49z" />
    <glyph glyph-name="Zacute" unicode="&#x179;" horiz-adv-x="721" 
d="M351 796l99 116l50 -24l-111 -92h-38zM76 0v25l507 663h-489v40h553v-25l-507 -663h506v-40h-570z" />
    <glyph glyph-name="zacute" unicode="&#x17a;" horiz-adv-x="567" 
d="M271 619l91 132l52 -25l-108 -107h-35zM59 0v24l387 465h-373v38h436v-24l-387 -465h388v-38h-451z" />
    <glyph glyph-name="Zcaron" unicode="&#x17d;" horiz-adv-x="721" 
d="M499 904l-108 -108h-40l-108 108h46l83 -68l82 68h45zM76 0v25l507 663h-489v40h553v-25l-507 -663h506v-40h-570z" />
    <glyph glyph-name="zcaron" unicode="&#x17e;" horiz-adv-x="567" 
d="M412 743l-105 -124h-34l-105 124h40l83 -77l83 77h38zM59 0v24l387 465h-373v38h436v-24l-387 -465h388v-38h-451z" />
    <glyph glyph-name="Zdotaccent" unicode="&#x17b;" horiz-adv-x="721" 
d="M337 802v70h68v-70h-68zM76 0v25l507 663h-489v40h553v-25l-507 -663h506v-40h-570z" />
    <glyph glyph-name="zdotaccent" unicode="&#x17c;" horiz-adv-x="567" 
d="M258 625v74h64v-74h-64zM59 0v24l387 465h-373v38h436v-24l-387 -465h388v-38h-451z" />
    <glyph glyph-name="AE" unicode="&#xc6;" horiz-adv-x="1089" 
d="M221 249h292v439h-23zM21 0l448 728h543v-41h-454v-300h408v-41h-408v-305h460v-41h-505v208h-316l-128 -208h-48z" />
    <glyph glyph-name="ae" unicode="&#xe6;" horiz-adv-x="1012" 
d="M505 285h402c-6 111 -72 216 -198 216c-112 0 -196 -93 -204 -216zM261 -12c-104 0 -202 55 -202 163v2c0 110 96 170 228 170c70 0 123 -10 174 -25c1 5 1 25 2 29c-1 113 -67 169 -177 169c-63 0 -112 -18 -163 -43l-15 37c58 28 111 46 181 46c108 0 181 -47 203 -140
c40 86 121 144 219 144c153 0 242 -128 242 -277c0 -7 0 -10 -1 -16h-447c7 -137 105 -220 216 -220c85 0 143 38 186 87l29 -25c-50 -58 -115 -101 -217 -101c-90 0 -171 45 -217 120c-49 -62 -131 -120 -241 -120zM263 27c96 0 174 53 220 117c-14 35 -22 73 -23 116
c-47 13 -104 25 -175 25c-111 0 -181 -49 -181 -130v-2c0 -81 70 -126 159 -126z" />
    <glyph glyph-name="AEacute" unicode="&#x1fc;" horiz-adv-x="1089" 
d="M637 796l99 116l50 -24l-111 -92h-38zM221 249h292v439h-23zM21 0l448 728h543v-41h-454v-300h408v-41h-408v-305h460v-41h-505v208h-316l-128 -208h-48z" />
    <glyph glyph-name="aeacute" unicode="&#x1fd;" horiz-adv-x="1012" 
d="M487 619l91 132l52 -25l-108 -107h-35zM505 285h402c-6 111 -72 216 -198 216c-112 0 -196 -93 -204 -216zM261 -12c-104 0 -202 55 -202 163v2c0 110 96 170 228 170c70 0 123 -10 174 -25c1 5 1 25 2 29c-1 113 -67 169 -177 169c-63 0 -112 -18 -163 -43l-15 37
c58 28 111 46 181 46c108 0 181 -47 203 -140c40 86 121 144 219 144c153 0 242 -128 242 -277c0 -7 0 -10 -1 -16h-447c7 -137 105 -220 216 -220c85 0 143 38 186 87l29 -25c-50 -58 -115 -101 -217 -101c-90 0 -171 45 -217 120c-49 -62 -131 -120 -241 -120zM263 27
c96 0 174 53 220 117c-14 35 -22 73 -23 116c-47 13 -104 25 -175 25c-111 0 -181 -49 -181 -130v-2c0 -81 70 -126 159 -126z" />
    <glyph glyph-name="OE" unicode="&#x152;" horiz-adv-x="1214" 
d="M469 0c-229 0 -387 157 -387 362v2c0 205 158 364 387 364h668v-41h-454v-300h408v-41h-408v-305h460v-41h-674zM469 41h169v646h-170c-206 0 -340 -142 -340 -321v-2c0 -178 135 -323 341 -323z" />
    <glyph glyph-name="oe" unicode="&#x153;" horiz-adv-x="1116" 
d="M336 -12c-157 0 -270 126 -270 274v2c0 147 114 276 272 276c117 0 211 -71 247 -173c35 104 122 173 230 173c153 0 242 -128 242 -277c0 -7 0 -10 -1 -16h-448c8 -137 106 -220 216 -220c85 0 144 38 187 87l29 -25c-50 -58 -115 -101 -216 -101
c-107 0 -203 65 -239 174c-36 -102 -130 -174 -249 -174zM608 285h403c-7 111 -72 216 -198 216c-113 0 -197 -93 -205 -216zM339 27c132 0 225 107 225 235v2c0 130 -98 236 -227 236c-132 0 -226 -106 -226 -235v-2c0 -130 98 -236 228 -236z" />
    <glyph glyph-name="Eth" unicode="&#xd0;" horiz-adv-x="854" 
d="M145 0v345h-78v42h78v341h240c229 0 387 -157 387 -362v-2c0 -205 -158 -364 -387 -364h-240zM438 345h-248v-304h195c207 0 341 142 341 321v2c0 178 -135 323 -341 323h-195v-300h248v-42z" />
    <glyph glyph-name="eth" unicode="&#xf0;" horiz-adv-x="674" 
d="M494 731l-95 -52c118 -109 208 -242 208 -391v-2c0 -176 -112 -298 -273 -298c-151 0 -268 122 -268 275v2c0 157 123 266 260 266c95 0 163 -44 208 -92c-32 72 -93 147 -173 220l-114 -62l-19 32l103 56c-29 25 -61 50 -94 74h67c22 -17 44 -35 66 -54l104 57zM338 27
c129 0 224 104 224 239v2c0 128 -97 224 -232 224c-128 0 -219 -100 -219 -229v-2c0 -130 99 -234 227 -234z" />
    <glyph glyph-name="Thorn" unicode="&#xde;" horiz-adv-x="711" 
d="M114 0v728h45v-135h217c165 0 273 -82 273 -221v-2c0 -149 -125 -229 -284 -229h-206v-141h-45zM159 182h208c143 0 237 71 237 186v2c0 118 -91 182 -232 182h-213v-370z" />
    <glyph glyph-name="thorn" unicode="&#xfe;" horiz-adv-x="697" 
d="M366 28c123 0 217 92 217 234v2c0 139 -96 235 -217 235c-120 0 -224 -99 -224 -234v-2c0 -136 105 -235 224 -235zM103 -166v925h42v-363c41 78 115 144 225 144c135 0 258 -109 258 -275v-2c0 -166 -123 -275 -258 -275c-111 0 -185 64 -225 140v-294h-42z" />
    <glyph glyph-name="uni018F" unicode="&#x18f;" horiz-adv-x="841" 
d="M103 599c75 86 176 141 306 141c211 0 350 -163 350 -375v-3c0 -207 -143 -374 -345 -374c-213 0 -333 170 -333 378v1c0 6 0 11 1 18h630c-8 171 -122 315 -304 315c-111 0 -201 -48 -274 -130zM414 29c175 0 289 139 298 315h-585c7 -178 113 -315 287 -315z" />
    <glyph glyph-name="schwa" unicode="&#x259;" horiz-adv-x="619" 
d="M293 540c140 0 260 -110 260 -276v-2c0 -154 -107 -274 -251 -274c-154 0 -242 127 -242 276v16h448c-8 137 -106 220 -217 220c-82 0 -142 -39 -185 -90l-30 26c51 60 118 104 217 104zM508 242h-403c7 -110 72 -215 198 -215c113 0 197 92 205 215z" />
    <glyph glyph-name="germandbls" unicode="&#xdf;" horiz-adv-x="642" 
d="M298 -2v37c138 3 228 58 228 161v2c0 97 -88 150 -228 163v36c103 30 182 87 182 185v2c0 80 -66 142 -159 142c-107 0 -176 -81 -176 -204v-522h-42v522c0 143 82 244 220 244c121 0 202 -81 202 -181v-2c0 -100 -78 -167 -165 -197c114 -18 212 -76 212 -186v-2
c0 -126 -109 -200 -274 -200z" />
    <glyph glyph-name="uni0386" unicode="&#x386;" horiz-adv-x="826" 
d="M83 557l23 173h54l-50 -173h-27zM211 249h402l-201 434zM50 0l342 733h42l343 -733h-49l-96 208h-440l-96 -208h-46z" />
    <glyph glyph-name="uni0388" unicode="&#x388;" horiz-adv-x="706" 
d="M114 0v728h515v-41h-470v-300h424v-41h-424v-305h475v-41h-520zM-11 555l23 173h54l-50 -173h-27z" />
    <glyph glyph-name="uni0389" unicode="&#x389;" horiz-adv-x="800" 
d="M-11 555l23 173h54l-50 -173h-27zM114 0v728h45v-341h482v341h45v-728h-45v346h-482v-346h-45z" />
    <glyph glyph-name="uni038A" unicode="&#x38a;" horiz-adv-x="288" 
d="M-8 555l23 173h54l-50 -173h-27zM121 0v728h45v-728h-45z" />
    <glyph glyph-name="uni038C" unicode="&#x38c;" horiz-adv-x="894" 
d="M446 -12c-220 0 -364 176 -364 374v2c0 199 145 376 365 376c221 0 365 -176 365 -374v-2c0 -199 -145 -376 -366 -376zM8 559l23 173h54l-50 -173h-27zM448 28c187 0 317 152 317 334v2c0 182 -133 336 -319 336c-187 0 -318 -152 -318 -334v-2
c0 -182 133 -336 320 -336z" />
    <glyph glyph-name="uni038E" unicode="&#x38e;" horiz-adv-x="738" 
d="M-73 555l23 173h54l-50 -173h-27zM347 0v293l-311 435h56l278 -395l279 395h53l-310 -434v-294h-45z" />
    <glyph glyph-name="uni038F" unicode="&#x38f;" horiz-adv-x="910" 
d="M4 559l23 173h54l-50 -173h-27zM455 740c215 0 357 -153 357 -351v-1c0 -149 -80 -259 -213 -349l239 2v-41h-304v37c137 89 232 187 232 350v1c0 179 -125 312 -311 312s-310 -133 -310 -312v-1c0 -160 93 -261 231 -350v-37h-304v41l239 -2c-131 89 -212 198 -212 349
v1c0 195 141 351 356 351z" />
    <glyph glyph-name="uni0386.calt" horiz-adv-x="826" 
d="M211 249h402l-201 434zM50 0l342 733h42l343 -733h-49l-96 208h-440l-96 -208h-46z" />
    <glyph glyph-name="uni0388.calt" horiz-adv-x="706" 
d="M114 0v728h515v-41h-470v-300h424v-41h-424v-305h475v-41h-520z" />
    <glyph glyph-name="uni0389.calt" horiz-adv-x="800" 
d="M114 0v728h45v-341h482v341h45v-728h-45v346h-482v-346h-45z" />
    <glyph glyph-name="uni038A.calt" horiz-adv-x="288" 
d="M121 0v728h45v-728h-45z" />
    <glyph glyph-name="uni038C.calt" horiz-adv-x="894" 
d="M446 -12c-220 0 -364 176 -364 374v2c0 199 145 376 365 376c221 0 365 -176 365 -374v-2c0 -199 -145 -376 -366 -376zM448 28c187 0 317 152 317 334v2c0 182 -133 336 -319 336c-187 0 -318 -152 -318 -334v-2c0 -182 133 -336 320 -336z" />
    <glyph glyph-name="uni038E.calt" horiz-adv-x="738" 
d="M347 0v293l-311 435h56l278 -395l279 395h53l-310 -434v-294h-45z" />
    <glyph glyph-name="uni038F.calt" horiz-adv-x="910" 
d="M455 740c215 0 357 -153 357 -351v-1c0 -149 -80 -259 -213 -349l239 2v-41h-304v37c137 89 232 187 232 350v1c0 179 -125 312 -311 312s-310 -133 -310 -312v-1c0 -160 93 -261 231 -350v-37h-304v41l239 -2c-131 89 -212 198 -212 349v1c0 195 141 351 356 351z" />
    <glyph glyph-name="uni0399.calt" horiz-adv-x="288" 
d="M26 802v70h66v-70h-66zM198 802v70h65v-70h-65zM121 0v728h45v-728h-45z" />
    <glyph glyph-name="uni03A5.calt" horiz-adv-x="738" 
d="M251 797v70h66v-70h-66zM423 797v70h65v-70h-65zM347 0v293l-311 435h56l278 -395l279 395h53l-310 -434v-294h-45z" />
    <glyph glyph-name="uni03AA" unicode="&#x3aa;" horiz-adv-x="288" 
d="M26 802v70h66v-70h-66zM198 802v70h65v-70h-65zM121 0v728h45v-728h-45z" />
    <glyph glyph-name="uni03AB" unicode="&#x3ab;" horiz-adv-x="738" 
d="M251 797v70h66v-70h-66zM423 797v70h65v-70h-65zM347 0v293l-311 435h56l278 -395l279 395h53l-310 -434v-294h-45z" />
    <glyph glyph-name="uni03AC" unicode="&#x3ac;" horiz-adv-x="736" 
d="M337 619l66 147l53 -22l-86 -125h-33zM331 28c119 0 223 99 223 235v2c0 135 -104 234 -223 234c-124 0 -217 -92 -217 -233v-2c0 -139 96 -236 217 -236zM714 37v-39c-12 -4 -26 -6 -44 -6c-76 0 -119 41 -118 134c-42 -76 -119 -138 -225 -138
c-135 0 -259 108 -259 274v2c0 166 124 276 259 276c110 0 185 -65 225 -141v128h42v-404c0 -64 28 -92 79 -92c16 0 30 2 41 6z" />
    <glyph glyph-name="uni03AD" unicode="&#x3ad;" horiz-adv-x="585" 
d="M275 619l66 147l53 -22l-86 -125h-33zM412 249h-121c-124 0 -178 -50 -178 -108v-1c0 -66 70 -113 188 -113c84 0 154 25 213 61l22 -34c-66 -40 -142 -66 -236 -66c-155 0 -232 66 -232 150v1c0 71 58 116 130 129c-67 17 -115 56 -115 126v2c0 77 77 144 218 144
c96 0 166 -28 226 -68l-25 -35c-52 38 -121 64 -202 64c-112 0 -173 -50 -173 -108v-1c0 -68 66 -105 163 -105h122v-38z" />
    <glyph glyph-name="uni03AE" unicode="&#x3ae;" horiz-adv-x="648" 
d="M302 619l66 147l53 -22l-86 -125h-33zM556 -166h-43v474c0 116 -63 193 -177 193c-108 0 -191 -85 -191 -200v-301h-42v527h42v-112c30 63 92 125 197 125c136 0 214 -93 214 -225v-481z" />
    <glyph glyph-name="uni03AF" unicode="&#x3af;" horiz-adv-x="288" 
d="M99 619l66 147l53 -22l-86 -125h-33zM102 122v405h42v-404c0 -64 28 -92 79 -92c16 0 30 2 41 6v-39c-12 -4 -26 -6 -44 -6c-76 0 -118 41 -118 130z" />
    <glyph glyph-name="uni03CC" unicode="&#x3cc;" horiz-adv-x="676" 
d="M311 619l66 147l53 -22l-86 -125h-33zM337 -12c-158 0 -271 126 -271 274v2c0 147 113 276 273 276c158 0 271 -126 271 -274v-2c0 -148 -113 -276 -273 -276zM339 27c132 0 225 107 225 235v2c0 130 -98 236 -227 236c-132 0 -226 -106 -226 -235v-2
c0 -130 98 -236 228 -236z" />
    <glyph glyph-name="uni03CD" unicode="&#x3cd;" horiz-adv-x="650" 
d="M298 617l66 147l53 -22l-86 -125h-33zM325 -12c-138 0 -231 81 -231 238v301h43v-300c0 -137 78 -200 188 -200c112 0 189 64 189 200v300h42v-301c0 -157 -93 -238 -231 -238z" />
    <glyph glyph-name="uni03CE" unicode="&#x3ce;" horiz-adv-x="921" 
d="M433 617l66 147l53 -22l-86 -125h-33zM439 430h42v-151c0 -144 52 -252 169 -252c89 0 152 76 152 203c0 124 -62 223 -131 297h54c62 -71 121 -171 121 -297c0 -155 -82 -242 -196 -242c-109 0 -170 78 -190 171c-20 -92 -80 -171 -191 -171c-114 0 -195 86 -195 242
c0 126 61 226 122 297h53c-70 -73 -131 -173 -131 -297c0 -125 65 -203 151 -203c119 0 170 108 170 252v151z" />
    <glyph glyph-name="uni03CA" unicode="&#x3ca;" horiz-adv-x="288" 
d="M15 625v74h61v-74h-61zM174 625v74h61v-74h-61zM102 122v405h42v-404c0 -64 28 -92 79 -92c16 0 30 2 41 6v-39c-12 -4 -26 -6 -44 -6c-76 0 -118 41 -118 130z" />
    <glyph glyph-name="uni03CB" unicode="&#x3cb;" horiz-adv-x="650" 
d="M215 623v74h61v-74h-61zM374 623v74h61v-74h-61zM325 -12c-138 0 -231 81 -231 238v301h43v-300c0 -137 78 -200 188 -200c112 0 189 64 189 200v300h42v-301c0 -157 -93 -238 -231 -238z" />
    <glyph glyph-name="uni0390" unicode="&#x390;" horiz-adv-x="288" 
d="M105 625l42 159l53 -14l-63 -145h-32zM2 625v73h61v-73h-61zM217 625v73h61v-73h-61zM102 122v405h42v-404c0 -64 28 -92 79 -92c16 0 30 2 41 6v-39c-12 -4 -26 -6 -44 -6c-76 0 -118 41 -118 130z" />
    <glyph glyph-name="uni03B0" unicode="&#x3b0;" horiz-adv-x="650" 
d="M290 623l42 159l53 -14l-63 -145h-32zM187 623v73h61v-73h-61zM402 623v73h61v-73h-61zM325 -12c-138 0 -231 81 -231 238v301h43v-300c0 -137 78 -200 188 -200c112 0 189 64 189 200v300h42v-301c0 -157 -93 -238 -231 -238z" />
    <glyph glyph-name="uni0462" unicode="&#x462;" horiz-adv-x="892" 
d="M580 390c163 0 254 -70 254 -191v-3c0 -123 -105 -196 -259 -196h-275v563h-254v41h254v141h44v-141h281v-41h-281v-173h236zM578 349h-234v-308h233c133 0 213 59 213 154v2c0 98 -70 152 -212 152z" />
    <glyph glyph-name="uni0472" unicode="&#x472;" horiz-adv-x="894" 
d="M446 -12c-221 0 -364 175 -364 374v2c0 200 144 376 365 376c222 0 365 -175 365 -374v-2c0 -200 -145 -376 -366 -376zM446 700c-181 0 -309 -140 -319 -313h638c-10 172 -140 313 -319 313zM448 28c182 0 310 142 318 318h-639c9 -174 139 -318 321 -318z" />
    <glyph glyph-name="uni0474" unicode="&#x474;" horiz-adv-x="825" 
d="M371 -5l-321 733h49l292 -679l211 508c56 135 111 174 207 174h6v-40h-5c-79 0 -122 -39 -170 -150l-231 -546h-38z" />
    <glyph glyph-name="uni0490" unicode="&#x490;" horiz-adv-x="641" 
d="M114 728h435v145h43v-186h-433v-687h-45v728z" />
    <glyph glyph-name="uni0404" unicode="&#x404;" horiz-adv-x="781" 
d="M441 -12c-209 0 -359 166 -359 374v2c0 206 150 376 364 376c131 0 209 -48 280 -116l-31 -31c-62 62 -138 107 -250 107c-178 0 -307 -138 -317 -313h442v-40h-442c8 -179 139 -319 315 -319c110 0 187 44 256 115l31 -30c-74 -74 -159 -125 -289 -125z" />
    <glyph glyph-name="uni0406" unicode="&#x406;" horiz-adv-x="288" 
d="M121 0v728h45v-728h-45z" />
    <glyph glyph-name="uni0407" unicode="&#x407;" horiz-adv-x="288" 
d="M26 802v70h66v-70h-66zM198 802v70h65v-70h-65zM121 0v728h45v-728h-45z" />
    <glyph glyph-name="uni0402" unicode="&#x402;" horiz-adv-x="886" 
d="M599 728v-41h-261v-268c71 22 144 33 213 33c181 0 275 -89 275 -227c0 -140 -106 -227 -275 -227h-23v41h22c151 0 230 71 230 186c0 110 -70 185 -231 185c-68 0 -136 -10 -211 -32v-378h-45v687h-247v41h553z" />
    <glyph glyph-name="uni0408" unicode="&#x408;" horiz-adv-x="578" 
d="M259 -11c-103 0 -174 56 -217 139l38 23c41 -79 97 -121 182 -121c94 0 168 69 168 207v491h45v-487c0 -87 -26 -152 -67 -193c-39 -39 -91 -59 -149 -59z" />
    <glyph glyph-name="uni0409" unicode="&#x409;" horiz-adv-x="1067" 
d="M486 0v690h-2l-413 -690h-49l436 728h73v-282h206c164 0 272 -81 272 -218v-3c0 -147 -127 -225 -284 -225h-239zM531 41h196c141 0 237 70 237 182v2c0 116 -90 179 -230 179h-203v-363z" />
    <glyph glyph-name="uni040A" unicode="&#x40a;" horiz-adv-x="1209" 
d="M673 41h197c141 0 236 70 236 182v2c0 116 -90 179 -230 179h-203v-363zM628 0v346h-466v-346h-45v728h45v-341h466v341h45v-282h206c165 0 272 -81 272 -218v-3c0 -147 -127 -225 -284 -225h-239z" />
    <glyph glyph-name="uni040B" unicode="&#x40b;" horiz-adv-x="919" 
d="M599 728v-41h-261v-267c72 21 153 33 220 33c171 0 269 -68 269 -243v-210h-45v202c0 152 -75 210 -228 210c-64 0 -141 -11 -216 -34v-378h-45v687h-247v41h553z" />
    <glyph glyph-name="uni040F" unicode="&#x40f;" horiz-adv-x="804" 
d="M377 -152v152h-263v728h45v-687h480v687h45v-728h-263v-152h-44z" />
    <glyph glyph-name="uni040E" unicode="&#x40e;" horiz-adv-x="735" 
d="M378 789c-78 0 -130 38 -136 99h37c11 -34 42 -58 99 -58s87 24 99 58h37c-7 -61 -58 -99 -136 -99zM258 0h-51l158 256l-321 472h53l292 -433l258 433h52z" />
    <glyph glyph-name="uni0403" unicode="&#x403;" horiz-adv-x="641" 
d="M313 796l99 116l50 -24l-111 -92h-38zM114 0v728h478v-41h-433v-687h-45z" />
    <glyph glyph-name="uni0405" unicode="&#x405;" horiz-adv-x="678" 
d="M359 -10c-115 0 -207 39 -292 116l30 33c78 -73 158 -109 265 -109c117 0 196 65 196 153v2c0 81 -45 126 -216 161c-176 35 -246 93 -246 201v2c0 106 99 189 235 189c103 0 177 -30 249 -86l-29 -36c-67 56 -139 82 -222 82c-114 0 -188 -67 -188 -145v-3
c0 -80 44 -127 219 -162c174 -36 243 -95 243 -199v-2c0 -115 -99 -197 -244 -197z" />
    <glyph glyph-name="uni040C" unicode="&#x40c;" horiz-adv-x="746" 
d="M346 791l99 116l50 -24l-111 -92h-38zM114 0v728h45v-335h152l327 335h60l-348 -354l362 -374h-62l-338 352h-153v-352h-45z" />
    <glyph glyph-name="uni0400" unicode="&#x400;" horiz-adv-x="706" 
d="M393 796h-38l-111 92l50 24zM114 0v728h515v-41h-470v-300h424v-41h-424v-305h475v-41h-520z" />
    <glyph glyph-name="uni040D" unicode="&#x40d;" horiz-adv-x="830" 
d="M435 791h-38l-111 92l50 24zM716 0h-44v660l-524 -660h-34v728h45v-651l516 651h41v-728z" />
    <glyph glyph-name="uni0492" unicode="&#x492;" horiz-adv-x="672" 
d="M145 0v339h-78v41h78v348h478v-41h-433v-307h217v-41h-217v-339h-45z" />
    <glyph glyph-name="uni0496" unicode="&#x496;" horiz-adv-x="1137" 
d="M1072 728l-335 -353l307 -334h72v-193h-44v152h-46l-326 352h-119v-352h-45v352h-121l-325 -352h-55l345 375l-334 353h57l317 -335h116v335h45v-335h117l317 335h57z" />
    <glyph glyph-name="uni0498" unicode="&#x498;" horiz-adv-x="686" 
d="M87 604l-28 30c63 55 155 106 282 106c148 0 254 -77 254 -190v-2c0 -87 -61 -156 -163 -179c103 -18 179 -82 179 -175v-2c0 -115 -107 -197 -260 -203v-141h-43v141c-111 5 -192 43 -258 96l27 33c68 -55 147 -91 255 -91c134 0 232 68 232 164v2
c0 98 -88 154 -237 154h-125v40h124c126 0 223 55 223 159v2c0 89 -83 153 -209 153c-109 0 -190 -44 -253 -97z" />
    <glyph glyph-name="uni049A" unicode="&#x49a;" horiz-adv-x="765" 
d="M114 0v728h45v-335h152l327 335h60l-348 -354l322 -333h72v-193h-44v152h-50l-338 352h-153v-352h-45z" />
    <glyph glyph-name="uni049C" unicode="&#x49c;" horiz-adv-x="772" 
d="M723 728l-301 -355l311 -373h-57l-291 347h-13v-241h-43v241h-170v-347h-45v728h45v-340h170v244h43v-244h9l284 340h58z" />
    <glyph glyph-name="uni04A0" unicode="&#x4a0;" horiz-adv-x="932" 
d="M46 687v41h298v-335h152l327 335h60l-348 -354l362 -374h-62l-338 352h-153v-352h-45v687h-253z" />
    <glyph glyph-name="uni04A2" unicode="&#x4a2;" horiz-adv-x="811" 
d="M114 0v728h45v-341h482v341h45v-687h70v-193h-44v152h-71v346h-482v-346h-45z" />
    <glyph glyph-name="uni04A4" unicode="&#x4a4;" horiz-adv-x="1080" 
d="M594 0v346h-466v-346h-44v728h44v-341h466v341h437v-41h-392v-687h-45z" />
    <glyph glyph-name="uni04AA" unicode="&#x4aa;" horiz-adv-x="779" 
d="M418 -152v141c-195 12 -336 173 -336 373v2c0 206 153 376 362 376c132 0 208 -48 281 -116l-32 -32c-61 60 -135 108 -250 108c-180 0 -315 -149 -315 -334v-2c0 -187 137 -336 316 -336c109 0 186 45 255 115l30 -30c-69 -69 -149 -119 -267 -124v-141h-44z" />
    <glyph glyph-name="uni04AE" unicode="&#x4ae;" horiz-adv-x="738" 
d="M347 0v293l-311 435h56l278 -395l279 395h53l-310 -434v-294h-45z" />
    <glyph glyph-name="uni04B0" unicode="&#x4b0;" horiz-adv-x="738" 
d="M347 0v260h-202v41h196l-305 427h56l278 -395l279 395h53l-305 -427h195v-41h-200v-260h-45z" />
    <glyph glyph-name="uni04B2" unicode="&#x4b2;" horiz-adv-x="762" 
d="M629 728h53l-281 -357l259 -330h68v-193h-44v152h-45l-266 341l-265 -341h-53l291 371l-281 357h53l256 -328z" />
    <glyph glyph-name="uni04B6" unicode="&#x4b6;" horiz-adv-x="751" 
d="M581 0v308c-72 -22 -154 -33 -220 -33c-171 0 -269 68 -269 243v210h45v-202c0 -152 75 -210 227 -210c64 0 145 11 217 34v378h45v-687h70v-193h-44v152h-71z" />
    <glyph glyph-name="uni04B8" unicode="&#x4b8;" horiz-adv-x="736" 
d="M577 0v308c-64 -19 -136 -31 -198 -33v-182h-43v182c-159 6 -248 75 -248 243v210h44v-202c0 -144 67 -204 204 -210v244h43v-244c61 2 133 13 198 34v378h45v-728h-45z" />
    <glyph glyph-name="uni04BA" unicode="&#x4ba;" horiz-adv-x="736" 
d="M150 728v-309c72 22 153 34 220 34c172 0 269 -68 269 -243v-210h-44v202c0 152 -75 210 -228 210c-65 0 -145 -11 -217 -34v-378h-45v728h45z" />
    <glyph glyph-name="uni04C0" unicode="&#x4c0;" horiz-adv-x="288" 
d="M121 0v728h45v-728h-45z" />
    <glyph glyph-name="uni04C1" unicode="&#x4c1;" horiz-adv-x="1118" 
d="M559 794c-78 0 -130 38 -136 99h37c11 -34 42 -58 99 -58s87 24 99 58h37c-7 -61 -58 -99 -136 -99zM46 728h57l317 -335h116v335h45v-335h117l317 335h57l-335 -353l345 -375h-56l-326 352h-119v-352h-45v352h-121l-325 -352h-55l345 375z" />
    <glyph glyph-name="uni04D0" unicode="&#x4d0;" horiz-adv-x="826" 
d="M413 803c-78 0 -130 38 -136 99h37c11 -34 42 -58 99 -58s87 24 99 58h37c-7 -61 -58 -99 -136 -99zM211 249h402l-201 434zM50 0l342 733h42l343 -733h-49l-96 208h-440l-96 -208h-46z" />
    <glyph glyph-name="uni04D2" unicode="&#x4d2;" horiz-adv-x="826" 
d="M295 811v70h66v-70h-66zM467 811v70h65v-70h-65zM211 249h402l-201 434zM50 0l342 733h42l343 -733h-49l-96 208h-440l-96 -208h-46z" />
    <glyph glyph-name="uni04D4" unicode="&#x4d4;" horiz-adv-x="1089" 
d="M221 249h292v439h-23zM21 0l448 728h543v-41h-454v-300h408v-41h-408v-305h460v-41h-505v208h-316l-128 -208h-48z" />
    <glyph glyph-name="uni04D6" unicode="&#x4d6;" horiz-adv-x="706" 
d="M374 794c-78 0 -130 38 -136 99h37c11 -34 42 -58 99 -58s87 24 99 58h37c-7 -61 -58 -99 -136 -99zM114 0v728h515v-41h-470v-300h424v-41h-424v-305h475v-41h-520z" />
    <glyph glyph-name="uni04D8" unicode="&#x4d8;" horiz-adv-x="841" 
d="M103 599c75 86 176 141 306 141c211 0 350 -163 350 -375v-3c0 -207 -143 -374 -345 -374c-213 0 -333 170 -333 378v1c0 6 0 11 1 18h630c-8 171 -122 315 -304 315c-111 0 -201 -48 -274 -130zM414 29c175 0 289 139 298 315h-585c7 -178 113 -315 287 -315z" />
    <glyph glyph-name="uni04DC" unicode="&#x4dc;" horiz-adv-x="1118" 
d="M440 802v70h66v-70h-66zM612 802v70h65v-70h-65zM46 728h57l317 -335h116v335h45v-335h117l317 335h57l-335 -353l345 -375h-56l-326 352h-119v-352h-45v352h-121l-325 -352h-55l345 375z" />
    <glyph glyph-name="uni04DE" unicode="&#x4de;" horiz-adv-x="686" 
d="M217 811v70h66v-70h-66zM389 811v70h65v-70h-65zM87 604l-28 30c63 55 155 106 282 106c148 0 254 -77 254 -190v-2c0 -87 -61 -156 -163 -179c103 -18 179 -82 179 -175v-2c0 -119 -115 -204 -279 -204c-123 0 -211 40 -282 97l27 33c68 -55 147 -91 255 -91
c134 0 232 68 232 164v2c0 98 -88 154 -237 154h-125v40h124c126 0 223 55 223 159v2c0 89 -83 153 -209 153c-109 0 -190 -44 -253 -97z" />
    <glyph glyph-name="uni04E2" unicode="&#x4e2;" horiz-adv-x="830" 
d="M260 818v42h310v-42h-310zM716 0h-44v660l-524 -660h-34v728h45v-651l516 651h41v-728z" />
    <glyph glyph-name="uni04E4" unicode="&#x4e4;" horiz-adv-x="830" 
d="M297 797v70h66v-70h-66zM469 797v70h65v-70h-65zM716 0h-44v660l-524 -660h-34v728h45v-651l516 651h41v-728z" />
    <glyph glyph-name="uni04E6" unicode="&#x4e6;" horiz-adv-x="894" 
d="M328 811v70h66v-70h-66zM500 811v70h65v-70h-65zM446 -12c-220 0 -364 176 -364 374v2c0 199 145 376 365 376c221 0 365 -176 365 -374v-2c0 -199 -145 -376 -366 -376zM448 28c187 0 317 152 317 334v2c0 182 -133 336 -319 336c-187 0 -318 -152 -318 -334v-2
c0 -182 133 -336 320 -336z" />
    <glyph glyph-name="uni04E8" unicode="&#x4e8;" horiz-adv-x="894" 
d="M446 -12c-221 0 -364 175 -364 374v2c0 200 144 376 365 376c222 0 365 -175 365 -374v-2c0 -200 -145 -376 -366 -376zM446 700c-181 0 -309 -140 -319 -313h638c-10 172 -140 313 -319 313zM448 28c182 0 310 142 318 318h-639c9 -174 139 -318 321 -318z" />
    <glyph glyph-name="uni04EE" unicode="&#x4ee;" horiz-adv-x="735" 
d="M223 818v42h310v-42h-310zM258 0h-51l158 256l-321 472h53l292 -433l258 433h52z" />
    <glyph glyph-name="uni04F0" unicode="&#x4f0;" horiz-adv-x="735" 
d="M260 797v70h66v-70h-66zM432 797v70h65v-70h-65zM258 0h-51l158 256l-321 472h53l292 -433l258 433h52z" />
    <glyph glyph-name="uni04F2" unicode="&#x4f2;" horiz-adv-x="735" 
d="M419 791l99 116l50 -24l-110 -92h-39zM279 791l99 116l50 -24l-110 -92h-39zM258 0h-51l158 256l-321 472h53l292 -433l258 433h52z" />
    <glyph glyph-name="uni04F4" unicode="&#x4f4;" horiz-adv-x="740" 
d="M240 797v70h66v-70h-66zM412 797v70h65v-70h-65zM581 0v308c-72 -22 -154 -33 -220 -33c-171 0 -269 68 -269 243v210h45v-202c0 -152 75 -210 227 -210c64 0 145 11 217 34v378h45v-728h-45z" />
    <glyph glyph-name="uni04F8" unicode="&#x4f8;" horiz-adv-x="960" 
d="M361 797v70h66v-70h-66zM533 797v70h65v-70h-65zM801 0v728h45v-728h-45zM114 0v728h45v-282h218c164 0 272 -81 272 -218v-3c0 -147 -127 -225 -284 -225h-251zM159 41h209c141 0 236 70 236 182v2c0 116 -90 179 -230 179h-215v-363z" />
    <glyph glyph-name="uni0431.srb" horiz-adv-x="664" 
d="M539 759v-38h-289c-49 0 -72 -20 -72 -49c0 -27 18 -45 69 -74l196 -110c87 -49 155 -123 155 -238v-1c0 -142 -108 -262 -268 -261c-156 0 -265 114 -265 256v1c0 140 108 262 281 256l-120 67c-71 41 -91 66 -91 109c0 46 38 82 115 82h289zM331 27
c132 0 222 97 222 222v1c0 125 -95 218 -220 217c-132 0 -222 -98 -222 -223v-1c0 -122 91 -217 220 -216z" />
    <glyph glyph-name="uni0463" unicode="&#x463;" horiz-adv-x="714" 
d="M263 331h198c126 0 201 -68 201 -164v-3c0 -96 -75 -164 -201 -164h-240v489h-194v38h194v232h42v-232h231v-38h-231v-158zM263 292v-254h198c105 0 157 51 157 127v1c0 75 -53 126 -157 126h-198z" />
    <glyph glyph-name="uni0473" unicode="&#x473;" horiz-adv-x="676" 
d="M337 -12c-158 0 -271 126 -271 274v2c0 147 113 276 273 276c158 0 271 -126 271 -274v-2c0 -148 -113 -276 -273 -276zM337 500c-125 0 -217 -95 -227 -214h455c-11 120 -107 214 -228 214zM339 27c127 0 219 99 226 220h-455c8 -123 104 -220 229 -220z" />
    <glyph glyph-name="uni0475" unicode="&#x475;" horiz-adv-x="620" 
d="M277 -4l-228 531h48l198 -480l136 330c48 117 96 154 171 154h3v-39h-1c-56 0 -92 -29 -135 -129l-156 -367h-36z" />
    <glyph glyph-name="uni0491" unicode="&#x491;" horiz-adv-x="513" 
d="M103 0v527h336v141h40v-179h-334v-489h-42z" />
    <glyph glyph-name="uni0454" unicode="&#x454;" horiz-adv-x="603" 
d="M546 449l-28 -32c-48 47 -102 83 -184 83c-120 0 -213 -93 -222 -212h319v-39h-319c5 -126 100 -222 226 -222c78 0 139 36 186 87l27 -28c-53 -58 -119 -98 -216 -98c-154 0 -269 123 -269 274v2c0 151 118 276 269 276c98 0 161 -40 211 -91z" />
    <glyph glyph-name="uni0456" unicode="&#x456;" horiz-adv-x="262" 
d="M104 669v66h54v-66h-54zM110 0v527h42v-527h-42z" />
    <glyph glyph-name="uni0457" unicode="&#x457;" horiz-adv-x="262" 
d="M20 625v74h61v-74h-61zM179 625v74h61v-74h-61zM110 0v527h42v-527h-42z" />
    <glyph glyph-name="uni0452" unicode="&#x452;" horiz-adv-x="623" 
d="M345 612h-200v-195c50 13 114 25 174 25c136 0 216 -56 216 -193v-211c0 -137 -54 -208 -172 -208c-20 0 -40 4 -60 8v40c17 -5 39 -9 59 -9c88 0 131 47 131 171v206c0 112 -59 156 -177 156c-59 0 -116 -10 -171 -26v-376h-42v612h-118v39h118v108h42v-108h200v-39z
" />
    <glyph glyph-name="uni0458" unicode="&#x458;" horiz-adv-x="262" 
d="M104 669v66h54v-66h-54zM42 -171c-16 0 -26 1 -41 4v38c12 -2 27 -3 41 -3c40 0 68 27 68 81v578h43v-575c0 -83 -44 -123 -111 -123z" />
    <glyph glyph-name="uni0459" unicode="&#x459;" horiz-adv-x="866" 
d="M383 0v490h-1l-314 -490h-48l339 527h66v-196h188c126 0 201 -68 201 -164v-3c0 -96 -75 -164 -202 -164h-229zM425 38h187c105 0 158 51 158 127v1c0 75 -53 126 -158 126h-187v-254z" />
    <glyph glyph-name="uni045A" unicode="&#x45a;" horiz-adv-x="996" 
d="M555 292v-254h188c105 0 157 51 157 127v1c0 75 -53 126 -157 126h-188zM555 527v-196h188c126 0 201 -68 201 -164v-3c0 -96 -75 -164 -201 -164h-230v247h-368v-247h-42v527h42v-241h368v241h42z" />
    <glyph glyph-name="uni045B" unicode="&#x45b;" horiz-adv-x="623" 
d="M145 759v-108h200v-39h-200v-195c50 13 114 25 174 25c136 0 216 -56 216 -193v-249h-42v246c0 112 -59 156 -177 156c-59 0 -116 -10 -171 -26v-376h-42v612h-118v39h118v108h42z" />
    <glyph glyph-name="uni045F" unicode="&#x45f;" horiz-adv-x="664" 
d="M103 0v527h42v-488h375v488h42v-527h-211v-145h-40v145h-208z" />
    <glyph glyph-name="uni045E" unicode="&#x45e;" horiz-adv-x="618" 
d="M312 615c-78 0 -130 44 -136 112h34c11 -39 44 -71 102 -71c59 0 91 32 102 71h34c-6 -68 -59 -112 -136 -112zM322 46l201 481h46l-233 -543c-51 -118 -101 -154 -174 -154c-39 0 -71 10 -103 25l16 37c26 -14 53 -22 89 -22c57 0 92 30 137 132l-254 525h49z" />
    <glyph glyph-name="uni0453" unicode="&#x453;" horiz-adv-x="513" 
d="M257 619l91 132l52 -25l-108 -107h-35zM103 0v527h376v-38h-334v-489h-42z" />
    <glyph glyph-name="uni0455" unicode="&#x455;" horiz-adv-x="527" 
d="M271 -10c-76 0 -159 30 -216 77l26 34c57 -46 124 -71 192 -71c78 0 139 42 139 105v2c0 68 -73 91 -150 112c-92 27 -182 53 -182 144v2c0 82 72 142 177 142c62 0 132 -22 186 -58l-23 -35c-49 33 -109 54 -164 54c-80 0 -132 -43 -132 -98v-2c0 -62 72 -85 153 -108
c90 -25 178 -56 178 -148v-2c0 -91 -81 -150 -184 -150z" />
    <glyph glyph-name="uni045C" unicode="&#x45c;" horiz-adv-x="587" 
d="M280 617l91 132l52 -25l-108 -107h-35zM145 527v-241h120l227 241h54l-244 -259l253 -268h-57l-231 247h-122v-247h-42v527h42z" />
    <glyph glyph-name="uni0450" unicode="&#x450;" horiz-adv-x="619" 
d="M301 619l-108 107l52 25l91 -132h-35zM326 -12c-140 0 -260 109 -260 275v2c0 154 108 275 251 275c154 0 242 -128 242 -277v-16h-448c8 -137 106 -220 217 -220c82 0 142 40 185 90l30 -26c-51 -60 -118 -103 -217 -103zM111 285h403c-7 111 -72 216 -198 216
c-113 0 -197 -93 -205 -216z" />
    <glyph glyph-name="uni045D" unicode="&#x45d;" horiz-adv-x="671" 
d="M319 617l-108 107l52 25l91 -132h-35zM103 0v527h42v-466l382 466h42v-527h-43v465l-382 -465h-41z" />
    <glyph glyph-name="uni0493" unicode="&#x493;" horiz-adv-x="533" 
d="M123 0v237h-73v39h73v251h376v-38h-334v-213h156v-39h-156v-237h-42z" />
    <glyph glyph-name="uni0497" unicode="&#x497;" horiz-adv-x="907" 
d="M849 527l-236 -260l210 -228h66v-184h-40v145h-45l-226 247h-110v-247h-42v247h-112l-226 -247h-54l245 267l-235 260h55l217 -241h110v241h42v-241h110l217 241h54z" />
    <glyph glyph-name="uni0499" unicode="&#x499;" horiz-adv-x="584" 
d="M51 57l24 36c53 -38 127 -66 210 -66c112 0 184 46 184 114v1c0 66 -66 108 -180 107h-118v38h118c104 0 166 43 166 108v1c0 62 -61 105 -163 105c-74 0 -146 -25 -211 -71l-22 34c65 45 142 76 232 76c131 0 208 -59 208 -143v-2c0 -72 -59 -111 -121 -125
c76 -12 136 -55 136 -129v-1c0 -83 -76 -146 -211 -151v-134h-40v134c-84 4 -160 31 -212 68z" />
    <glyph glyph-name="uni049B" unicode="&#x49b;" horiz-adv-x="596" 
d="M145 527v-241h120l227 241h54l-244 -259l216 -229h60v-184h-40v145h-40l-231 247h-122v-247h-42v527h42z" />
    <glyph glyph-name="uni049D" unicode="&#x49d;" horiz-adv-x="631" 
d="M588 527l-219 -253l220 -274h-53l-202 251h-33v-169h-41v169h-115v-251h-42v527h42v-238h115v171h41v-171h31l201 238h55z" />
    <glyph glyph-name="uni04A1" unicode="&#x4a1;" horiz-adv-x="705" 
d="M263 527v-241h120l227 241h54l-244 -259l253 -268h-57l-231 247h-122v-247h-42v489h-194v38h236z" />
    <glyph glyph-name="uni04A3" unicode="&#x4a3;" horiz-adv-x="679" 
d="M102 0v527h42v-241h377v241h42v-488h63v-184h-40v145h-65v247h-377v-247h-42z" />
    <glyph glyph-name="uni04A5" unicode="&#x4a5;" horiz-adv-x="908" 
d="M513 0v247h-368v-247h-42v527h42v-241h368v241h360v-38h-318v-489h-42z" />
    <glyph glyph-name="uni04AB" unicode="&#x4ab;" horiz-adv-x="603" 
d="M311 -145v134c-140 12 -245 132 -245 273v2c0 148 118 276 269 276c99 0 161 -45 211 -98l-30 -30c-46 47 -100 88 -182 88c-126 0 -222 -105 -222 -234v-2c0 -130 100 -237 226 -237c79 0 138 41 183 91l29 -26c-49 -57 -110 -99 -199 -103v-134h-40z" />
    <glyph glyph-name="uni04AF" unicode="&#x4af;" horiz-adv-x="610" 
d="M562 527l-236 -525v-168h-42v171l-235 522h48l209 -479l209 479h47z" />
    <glyph glyph-name="uni04B1" unicode="&#x4b1;" horiz-adv-x="610" 
d="M503 39v-39h-177v-166h-42v166h-177v39h161l-219 488h48l209 -479l209 479h47l-220 -488h161z" />
    <glyph glyph-name="uni04B3" unicode="&#x4b3;" horiz-adv-x="599" 
d="M110 527l186 -230l188 230h51l-212 -258l188 -230h61v-184h-40v145h-41l-196 240l-195 -240h-51l220 268l-211 259h52z" />
    <glyph glyph-name="uni04B7" unicode="&#x4b7;" horiz-adv-x="628" 
d="M471 0v198c-50 -13 -114 -25 -174 -25c-136 0 -216 55 -216 193v161h42v-159c0 -111 59 -155 177 -155c59 0 116 10 171 25v289h42v-488h62v-184h-40v145h-64z" />
    <glyph glyph-name="uni04B9" unicode="&#x4b9;" horiz-adv-x="616" 
d="M471 0v198c-44 -12 -99 -22 -152 -25v-116h-41v116c-112 5 -197 52 -197 191v163h42v-155c0 -112 55 -154 155 -159v173h41v-173c52 2 102 11 152 25v289h42v-527h-42z" />
    <glyph glyph-name="uni04BB" unicode="&#x4bb;" horiz-adv-x="648" 
d="M103 0v759h42v-344c30 63 92 125 197 125c136 0 214 -93 214 -225v-315h-43v308c0 116 -63 193 -177 193c-108 0 -191 -85 -191 -200v-301h-42z" />
    <glyph glyph-name="uni04CF" unicode="&#x4cf;" horiz-adv-x="262" 
d="M110 0v759h42v-759h-42z" />
    <glyph glyph-name="uni04C2" unicode="&#x4c2;" horiz-adv-x="894" 
d="M447 617c-78 0 -130 44 -136 112h34c11 -39 44 -71 102 -71c59 0 91 32 102 71h34c-6 -68 -59 -112 -136 -112zM468 527v-241h110l217 241h54l-236 -260l246 -267h-55l-226 247h-110v-247h-42v247h-112l-226 -247h-54l245 267l-235 260h55l217 -241h110v241h42z" />
    <glyph glyph-name="uni04D1" unicode="&#x4d1;" horiz-adv-x="606" 
d="M304 617c-78 0 -130 44 -136 112h34c11 -39 44 -71 102 -71c59 0 91 32 102 71h34c-6 -68 -59 -112 -136 -112zM263 27c118 0 210 74 210 169v62c-47 15 -107 27 -184 27c-114 0 -185 -49 -185 -130v-2c0 -81 75 -126 159 -126zM261 -12c-100 0 -202 55 -202 163v2
c0 110 97 170 232 170c73 0 130 -10 182 -25v29c0 113 -69 169 -182 169c-64 0 -117 -18 -168 -43l-15 37c57 27 115 46 186 46c72 0 129 -20 167 -58c34 -35 53 -84 53 -149v-329h-41v99c-32 -54 -102 -111 -212 -111z" />
    <glyph glyph-name="uni04D3" unicode="&#x4d3;" horiz-adv-x="606" 
d="M194 625v74h61v-74h-61zM353 625v74h61v-74h-61zM263 27c118 0 210 74 210 169v62c-47 15 -107 27 -184 27c-114 0 -185 -49 -185 -130v-2c0 -81 75 -126 159 -126zM261 -12c-100 0 -202 55 -202 163v2c0 110 97 170 232 170c73 0 130 -10 182 -25v29
c0 113 -69 169 -182 169c-64 0 -117 -18 -168 -43l-15 37c57 27 115 46 186 46c72 0 129 -20 167 -58c34 -35 53 -84 53 -149v-329h-41v99c-32 -54 -102 -111 -212 -111z" />
    <glyph glyph-name="uni04D5" unicode="&#x4d5;" horiz-adv-x="1012" 
d="M505 285h402c-6 111 -72 216 -198 216c-112 0 -196 -93 -204 -216zM261 -12c-104 0 -202 55 -202 163v2c0 110 96 170 228 170c70 0 123 -10 174 -25c1 5 1 25 2 29c-1 113 -67 169 -177 169c-63 0 -112 -18 -163 -43l-15 37c58 28 111 46 181 46c108 0 181 -47 203 -140
c40 86 121 144 219 144c153 0 242 -128 242 -277c0 -7 0 -10 -1 -16h-447c7 -137 105 -220 216 -220c85 0 143 38 186 87l29 -25c-50 -58 -115 -101 -217 -101c-90 0 -171 45 -217 120c-49 -62 -131 -120 -241 -120zM263 27c96 0 174 53 220 117c-14 35 -22 73 -23 116
c-47 13 -104 25 -175 25c-111 0 -181 -49 -181 -130v-2c0 -81 70 -126 159 -126z" />
    <glyph glyph-name="uni04D7" unicode="&#x4d7;" horiz-adv-x="619" 
d="M317 617c-78 0 -130 44 -136 112h34c11 -39 44 -71 102 -71c59 0 91 32 102 71h34c-6 -68 -59 -112 -136 -112zM326 -12c-140 0 -260 109 -260 275v2c0 154 108 275 251 275c154 0 242 -128 242 -277v-16h-448c8 -137 106 -220 217 -220c82 0 142 40 185 90l30 -26
c-51 -60 -118 -103 -217 -103zM111 285h403c-7 111 -72 216 -198 216c-113 0 -197 -93 -205 -216z" />
    <glyph glyph-name="uni04D9" unicode="&#x4d9;" horiz-adv-x="619" 
d="M293 540c140 0 260 -110 260 -276v-2c0 -154 -107 -274 -251 -274c-154 0 -242 127 -242 276v16h448c-8 137 -106 220 -217 220c-82 0 -142 -39 -185 -90l-30 26c51 60 118 104 217 104zM508 242h-403c7 -110 72 -215 198 -215c113 0 197 92 205 215z" />
    <glyph glyph-name="uni04DD" unicode="&#x4dd;" horiz-adv-x="894" 
d="M337 625v74h61v-74h-61zM496 625v74h61v-74h-61zM468 527v-241h110l217 241h54l-236 -260l246 -267h-55l-226 247h-110v-247h-42v247h-112l-226 -247h-54l245 267l-235 260h55l217 -241h110v241h42z" />
    <glyph glyph-name="uni04DF" unicode="&#x4df;" horiz-adv-x="584" 
d="M178 625v74h61v-74h-61zM337 625v74h61v-74h-61zM51 57l24 36c53 -38 127 -66 210 -66c112 0 184 46 184 114v1c0 66 -66 108 -180 107h-118v38h118c104 0 166 43 166 108v1c0 62 -61 105 -163 105c-74 0 -146 -25 -211 -71l-22 34c65 45 142 76 232 76
c131 0 208 -59 208 -143v-2c0 -72 -59 -111 -121 -125c76 -12 136 -55 136 -129v-1c0 -86 -83 -152 -229 -152c-92 0 -177 29 -234 69z" />
    <glyph glyph-name="uni04E3" unicode="&#x4e3;" horiz-adv-x="671" 
d="M187 644v40h296v-40h-296zM103 0v527h42v-466l382 466h42v-527h-43v465l-382 -465h-41z" />
    <glyph glyph-name="uni04E5" unicode="&#x4e5;" horiz-adv-x="671" 
d="M225 623v74h61v-74h-61zM384 623v74h61v-74h-61zM103 0v527h42v-466l382 466h42v-527h-43v465l-382 -465h-41z" />
    <glyph glyph-name="uni04E7" unicode="&#x4e7;" horiz-adv-x="676" 
d="M228 625v74h61v-74h-61zM387 625v74h61v-74h-61zM337 -12c-158 0 -271 126 -271 274v2c0 147 113 276 273 276c158 0 271 -126 271 -274v-2c0 -148 -113 -276 -273 -276zM339 27c132 0 225 107 225 235v2c0 130 -98 236 -227 236c-132 0 -226 -106 -226 -235v-2
c0 -130 98 -236 228 -236z" />
    <glyph glyph-name="uni04E9" unicode="&#x4e9;" horiz-adv-x="676" 
d="M337 -12c-158 0 -271 126 -271 274v2c0 147 113 276 273 276c158 0 271 -126 271 -274v-2c0 -148 -113 -276 -273 -276zM337 500c-125 0 -217 -95 -227 -214h455c-11 120 -107 214 -228 214zM339 27c127 0 219 99 226 220h-455c8 -123 104 -220 229 -220z" />
    <glyph glyph-name="uni04EF" unicode="&#x4ef;" horiz-adv-x="618" 
d="M164 644v40h296v-40h-296zM322 46l201 481h46l-233 -543c-51 -118 -101 -154 -174 -154c-39 0 -71 10 -103 25l16 37c26 -14 53 -22 89 -22c57 0 92 30 137 132l-254 525h49z" />
    <glyph glyph-name="uni04F1" unicode="&#x4f1;" horiz-adv-x="618" 
d="M202 623v74h61v-74h-61zM361 623v74h61v-74h-61zM322 46l201 481h46l-233 -543c-51 -118 -101 -154 -174 -154c-39 0 -71 10 -103 25l16 37c26 -14 53 -22 89 -22c57 0 92 30 137 132l-254 525h49z" />
    <glyph glyph-name="uni04F3" unicode="&#x4f3;" horiz-adv-x="618" 
d="M220 617l92 132l48 -25l-104 -107h-36zM351 617l92 132l47 -25l-104 -107h-35zM322 46l201 481h46l-233 -543c-51 -118 -101 -154 -174 -154c-39 0 -71 10 -103 25l16 37c26 -14 53 -22 89 -22c57 0 92 30 137 132l-254 525h49z" />
    <glyph glyph-name="uni04F5" unicode="&#x4f5;" horiz-adv-x="616" 
d="M187 623v74h61v-74h-61zM346 623v74h61v-74h-61zM471 0v198c-50 -13 -114 -25 -174 -25c-136 0 -216 55 -216 193v161h42v-159c0 -111 59 -155 177 -155c59 0 116 10 171 25v289h42v-527h-42z" />
    <glyph glyph-name="uni04F9" unicode="&#x4f9;" horiz-adv-x="800" 
d="M287 623v74h61v-74h-61zM446 623v74h61v-74h-61zM655 0v527h42v-527h-42zM145 527v-196h198c126 0 201 -68 201 -164v-3c0 -96 -75 -164 -201 -164h-240v527h42zM145 292v-254h198c104 0 157 51 157 127v1c0 75 -53 126 -157 126h-198z" />
    <glyph glyph-name="zero" unicode="0" horiz-adv-x="750" 
d="M374 -12c-186 0 -299 174 -299 374v2c0 200 115 376 301 376s300 -174 300 -374v-2c0 -200 -115 -376 -302 -376zM376 28c159 0 253 160 253 334v2c0 174 -97 336 -255 336s-253 -159 -253 -334v-2c0 -173 97 -336 255 -336z" />
    <glyph glyph-name="one" unicode="1" horiz-adv-x="354" 
d="M190 0v686l-139 -52l-13 36l161 63h35v-733h-44z" />
    <glyph glyph-name="two" unicode="2" horiz-adv-x="618" 
d="M53 0v32l289 268c118 109 152 170 152 240c0 93 -77 159 -173 159s-161 -53 -217 -139l-34 22c59 95 131 156 255 156c125 0 216 -85 216 -194v-2c0 -89 -43 -153 -169 -270l-248 -229h425v-43h-496z" />
    <glyph glyph-name="three" unicode="3" horiz-adv-x="624" 
d="M314 -12c-117 0 -207 54 -266 130l35 29c57 -74 133 -119 232 -119c103 0 189 68 189 166v3c0 110 -100 165 -239 165h-36l-11 25l260 299h-392v42h453v-32l-257 -293c151 -6 269 -70 269 -205v-2c0 -124 -111 -208 -237 -208z" />
    <glyph glyph-name="three.alt" horiz-adv-x="624" 
d="M314 -12c-115 0 -209 56 -267 133l37 27c54 -72 132 -120 232 -120c110 0 195 64 195 162v2c0 101 -85 156 -222 156h-75v39h76c116 0 202 60 202 158v2c0 86 -75 153 -185 153c-92 0 -157 -44 -209 -116l-34 21c54 80 135 135 245 135c133 0 229 -84 229 -191v-2
c0 -101 -73 -155 -147 -175c92 -23 166 -78 166 -179v-2c0 -114 -104 -203 -243 -203z" />
    <glyph glyph-name="four" unicode="4" horiz-adv-x="689" 
d="M471 0v182h-404l-15 32l422 519h40v-512h119v-39h-119v-182h-43zM107 221h364v447z" />
    <glyph glyph-name="five" unicode="5" horiz-adv-x="637" 
d="M318 -12c-99 0 -193 53 -253 117l32 31c61 -64 140 -108 222 -108c121 0 205 82 205 190v2c0 106 -87 179 -206 179c-65 0 -120 -18 -173 -47l-34 22l22 354h402v-43h-363l-18 -285c51 24 102 40 169 40c139 0 247 -89 247 -218v-2c0 -136 -105 -232 -252 -232z" />
    <glyph glyph-name="six" unicode="6" horiz-adv-x="675" 
d="M349 -12c-76 0 -141 29 -184 73c-59 59 -91 136 -91 282v2c0 222 113 395 294 395c81 0 146 -31 208 -84l-28 -34c-56 50 -114 78 -184 78c-152 0 -245 -156 -245 -363v-41c41 93 123 152 232 152c136 0 252 -91 252 -221v-2c0 -134 -111 -237 -254 -237zM353 28
c120 0 203 90 203 195v2c0 105 -87 184 -208 184c-119 0 -208 -92 -208 -187v-2c0 -107 92 -192 213 -192z" />
    <glyph glyph-name="seven" unicode="7" horiz-adv-x="606" 
d="M163 0l338 685h-429v43h479v-32l-339 -696h-49z" />
    <glyph glyph-name="eight" unicode="8" horiz-adv-x="666" 
d="M333 -10c-157 0 -269 86 -269 202v2c0 88 74 155 170 182c-79 28 -144 84 -144 171v2c0 111 115 189 243 189s243 -78 243 -189v-2c0 -87 -65 -143 -144 -171c96 -28 170 -95 170 -182v-2c0 -116 -112 -202 -269 -202zM333 393c108 0 197 61 197 154v2
c0 86 -87 149 -197 149s-197 -62 -197 -148v-2c0 -93 90 -155 197 -155zM333 30c139 0 223 74 223 160v2c0 95 -100 163 -223 163c-124 0 -223 -68 -223 -162v-2c0 -86 84 -161 223 -161z" />
    <glyph glyph-name="nine" unicode="9" horiz-adv-x="675" 
d="M326 312c123 0 209 93 209 191v3c0 108 -91 194 -214 194c-121 0 -203 -94 -203 -200v-2c0 -108 88 -186 208 -186zM308 28c152 0 248 157 248 356c0 4 0 24 -1 44c-39 -94 -123 -155 -231 -155c-146 0 -252 96 -252 223v3c0 133 106 241 254 241c78 0 141 -30 184 -73
c56 -57 90 -141 90 -283v-2c0 -229 -120 -394 -293 -394c-86 0 -158 38 -217 90l29 34c59 -54 121 -84 189 -84z" />
    <glyph glyph-name="period" unicode="." horiz-adv-x="231" 
d="M86 0v78h59v-78h-59z" />
    <glyph glyph-name="comma" unicode="," horiz-adv-x="231" 
d="M73 -103l-11 22c38 19 51 42 49 81h-25v78h59v-68c0 -63 -20 -93 -72 -113z" />
    <glyph glyph-name="colon" unicode=":" horiz-adv-x="239" 
d="M90 449v78h59v-78h-59zM90 0v78h59v-78h-59z" />
    <glyph glyph-name="semicolon" unicode=";" horiz-adv-x="239" 
d="M90 449v78h59v-78h-59zM77 -103l-11 22c38 19 52 42 49 81h-25v78h59v-68c0 -63 -20 -93 -72 -113z" />
    <glyph glyph-name="ellipsis" unicode="&#x2026;" horiz-adv-x="658" 
d="M86 0v77h57v-77h-57zM300 0v77h58v-77h-58zM515 0v77h57v-77h-57z" />
    <glyph glyph-name="periodcentered" unicode="&#xb7;" horiz-adv-x="231" 
d="M86 269v78h59v-78h-59z" />
    <glyph glyph-name="ampersand" unicode="&#x26;" horiz-adv-x="726" 
d="M651 -13l-126 131c-68 -81 -148 -128 -246 -128c-128 0 -221 84 -221 197v2c0 106 79 172 192 217c-61 65 -86 113 -86 171v2c0 87 70 161 177 161c96 0 165 -71 165 -154v-2c0 -86 -61 -144 -183 -190l201 -211c37 52 68 113 97 185l40 -15c-32 -78 -67 -145 -108 -199
l132 -139zM296 421c116 42 166 92 166 161v2c0 64 -51 119 -123 119c-79 0 -131 -57 -131 -122v-2c0 -47 21 -87 88 -158zM280 29c84 0 157 45 217 118l-220 231c-110 -41 -174 -103 -174 -187v-2c0 -89 72 -160 177 -160z" />
    <glyph glyph-name="exclam" unicode="!" horiz-adv-x="256" 
d="M116 190l-13 453v85h50v-85l-13 -453h-24zM98 0v78h60v-78h-60z" />
    <glyph glyph-name="exclamdown" unicode="&#xa1;" horiz-adv-x="256" 
d="M98 650v78h60v-78h-60zM103 0v85l13 453h24l13 -453v-85h-50z" />
    <glyph glyph-name="question" unicode="?" horiz-adv-x="556" 
d="M239 190l-12 167l5 5c135 5 219 69 219 171v2c0 89 -71 163 -180 163c-84 0 -150 -44 -201 -112l-32 26c56 75 128 125 235 125c135 0 223 -90 223 -200v-2c0 -128 -103 -196 -222 -209l-8 -136h-27zM223 0v78h59v-78h-59z" />
    <glyph glyph-name="questiondown" unicode="&#xbf;" horiz-adv-x="556" 
d="M274 650v78h60v-78h-60zM284 -9c-136 0 -224 90 -224 200v2c0 128 103 196 222 209l9 136h26l12 -167l-4 -5c-135 -5 -219 -69 -219 -171v-2c0 -89 70 -163 179 -163c84 0 151 44 201 112l32 -26c-56 -75 -128 -125 -234 -125z" />
    <glyph glyph-name="quotedblleft" unicode="&#x201c;" horiz-adv-x="390" 
d="M82 551v69c0 62 20 92 72 113l11 -23c-38 -19 -51 -42 -49 -81h25v-78h-59zM241 551v69c0 62 20 92 72 113l11 -23c-38 -19 -51 -42 -49 -81h25v-78h-59z" />
    <glyph glyph-name="quotedblright" unicode="&#x201d;" horiz-adv-x="390" 
d="M77 547l-11 22c38 19 51 42 49 81h-26v78h60v-68c0 -63 -21 -93 -72 -113zM236 547l-11 22c38 19 51 42 49 81h-26v78h60v-68c0 -63 -20 -93 -72 -113z" />
    <glyph glyph-name="quoteleft" unicode="&#x2018;" horiz-adv-x="231" 
d="M82 551v69c0 62 20 92 72 113l11 -23c-38 -19 -51 -42 -49 -81h25v-78h-59z" />
    <glyph glyph-name="quoteright" unicode="&#x2019;" horiz-adv-x="231" 
d="M77 547l-11 22c38 19 51 42 49 81h-26v78h60v-68c0 -63 -21 -93 -72 -113z" />
    <glyph glyph-name="quotedblbase" unicode="&#x201e;" horiz-adv-x="390" 
d="M73 -103l-11 22c38 19 51 42 49 81h-25v78h59v-68c0 -63 -20 -93 -72 -113zM232 -103l-11 22c38 19 52 42 49 81h-25v78h59v-68c0 -63 -20 -93 -72 -113z" />
    <glyph glyph-name="quotesinglbase" unicode="&#x201a;" horiz-adv-x="231" 
d="M73 -103l-11 22c38 19 51 42 49 81h-25v78h59v-68c0 -63 -20 -93 -72 -113z" />
    <glyph glyph-name="guillemotleft" unicode="&#xab;" horiz-adv-x="531" 
d="M228 45l-171 216v8l171 216l31 -20l-151 -199l151 -200zM430 45l-172 216v8l172 216l30 -20l-150 -199l150 -200z" />
    <glyph glyph-name="guillemotright" unicode="&#xbb;" horiz-adv-x="531" 
d="M101 45l-30 21l150 198l-150 201l30 20l172 -216v-8zM303 45l-31 21l151 198l-151 201l31 20l171 -216v-8z" />
    <glyph glyph-name="guilsinglleft" unicode="&#x2039;" horiz-adv-x="330" 
d="M228 45l-171 216v8l171 216l31 -20l-151 -199l151 -200z" />
    <glyph glyph-name="guilsinglright" unicode="&#x203a;" horiz-adv-x="330" 
d="M101 45l-30 21l150 198l-150 201l30 20l172 -216v-8z" />
    <glyph glyph-name="hyphen" unicode="-" horiz-adv-x="430" 
d="M79 285v48h272v-48h-272z" />
    <glyph glyph-name="endash" unicode="&#x2013;" horiz-adv-x="564" 
d="M79 287v44h406v-44h-406z" />
    <glyph glyph-name="emdash" unicode="&#x2014;" horiz-adv-x="945" 
d="M79 287v44h787v-44h-787z" />
    <glyph glyph-name="underscore" unicode="_" horiz-adv-x="620" 
d="M4 -163v38h612v-38h-612z" />
    <glyph glyph-name="slash" unicode="/" horiz-adv-x="523" 
d="M-13 -133l491 963h42l-490 -963h-43z" />
    <glyph glyph-name="backslash" unicode="\" horiz-adv-x="523" 
d="M493 -133l-490 963h42l491 -963h-43z" />
    <glyph glyph-name="bar" unicode="|" horiz-adv-x="300" 
d="M131 -133v963h38v-963h-38z" />
    <glyph glyph-name="parenleft" unicode="(" horiz-adv-x="447" 
d="M362 -146c-182 103 -283 257 -283 444v1c0 186 101 342 283 444l18 -29c-166 -99 -256 -241 -256 -416v-1c0 -172 90 -316 256 -414z" />
    <glyph glyph-name="parenright" unicode=")" horiz-adv-x="447" 
d="M85 -146l-19 29c167 99 257 241 257 415v1c0 173 -90 317 -257 415l19 29c182 -103 283 -257 283 -445v-1c0 -185 -101 -341 -283 -443z" />
    <glyph glyph-name="bracketleft" unicode="[" horiz-adv-x="453" 
d="M108 -135v863h281v-33h-241v-797h241v-33h-281z" />
    <glyph glyph-name="bracketright" unicode="]" horiz-adv-x="453" 
d="M64 -135v33h241v797h-241v33h281v-863h-281z" />
    <glyph glyph-name="braceleft" unicode="{" horiz-adv-x="499" 
d="M425 -147c-185 36 -211 104 -211 212v83c0 78 -29 134 -126 134h-25v33h25c97 0 126 56 126 134v83c0 108 26 176 211 212l6 -30c-160 -37 -174 -84 -174 -187v-79c0 -89 -41 -133 -111 -150c73 -18 111 -60 111 -149v-79c0 -103 14 -150 174 -187z" />
    <glyph glyph-name="braceright" unicode="}" horiz-adv-x="499" 
d="M74 -147l-6 30c160 37 174 84 174 187v79c0 89 40 133 110 149c-72 19 -110 61 -110 150v79c0 103 -14 150 -174 187l6 30c185 -36 211 -104 211 -212v-83c0 -78 29 -134 126 -134h25v-33h-25c-97 0 -126 -56 -126 -134v-83c0 -108 -26 -176 -211 -212z" />
    <glyph glyph-name="at" unicode="@" horiz-adv-x="1022" 
d="M522 -169c-260 0 -457 197 -457 450c0 248 195 459 449 459c250 0 443 -190 443 -409c0 -178 -100 -253 -184 -253c-76 0 -120 46 -132 106c-41 -59 -99 -106 -179 -106c-100 0 -181 72 -181 181c0 146 120 255 235 255c83 0 135 -48 156 -103l16 85l41 -5l-38 -213
c-5 -32 -8 -56 -8 -70c0 -61 32 -98 93 -98c71 0 150 66 150 221c0 195 -176 381 -413 381c-240 0 -417 -198 -417 -430c0 -240 180 -422 426 -422c101 0 178 24 255 71l14 -24c-78 -48 -163 -76 -269 -76zM468 119c46 0 90 22 123 55c40 39 65 95 65 151
c0 84 -59 148 -140 148c-46 0 -92 -21 -127 -56c-38 -38 -63 -93 -63 -154c0 -91 59 -144 142 -144z" />
    <glyph glyph-name="copyright" unicode="&#xa9;" horiz-adv-x="875" 
d="M437 -12c-210 0 -376 169 -376 374v2c0 206 167 376 377 376c211 0 376 -169 376 -374v-2c0 -206 -167 -376 -377 -376zM437 13c197 0 350 158 350 351v2c0 192 -152 349 -349 349s-349 -158 -349 -351v-2c0 -192 151 -349 348 -349zM443 172c-108 0 -189 89 -189 196v2
c0 106 82 197 190 197c69 0 109 -28 146 -63l-26 -27c-30 29 -68 55 -121 55c-87 0 -151 -73 -151 -161v-2c0 -88 67 -162 152 -162c54 0 89 22 124 56l24 -24c-38 -39 -80 -67 -149 -67z" />
    <glyph glyph-name="published" unicode="&#x2117;" horiz-adv-x="875" 
d="M437 -12c-210 0 -376 169 -376 374v2c0 206 167 376 377 376c211 0 376 -169 376 -374v-2c0 -206 -167 -376 -377 -376zM437 13c197 0 350 158 350 351v2c0 192 -152 349 -349 349s-349 -158 -349 -351v-2c0 -192 151 -349 348 -349zM318 179v381h143
c90 0 148 -43 148 -119v-2c0 -82 -71 -124 -154 -124h-99v-136h-38zM356 351h100c69 0 114 32 114 86v2c0 57 -43 85 -111 85h-103v-173z" />
    <glyph glyph-name="registered.alt" horiz-adv-x="875" 
d="M437 -12c-210 0 -376 169 -376 374v2c0 206 167 376 377 376c211 0 376 -169 376 -374v-2c0 -206 -167 -376 -377 -376zM437 13c197 0 350 158 350 351v2c0 192 -152 349 -349 349s-349 -158 -349 -351v-2c0 -192 151 -349 348 -349zM333 374h124c62 0 106 28 106 79v2
c0 45 -39 74 -102 74h-128v-155zM296 184v381h167c47 0 86 -15 110 -38c17 -17 29 -42 29 -71v-2c0 -62 -44 -98 -108 -109l127 -161h-49l-121 155h-118v-155h-37z" />
    <glyph glyph-name="registered" unicode="&#xae;" horiz-adv-x="445" 
d="M222 374c-102 0 -181 83 -181 181v1c0 99 80 182 181 182c102 0 181 -82 181 -181v-1c0 -98 -80 -182 -181 -182zM222 393c91 0 162 74 162 163v1c0 89 -70 163 -162 163c-91 0 -161 -75 -161 -164v-1c0 -88 69 -163 161 -162zM181 559h51c28 0 44 13 44 34v1
c0 21 -17 34 -43 33h-52v-68zM155 469v182h81c37 0 67 -19 67 -56v-1c0 -28 -21 -48 -46 -54l52 -71h-33l-48 68h-47v-68h-26z" />
    <glyph glyph-name="servicemark" unicode="&#x2120;" horiz-adv-x="740" 
d="M369 408v320h32l127 -192l128 192h31v-320h-30v266l-127 -187h-4l-126 187v-266h-31zM174 402c-50 0 -95 18 -133 52l19 23c34 -31 71 -47 115 -47c48 0 80 26 80 61c0 33 -20 50 -90 65c-75 16 -110 39 -110 90c0 50 47 87 110 87c43 0 79 -13 113 -39l-19 -22
c-29 23 -60 34 -95 34c-48 0 -78 -26 -78 -58s19 -49 92 -65c74 -17 108 -41 108 -90c0 -54 -49 -91 -112 -91z" />
    <glyph glyph-name="trademark" unicode="&#x2122;" horiz-adv-x="719" 
d="M138 408v291h-108v29h246v-29h-108v-291h-30zM348 408v320h32l127 -192l128 192h31v-320h-30v266l-127 -187h-4l-127 187v-266h-30z" />
    <glyph glyph-name="asterisk" unicode="*" horiz-adv-x="459" 
d="M211 422l8 136l-114 -76l-19 33l125 61l-125 61l19 33l114 -76l-8 136h37l-8 -136l114 76l20 -33l-126 -61l126 -61l-20 -33l-114 76l8 -136h-37z" />
    <glyph glyph-name="dagger" unicode="&#x2020;" horiz-adv-x="432" 
d="M196 248l6 300l-130 -7v40l129 -7l-7 154h43l-6 -154l129 7v-40l-130 7l6 -300h-40z" />
    <glyph glyph-name="daggerdbl" unicode="&#x2021;" horiz-adv-x="446" 
d="M201 0l7 154l-129 -7v40l130 -7l-5 184l5 184l-130 -7v40l129 -7l-7 154h44l-7 -154l129 7v-40l-130 7l5 -184l-5 -184l130 7v-40l-129 7l7 -154h-44z" />
    <glyph glyph-name="bullet" unicode="&#x2022;" horiz-adv-x="488" 
d="M244 243c-67 0 -123 55 -123 122v2c0 68 58 122 123 122s124 -54 124 -122v-2c0 -67 -56 -122 -124 -122z" />
    <glyph glyph-name="dollar" unicode="$" horiz-adv-x="666" 
d="M142 544c0 -74 39 -119 176 -151v296c-105 -1 -177 -65 -176 -144v-1zM540 189c0 77 -45 121 -184 152v-303c109 0 185 65 184 150v1zM561 641l-28 -33c-56 48 -111 73 -177 79v-303c157 -33 228 -89 228 -193v-1c0 -108 -92 -189 -227 -190v-102h-41v103
c-94 8 -174 46 -245 111l28 33c64 -61 134 -98 219 -106v311c-153 33 -220 87 -220 192v1c0 101 90 183 218 185v60h41v-62c82 -6 144 -35 204 -85z" />
    <glyph glyph-name="sterling" unicode="&#xa3;" horiz-adv-x="668" 
d="M77 0v22l91 17v283h-91v41h91v122c0 83 25 149 68 193c39 39 91 60 155 60c102 0 166 -48 213 -111l-35 -27c-42 56 -93 98 -179 98c-53 0 -92 -17 -123 -48c-35 -35 -55 -91 -55 -163v-124h311v-41h-311v-282h390v-40h-525z" />
    <glyph glyph-name="Euro" unicode="&#x20ac;" horiz-adv-x="761" 
d="M692 594l-35 -23c-54 81 -112 130 -216 130c-112 0 -201 -94 -234 -223h303v-41h-312c-3 -24 -5 -49 -5 -73v-1c0 -20 1 -42 3 -62h314v-42h-306c31 -137 125 -233 248 -232c96 0 158 57 209 137l33 -21c-56 -87 -128 -155 -244 -155c-146 0 -258 108 -291 271h-95v42h88
c-2 20 -3 41 -3 62v1c0 23 1 49 5 73h-90v41h99c36 150 143 263 280 262c122 0 194 -62 249 -146z" />
    <glyph glyph-name="yen" unicode="&#xa5;" horiz-adv-x="704" 
d="M111 286v39h202l-277 403h55l262 -393l263 393h52l-278 -403h203v-39h-219v-119h219v-39h-219v-128h-44v128h-219v39h219v119h-219z" />
    <glyph glyph-name="cent" unicode="&#xa2;" horiz-adv-x="610" 
d="M117 370c0 -103 61 -191 148 -224l90 459c-5 1 -10 1 -15 1c-125 0 -223 -106 -223 -235v-1zM421 734l-19 -95c59 -13 107 -46 150 -91l-29 -31c-39 40 -79 70 -130 83l-91 -465c13 -2 26 -3 40 -3c79 0 139 40 185 91l29 -26c-53 -61 -119 -104 -216 -104
c-15 0 -30 1 -44 3l-19 -102h-43l22 112c-108 36 -184 141 -184 262v1c0 148 119 276 270 276c6 0 13 0 19 -1l18 90h42z" />
    <glyph glyph-name="numbersign" unicode="#" horiz-adv-x="728" 
d="M273 494l-44 -255h225l44 255h-225zM628 239v-40h-139l-34 -199h-42l34 199h-225l-34 -199h-41l34 199h-124v40h131l44 255h-133v40h140l33 194h41l-33 -194h225l33 194h41l-33 -194h124v-40h-131l-43 -255h132z" />
    <glyph glyph-name="paragraph" unicode="&#xb6;" horiz-adv-x="504" 
d="M352 0v288h-8c-158 0 -283 79 -283 220v2c0 136 112 218 268 218h68v-728h-45z" />
    <glyph glyph-name="section" unicode="&#xa7;" horiz-adv-x="669" 
d="M407 260c83 0 142 40 142 85v2c0 43 -40 76 -169 106c-49 11 -86 15 -118 15c-83 0 -141 -40 -141 -85v-2c0 -43 40 -76 168 -106c49 -11 87 -15 118 -15zM426 232c60 -22 103 -59 103 -113v-2c0 -74 -72 -127 -185 -127c-90 0 -176 38 -228 90l32 31
c45 -44 119 -79 199 -79c89 0 135 37 135 86v2c0 52 -57 84 -199 116c-148 33 -207 74 -207 141v2c0 62 64 111 168 117c-61 22 -103 59 -103 113v2c0 74 72 127 185 127c90 0 175 -38 228 -90l-32 -31c-46 44 -119 79 -200 79c-88 0 -134 -37 -134 -86v-2
c0 -52 57 -84 199 -116c147 -33 206 -74 206 -141v-2c0 -62 -63 -111 -167 -117z" />
    <glyph glyph-name="ordfeminine" unicode="&#xaa;" horiz-adv-x="427" 
d="M193 460c58 0 106 36 106 85v30c-25 8 -53 13 -93 13c-55 0 -91 -26 -91 -64v-2c0 -40 37 -62 78 -62zM192 428c-55 0 -112 31 -112 92v2c0 61 53 95 128 95c39 0 66 -5 91 -12v9c0 57 -35 85 -91 85c-35 0 -62 -10 -92 -24l-12 29c35 17 65 27 106 27
c40 0 71 -11 93 -33c19 -19 29 -47 29 -83v-180h-33v47c-21 -30 -57 -54 -107 -54zM77 313v33h260v-33h-260z" />
    <glyph glyph-name="ordmasculine" unicode="&#xba;" horiz-adv-x="427" 
d="M213 428c-87 0 -149 70 -149 151v2c0 82 63 152 151 152c86 0 148 -69 148 -150v-2c0 -82 -63 -153 -150 -153zM215 462c65 0 111 53 111 117v2c0 65 -49 118 -113 118c-66 0 -111 -53 -111 -116v-2c0 -66 48 -119 113 -119zM66 313v33h296v-33h-296z" />
    <glyph glyph-name="degree" unicode="&#xb0;" horiz-adv-x="474" 
d="M237 433c-82 0 -155 69 -155 150v2c0 80 73 149 155 149c81 0 154 -69 154 -149v-2c0 -81 -73 -150 -154 -150zM237 470c63 0 112 53 112 113v2c0 59 -49 112 -112 112s-112 -53 -112 -112v-2c0 -60 49 -113 112 -113z" />
    <glyph glyph-name="percent" unicode="%" horiz-adv-x="860" 
d="M223 363c-96 0 -160 88 -160 185v2c0 98 64 186 161 186c96 0 160 -88 160 -184v-2c0 -99 -64 -187 -161 -187zM413 373l261 355h46l-276 -376l-258 -352h-47zM222 699c-68 0 -114 -68 -114 -147v-2c0 -84 50 -149 116 -149c69 0 115 66 115 147v2c0 83 -50 149 -117 149
zM636 -8c-96 0 -160 87 -160 184v2c0 98 64 187 161 187c96 0 160 -89 160 -185v-2c0 -98 -64 -186 -161 -186zM637 29c69 0 115 66 115 147v2c0 83 -50 149 -117 149c-68 0 -115 -68 -115 -147v-2c0 -84 51 -149 117 -149z" />
    <glyph glyph-name="perthousand" unicode="&#x2030;" horiz-adv-x="1249" 
d="M223 363c-96 0 -160 88 -160 185v2c0 98 64 186 161 186c96 0 160 -88 160 -184v-2c0 -99 -64 -187 -161 -187zM720 728l-276 -376l-258 -352h-47l274 373l261 355h46zM224 401c69 0 115 66 115 147v2c0 83 -50 149 -117 149c-68 0 -114 -68 -114 -147v-2
c0 -84 50 -149 116 -149zM1025 -8c-96 0 -160 87 -160 184v2c0 98 65 187 161 187c97 0 160 -89 160 -185v-2c0 -98 -64 -186 -161 -186zM636 -8c-96 0 -160 87 -160 184v2c0 98 64 187 161 187c96 0 160 -89 160 -185v-2c0 -98 -64 -186 -161 -186zM1027 29
c68 0 114 66 114 147v2c0 83 -50 149 -116 149c-69 0 -115 -68 -115 -147v-2c0 -84 51 -149 117 -149zM637 29c69 0 115 66 115 147v2c0 83 -50 149 -117 149c-68 0 -115 -68 -115 -147v-2c0 -84 51 -149 117 -149z" />
    <glyph glyph-name="quotedbl" unicode="&#x22;" horiz-adv-x="405" 
d="M74 464l37 264h55v-4l-67 -260h-25zM245 464l37 264h55v-4l-67 -260h-25z" />
    <glyph glyph-name="quotesingle" unicode="'" horiz-adv-x="234" 
d="M74 464l37 264h55v-4l-67 -260h-25z" />
    <glyph glyph-name="plus" unicode="+" horiz-adv-x="651" 
d="M304 118v228h-226v40h226v229h43v-229h226v-40h-226v-228h-43z" />
    <glyph glyph-name="minus" unicode="&#x2212;" horiz-adv-x="651" 
d="M573 345h-495v42h495v-42z" />
    <glyph glyph-name="divide" unicode="&#xf7;" horiz-adv-x="651" 
d="M291 532v81h69v-81h-69zM573 346h-495v40h495v-40zM291 120v81h69v-81h-69z" />
    <glyph glyph-name="equal" unicode="=" horiz-adv-x="651" 
d="M95 463v43h460v-43h-460zM95 226v43h460v-43h-460z" />
    <glyph glyph-name="multiply" unicode="&#xd7;" horiz-adv-x="651" 
d="M516 145l-192 193l-191 -193l-29 28l193 192l-193 192l31 31l191 -194l192 194l29 -29l-194 -192l194 -192z" />
    <glyph glyph-name="less" unicode="&#x3c;" horiz-adv-x="651" 
d="M551 101l-481 249v32l481 249v-47l-427 -217l427 -219v-47z" />
    <glyph glyph-name="greater" unicode="&#x3e;" horiz-adv-x="651" 
d="M100 101v47l427 217l-427 219v47l481 -249v-32z" />
    <glyph glyph-name="plusminus" unicode="&#xb1;" horiz-adv-x="651" 
d="M566 377h-219v-214h-43v214h-219v41h219v214h43v-214h219v-41zM566 0h-481v41h481v-41z" />
    <glyph glyph-name="zero.sup" unicode="&#x2070;" 
d="M209 433c-89 0 -144 89 -144 209v2c0 119 56 211 145 211s145 -90 145 -209v-2c0 -120 -57 -211 -146 -211zM209 823c-69 0 -109 -78 -109 -178v-2c0 -100 41 -179 110 -179s110 79 110 179v2c0 100 -42 178 -111 178z" />
    <glyph glyph-name="one.sup" unicode="&#xb9;" horiz-adv-x="342" 
d="M212 443h-35v372l-97 -36l-9 31l112 42h29v-409z" />
    <glyph glyph-name="one.sup_alt" 
d="M364 443h-282v30h128v342l-114 -40l-9 31l129 46h29v-379h119v-30z" />
    <glyph glyph-name="two.sup" unicode="&#xb2;" 
d="M65 443v30l160 140c58 51 84 84 84 128c0 47 -38 82 -91 82c-47 0 -86 -28 -118 -78l-27 16c34 54 78 94 148 94s124 -50 124 -112c0 -59 -31 -94 -97 -150l-135 -117h236v-33h-284z" />
    <glyph glyph-name="three.sup" unicode="&#xb3;" 
d="M207 433c-64 0 -114 30 -148 74l26 22c34 -44 73 -65 123 -65c54 0 99 36 99 88c0 56 -51 87 -123 87h-27l-8 21l144 152h-214v32h259v-28l-139 -147c84 -4 144 -43 144 -116c0 -71 -63 -120 -136 -120z" />
    <glyph glyph-name="four.sup" unicode="&#x2074;" 
d="M306 538v-97h-33v97h-202l-11 28l206 285h40v-283h60v-30h-60zM273 568v238l-173 -238h173z" />
    <glyph glyph-name="five.sup" unicode="&#x2075;" 
d="M206 433c-57 0 -107 28 -143 69l25 23c35 -40 74 -61 119 -61c67 0 111 43 111 98s-45 90 -108 90c-36 0 -68 -10 -99 -24l-23 14l13 202h234v-34h-204l-11 -145c29 13 59 19 93 19c79 0 141 -47 141 -120c0 -77 -67 -131 -148 -131z" />
    <glyph glyph-name="six.sup" unicode="&#x2076;" 
d="M207 434c-38 0 -74 15 -97 38c-28 28 -48 70 -48 156v2c0 132 67 225 161 225c50 0 82 -18 112 -49l-23 -24c-26 25 -53 41 -91 41c-67 0 -125 -75 -124 -191c24 36 59 64 118 64c70 0 130 -49 130 -128c0 -75 -61 -134 -138 -134zM207 465c59 0 104 42 104 101
c0 60 -40 99 -100 99c-59 0 -106 -43 -106 -100v-1c0 -56 48 -100 102 -99z" />
    <glyph glyph-name="seven.sup" unicode="&#x2077;" 
d="M164 441h-40l187 369h-236v34h275v-26z" />
    <glyph glyph-name="eight.sup" unicode="&#x2078;" 
d="M210 433c-83 0 -146 47 -146 115c0 49 33 82 83 102c-40 17 -70 48 -70 95c0 66 65 110 135 110c69 0 133 -45 133 -110c0 -47 -29 -78 -69 -95c48 -17 82 -54 82 -100c0 -70 -64 -117 -148 -117zM211 824c-58 0 -100 -32 -100 -79s42 -82 100 -82s100 35 100 82
s-42 79 -100 79zM211 634c-68 0 -112 -37 -112 -86s44 -84 112 -84c67 0 112 35 112 84s-44 86 -112 86z" />
    <glyph glyph-name="nine.sup" unicode="&#x2079;" 
d="M209 619c59 0 106 43 106 101v1c0 58 -48 102 -102 101c-59 0 -104 -42 -104 -103c0 -62 40 -100 100 -100zM213 854c38 0 74 -16 97 -39c28 -28 48 -70 48 -155v-2c0 -135 -67 -225 -161 -225c-50 0 -86 19 -117 51l23 24c27 -27 54 -44 96 -44c67 0 125 72 124 188
c-24 -36 -59 -65 -118 -65c-70 0 -130 49 -130 130c0 78 61 137 138 137z" />
    <glyph glyph-name="zero.inf" unicode="&#x2080;" 
d="M209 -147c-89 0 -144 89 -144 209v2c0 119 56 211 145 211s145 -90 145 -209v-2c0 -120 -57 -211 -146 -211zM209 243c-69 0 -109 -78 -109 -178v-2c0 -100 41 -179 110 -179s110 79 110 179v2c0 100 -42 178 -111 178z" />
    <glyph glyph-name="one.inf" unicode="&#x2081;" horiz-adv-x="342" 
d="M212 -137h-35v372l-97 -36l-9 31l112 42h29v-409z" />
    <glyph glyph-name="one.inf_alt" 
d="M364 -137h-282v30h128v342l-114 -40l-9 31l129 46h29v-379h119v-30z" />
    <glyph glyph-name="two.inf" unicode="&#x2082;" 
d="M65 -137v30l160 140c58 51 84 84 84 128c0 47 -38 82 -91 82c-47 0 -86 -28 -118 -78l-27 16c34 54 78 94 148 94s124 -50 124 -112c0 -59 -31 -94 -97 -150l-135 -117h236v-33h-284z" />
    <glyph glyph-name="three.inf" unicode="&#x2083;" 
d="M207 -147c-64 0 -114 30 -148 74l26 22c34 -44 73 -65 123 -65c54 0 99 36 99 88c0 56 -51 87 -123 87h-27l-8 21l144 152h-214v32h259v-28l-139 -147c84 -4 144 -43 144 -116c0 -71 -63 -120 -136 -120z" />
    <glyph glyph-name="four.inf" unicode="&#x2084;" 
d="M306 -42v-97h-33v97h-202l-11 28l206 285h40v-283h60v-30h-60zM273 -12v238l-173 -238h173z" />
    <glyph glyph-name="five.inf" unicode="&#x2085;" 
d="M206 -147c-57 0 -107 28 -143 69l25 23c35 -40 74 -61 119 -61c67 0 111 43 111 98s-45 90 -108 90c-36 0 -68 -10 -99 -24l-23 14l13 202h234v-34h-204l-11 -145c29 13 59 19 93 19c79 0 141 -47 141 -120c0 -77 -67 -131 -148 -131z" />
    <glyph glyph-name="six.inf" unicode="&#x2086;" 
d="M207 -146c-38 0 -74 15 -97 38c-28 28 -48 70 -48 156v2c0 132 67 225 161 225c50 0 82 -18 112 -49l-23 -24c-26 25 -53 41 -91 41c-67 0 -125 -75 -124 -191c24 36 59 64 118 64c70 0 130 -49 130 -128c0 -75 -61 -134 -138 -134zM207 -115c59 0 104 42 104 101
c0 60 -40 99 -100 99c-59 0 -106 -43 -106 -100v-1c0 -56 48 -100 102 -99z" />
    <glyph glyph-name="seven.inf" unicode="&#x2087;" 
d="M164 -139h-40l187 369h-236v34h275v-26z" />
    <glyph glyph-name="eight.inf" unicode="&#x2088;" 
d="M210 -147c-83 0 -146 47 -146 115c0 49 33 82 83 102c-40 17 -70 48 -70 95c0 66 65 110 135 110c69 0 133 -45 133 -110c0 -47 -29 -78 -69 -95c48 -17 82 -54 82 -100c0 -70 -64 -117 -148 -117zM211 244c-58 0 -100 -32 -100 -79s42 -82 100 -82s100 35 100 82
s-42 79 -100 79zM211 54c-68 0 -112 -37 -112 -86s44 -84 112 -84c67 0 112 35 112 84s-44 86 -112 86z" />
    <glyph glyph-name="nine.inf" unicode="&#x2089;" 
d="M209 39c59 0 106 43 106 101v1c0 58 -48 102 -102 101c-59 0 -104 -42 -104 -103c0 -62 40 -100 100 -100zM213 274c38 0 74 -16 97 -39c28 -28 48 -70 48 -155v-2c0 -135 -67 -225 -161 -225c-50 0 -86 19 -117 51l23 24c27 -27 54 -44 96 -44c67 0 125 72 124 188
c-24 -36 -59 -65 -118 -65c-70 0 -130 49 -130 130c0 78 61 137 138 137z" />
    <glyph glyph-name="zero.num" 
d="M209 316c-89 0 -144 90 -144 209v2c0 120 56 211 145 211s145 -89 145 -209v-2c0 -119 -57 -211 -146 -211zM209 707c-69 0 -109 -79 -109 -179v-2c0 -100 41 -178 110 -178s110 78 110 178v2c0 100 -42 179 -111 179z" />
    <glyph glyph-name="one.num" horiz-adv-x="342" 
d="M212 327h-35v371l-97 -36l-9 31l112 42h29v-408z" />
    <glyph glyph-name="one.num_alt" 
d="M364 327h-282v30h128v341l-114 -40l-9 31l129 46h29v-378h119v-30z" />
    <glyph glyph-name="two.num" 
d="M65 327v29l160 141c58 50 84 83 84 128c0 47 -38 82 -91 82c-47 0 -86 -28 -118 -78l-27 16c34 54 78 93 148 93s124 -49 124 -112c0 -58 -31 -93 -97 -150l-135 -117h236v-32h-284z" />
    <glyph glyph-name="three.num" 
d="M207 316c-64 0 -114 30 -148 75l26 21c34 -44 73 -64 123 -64c54 0 99 35 99 88c0 55 -51 86 -123 86h-27l-8 22l144 151h-214v33h259v-29l-139 -146c84 -5 144 -43 144 -117c0 -71 -63 -120 -136 -120z" />
    <glyph glyph-name="four.num" 
d="M306 422v-98h-33v98h-202l-11 28l206 284h40v-282h60v-30h-60zM273 452v237l-173 -237h173z" />
    <glyph glyph-name="five.num" 
d="M206 316c-57 0 -107 29 -143 69l25 23c35 -39 74 -60 119 -60c67 0 111 43 111 97c0 55 -45 90 -108 90c-36 0 -68 -9 -99 -24l-23 15l13 202h234v-34h-204l-11 -146c29 13 59 20 93 20c79 0 141 -47 141 -120c0 -78 -67 -132 -148 -132z" />
    <glyph glyph-name="six.num" 
d="M207 317c-38 0 -74 16 -97 39c-28 28 -48 70 -48 155v2c0 133 67 225 161 225c50 0 82 -18 112 -48l-23 -25c-26 26 -53 42 -91 42c-67 0 -125 -76 -124 -192c24 36 59 64 118 64c70 0 130 -48 130 -127c0 -76 -61 -135 -138 -135zM207 349c59 0 104 42 104 101
s-40 98 -100 98c-59 0 -106 -43 -106 -99v-1c0 -56 48 -100 102 -99z" />
    <glyph glyph-name="seven.num" 
d="M164 324h-40l187 370h-236v34h275v-26z" />
    <glyph glyph-name="eight.num" 
d="M210 316c-83 0 -146 47 -146 115c0 49 33 83 83 103c-40 17 -70 48 -70 94c0 66 65 110 135 110c69 0 133 -45 133 -110c0 -47 -29 -77 -69 -94c48 -18 82 -54 82 -101c0 -70 -64 -117 -148 -117zM211 707c-58 0 -100 -32 -100 -79s42 -81 100 -81s100 34 100 81
s-42 79 -100 79zM211 518c-68 0 -112 -38 -112 -87s44 -84 112 -84c67 0 112 35 112 84s-44 87 -112 87z" />
    <glyph glyph-name="nine.num" 
d="M209 502c59 0 106 44 106 102v1c0 57 -48 102 -102 101c-59 0 -104 -42 -104 -104c0 -61 40 -100 100 -100zM213 737c38 0 74 -15 97 -38c28 -28 48 -70 48 -156v-2c0 -135 -67 -225 -161 -225c-50 0 -86 20 -117 51l23 25c27 -27 54 -44 96 -44c67 0 125 72 124 188
c-24 -36 -59 -65 -118 -65c-70 0 -130 49 -130 130c0 77 61 136 138 136z" />
    <glyph glyph-name="zero.den" 
d="M209 -10c-89 0 -144 89 -144 209v2c0 119 56 211 145 211s145 -90 145 -209v-2c0 -120 -57 -211 -146 -211zM209 380c-69 0 -109 -78 -109 -178v-2c0 -100 41 -179 110 -179s110 79 110 179v2c0 100 -42 178 -111 178z" />
    <glyph glyph-name="one.den" horiz-adv-x="342" 
d="M212 0h-35v372l-97 -36l-9 31l112 42h29v-409z" />
    <glyph glyph-name="one.den_alt" 
d="M364 0h-282v30h128v342l-114 -40l-9 31l129 46h29v-379h119v-30z" />
    <glyph glyph-name="two.den" 
d="M65 0v30l160 140c58 51 84 84 84 128c0 47 -38 82 -91 82c-47 0 -86 -28 -118 -78l-27 16c34 54 78 94 148 94s124 -50 124 -112c0 -59 -31 -94 -97 -150l-135 -117h236v-33h-284z" />
    <glyph glyph-name="three.den" 
d="M207 -10c-64 0 -114 30 -148 74l26 22c34 -44 73 -65 123 -65c54 0 99 36 99 88c0 56 -51 87 -123 87h-27l-8 21l144 152h-214v32h259v-28l-139 -147c84 -4 144 -43 144 -116c0 -71 -63 -120 -136 -120z" />
    <glyph glyph-name="four.den" 
d="M306 95v-97h-33v97h-202l-11 28l206 285h40v-283h60v-30h-60zM273 125v238l-173 -238h173z" />
    <glyph glyph-name="five.den" 
d="M206 -10c-57 0 -107 28 -143 69l25 23c35 -40 74 -61 119 -61c67 0 111 43 111 98s-45 90 -108 90c-36 0 -68 -10 -99 -24l-23 14l13 202h234v-34h-204l-11 -145c29 13 59 19 93 19c79 0 141 -47 141 -120c0 -77 -67 -131 -148 -131z" />
    <glyph glyph-name="six.den" 
d="M207 -9c-38 0 -74 15 -97 38c-28 28 -48 70 -48 156v2c0 132 67 225 161 225c50 0 82 -18 112 -49l-23 -24c-26 25 -53 41 -91 41c-67 0 -125 -75 -124 -191c24 36 59 64 118 64c70 0 130 -49 130 -128c0 -75 -61 -134 -138 -134zM207 22c59 0 104 42 104 101
c0 60 -40 99 -100 99c-59 0 -106 -43 -106 -100v-1c0 -56 48 -100 102 -99z" />
    <glyph glyph-name="seven.den" 
d="M164 -2h-40l187 369h-236v34h275v-26z" />
    <glyph glyph-name="eight.den" 
d="M210 -10c-83 0 -146 47 -146 115c0 49 33 82 83 102c-40 17 -70 48 -70 95c0 66 65 110 135 110c69 0 133 -45 133 -110c0 -47 -29 -78 -69 -95c48 -17 82 -54 82 -100c0 -70 -64 -117 -148 -117zM211 381c-58 0 -100 -32 -100 -79s42 -82 100 -82s100 35 100 82
s-42 79 -100 79zM211 191c-68 0 -112 -37 -112 -86s44 -84 112 -84c67 0 112 35 112 84s-44 86 -112 86z" />
    <glyph glyph-name="nine.den" 
d="M209 176c59 0 106 43 106 101v1c0 58 -48 102 -102 101c-59 0 -104 -42 -104 -103c0 -62 40 -100 100 -100zM213 411c38 0 74 -16 97 -39c28 -28 48 -70 48 -155v-2c0 -135 -67 -225 -161 -225c-50 0 -86 19 -117 51l23 24c27 -27 54 -44 96 -44c67 0 125 72 124 188
c-24 -36 -59 -65 -118 -65c-70 0 -130 49 -130 130c0 78 61 137 138 137z" />
    <glyph glyph-name="fraction" unicode="&#x2044;" horiz-adv-x="116" 
d="M-210 0l256 370l240 358h40l-256 -370l-240 -358h-40z" />
    <glyph glyph-name="onehalf" unicode="&#xbd;" horiz-adv-x="867" 
d="M210 327h-35v371l-97 -36l-9 31l112 42h29v-408zM143 0l256 370l240 358h40l-256 -370l-240 -358h-40zM520 0v30l160 140c58 51 84 84 84 128c0 47 -38 82 -91 82c-47 0 -86 -28 -118 -78l-27 16c34 54 78 94 148 94s124 -50 124 -112c0 -59 -31 -94 -97 -150l-135 -117
h236v-33h-284z" />
    <glyph glyph-name="onehalf.alt" horiz-adv-x="945" 
d="M362 327h-282v30h128v341l-114 -40l-9 31l129 46h29v-378h119v-30zM226 0l256 370l240 358h40l-256 -370l-240 -358h-40zM598 0v30l160 140c58 51 84 84 84 128c0 47 -38 82 -91 82c-47 0 -86 -28 -118 -78l-27 16c34 54 78 94 148 94s124 -50 124 -112
c0 -59 -31 -94 -97 -150l-135 -117h236v-33h-284z" />
    <glyph glyph-name="onethird" unicode="&#x2153;" horiz-adv-x="867" 
d="M210 327h-35v371l-97 -36l-9 31l112 42h29v-408zM128 0l256 370l240 358h40l-256 -370l-240 -358h-40zM662 -10c-64 0 -114 30 -148 74l26 22c34 -44 73 -65 123 -65c54 0 99 36 99 88c0 56 -51 87 -123 87h-27l-8 21l144 152h-214v32h259v-28l-139 -147
c84 -4 144 -43 144 -116c0 -71 -63 -120 -136 -120z" />
    <glyph glyph-name="onethird.alt" horiz-adv-x="945" 
d="M362 327h-282v30h128v341l-114 -40l-9 31l129 46h29v-378h119v-30zM215 0l256 370l240 358h40l-256 -370l-240 -358h-40zM740 -10c-64 0 -114 30 -148 74l26 22c34 -44 73 -65 123 -65c54 0 99 36 99 88c0 56 -51 87 -123 87h-27l-8 21l144 152h-214v32h259v-28
l-139 -147c84 -4 144 -43 144 -116c0 -71 -63 -120 -136 -120z" />
    <glyph glyph-name="twothirds" unicode="&#x2154;" horiz-adv-x="945" 
d="M58 327v29l160 141c58 50 84 83 84 128c0 47 -38 82 -91 82c-47 0 -86 -28 -118 -78l-27 16c34 54 78 93 148 93s124 -49 124 -112c0 -58 -31 -93 -97 -150l-135 -117h236v-32h-284zM205 0l256 370l240 358h40l-256 -370l-240 -358h-40zM740 -10c-64 0 -114 30 -148 74
l26 22c34 -44 73 -65 123 -65c54 0 99 36 99 88c0 56 -51 87 -123 87h-27l-8 21l144 152h-214v32h259v-28l-139 -147c84 -4 144 -43 144 -116c0 -71 -63 -120 -136 -120z" />
    <glyph glyph-name="onequarter" unicode="&#xbc;" horiz-adv-x="867" 
d="M210 327h-35v371l-97 -36l-9 31l112 42h29v-408zM153 0l256 370l240 358h40l-256 -370l-240 -358h-40zM751 95v-97h-33v97h-202l-11 28l206 285h40v-283h60v-30h-60zM718 125v238l-173 -238h173z" />
    <glyph glyph-name="onequarter.alt" horiz-adv-x="945" 
d="M362 327h-282v30h128v341l-114 -40l-9 31l129 46h29v-378h119v-30zM231 0l256 370l240 358h40l-256 -370l-240 -358h-40zM829 95v-97h-33v97h-202l-11 28l206 285h40v-283h60v-30h-60zM796 125v238l-173 -238h173z" />
    <glyph glyph-name="threequarters" unicode="&#xbe;" horiz-adv-x="945" 
d="M226 0l256 370l240 358h40l-256 -370l-240 -358h-40zM210 316c-64 0 -114 30 -148 75l26 21c34 -44 73 -64 123 -64c54 0 99 35 99 88c0 55 -51 86 -123 86h-27l-8 22l144 151h-214v33h259v-29l-139 -146c84 -5 144 -43 144 -117c0 -71 -63 -120 -136 -120zM829 95v-97
h-33v97h-202l-11 28l206 285h40v-283h60v-30h-60zM796 125v238l-173 -238h173z" />
    <glyph glyph-name="onefifth" unicode="&#x2155;" horiz-adv-x="867" 
d="M210 327h-35v371l-97 -36l-9 31l112 42h29v-408zM135 0l256 370l240 358h40l-256 -370l-240 -358h-40zM661 -10c-57 0 -107 28 -143 69l25 23c35 -40 74 -61 119 -61c67 0 111 43 111 98s-45 90 -108 90c-36 0 -68 -10 -99 -24l-23 14l13 202h234v-34h-204l-11 -145
c29 13 59 19 93 19c79 0 141 -47 141 -120c0 -77 -67 -131 -148 -131z" />
    <glyph glyph-name="onefifth.alt" horiz-adv-x="945" 
d="M362 327h-282v30h128v341l-114 -40l-9 31l129 46h29v-378h119v-30zM221 0l256 370l240 358h40l-256 -370l-240 -358h-40zM739 -10c-57 0 -107 28 -143 69l25 23c35 -40 74 -61 119 -61c67 0 111 43 111 98s-45 90 -108 90c-36 0 -68 -10 -99 -24l-23 14l13 202h234v-34
h-204l-11 -145c29 13 59 19 93 19c79 0 141 -47 141 -120c0 -77 -67 -131 -148 -131z" />
    <glyph glyph-name="twofifths" unicode="&#x2156;" horiz-adv-x="945" 
d="M58 327v29l160 141c58 50 84 83 84 128c0 47 -38 82 -91 82c-47 0 -86 -28 -118 -78l-27 16c34 54 78 93 148 93s124 -49 124 -112c0 -58 -31 -93 -97 -150l-135 -117h236v-32h-284zM215 0l256 370l240 358h40l-256 -370l-240 -358h-40zM739 -10c-57 0 -107 28 -143 69
l25 23c35 -40 74 -61 119 -61c67 0 111 43 111 98s-45 90 -108 90c-36 0 -68 -10 -99 -24l-23 14l13 202h234v-34h-204l-11 -145c29 13 59 19 93 19c79 0 141 -47 141 -120c0 -77 -67 -131 -148 -131z" />
    <glyph glyph-name="threefifths" unicode="&#x2157;" horiz-adv-x="945" 
d="M200 0l256 370l240 358h40l-256 -370l-240 -358h-40zM200 316c-64 0 -114 30 -148 75l26 21c34 -44 73 -64 123 -64c54 0 99 35 99 88c0 55 -51 86 -123 86h-27l-8 22l144 151h-214v33h259v-29l-139 -146c84 -5 144 -43 144 -117c0 -71 -63 -120 -136 -120zM739 -10
c-57 0 -107 28 -143 69l25 23c35 -40 74 -61 119 -61c67 0 111 43 111 98s-45 90 -108 90c-36 0 -68 -10 -99 -24l-23 14l13 202h234v-34h-204l-11 -145c29 13 59 19 93 19c79 0 141 -47 141 -120c0 -77 -67 -131 -148 -131z" />
    <glyph glyph-name="fourfifths" unicode="&#x2158;" horiz-adv-x="945" 
d="M299 422v-98h-33v98h-202l-11 28l206 284h40v-282h60v-30h-60zM215 0l256 370l240 358h40l-256 -370l-240 -358h-40zM266 452v237l-173 -237h173zM739 -10c-57 0 -107 28 -143 69l25 23c35 -40 74 -61 119 -61c67 0 111 43 111 98s-45 90 -108 90c-36 0 -68 -10 -99 -24
l-23 14l13 202h234v-34h-204l-11 -145c29 13 59 19 93 19c79 0 141 -47 141 -120c0 -77 -67 -131 -148 -131z" />
    <glyph glyph-name="onesixth" unicode="&#x2159;" horiz-adv-x="867" 
d="M210 327h-35v371l-97 -36l-9 31l112 42h29v-408zM143 0l256 370l240 358h40l-256 -370l-240 -358h-40zM662 -9c-38 0 -74 15 -97 38c-28 28 -48 70 -48 156v2c0 132 67 225 161 225c50 0 82 -18 112 -49l-23 -24c-26 25 -53 41 -91 41c-67 0 -125 -75 -124 -191
c24 36 59 64 118 64c70 0 130 -49 130 -128c0 -75 -61 -134 -138 -134zM662 22c59 0 104 42 104 101c0 60 -40 99 -100 99c-59 0 -106 -43 -106 -100v-1c0 -56 48 -100 102 -99z" />
    <glyph glyph-name="onesixth.alt" horiz-adv-x="945" 
d="M362 327h-282v30h128v341l-114 -40l-9 31l129 46h29v-378h119v-30zM221 0l256 370l240 358h40l-256 -370l-240 -358h-40zM740 -9c-38 0 -74 15 -97 38c-28 28 -48 70 -48 156v2c0 132 67 225 161 225c50 0 82 -18 112 -49l-23 -24c-26 25 -53 41 -91 41
c-67 0 -125 -75 -124 -191c24 36 59 64 118 64c70 0 130 -49 130 -128c0 -75 -61 -134 -138 -134zM740 22c59 0 104 42 104 101c0 60 -40 99 -100 99c-59 0 -106 -43 -106 -100v-1c0 -56 48 -100 102 -99z" />
    <glyph glyph-name="fivesixths" unicode="&#x215a;" horiz-adv-x="945" 
d="M205 0l256 370l240 358h40l-256 -370l-240 -358h-40zM199 316c-57 0 -107 29 -143 69l25 23c35 -39 74 -60 119 -60c67 0 111 43 111 97c0 55 -45 90 -108 90c-36 0 -68 -9 -99 -24l-23 15l13 202h234v-34h-204l-11 -146c29 13 59 20 93 20c79 0 141 -47 141 -120
c0 -78 -67 -132 -148 -132zM740 -9c-38 0 -74 15 -97 38c-28 28 -48 70 -48 156v2c0 132 67 225 161 225c50 0 82 -18 112 -49l-23 -24c-26 25 -53 41 -91 41c-67 0 -125 -75 -124 -191c24 36 59 64 118 64c70 0 130 -49 130 -128c0 -75 -61 -134 -138 -134zM740 22
c59 0 104 42 104 101c0 60 -40 99 -100 99c-59 0 -106 -43 -106 -100v-1c0 -56 48 -100 102 -99z" />
    <glyph glyph-name="oneeighth" unicode="&#x215b;" horiz-adv-x="867" 
d="M210 327h-35v371l-97 -36l-9 31l112 42h29v-408zM142 0l256 370l240 358h40l-256 -370l-240 -358h-40zM665 -10c-83 0 -146 47 -146 115c0 49 33 82 83 102c-40 17 -70 48 -70 95c0 66 65 110 135 110c69 0 133 -45 133 -110c0 -47 -29 -78 -69 -95
c48 -17 82 -54 82 -100c0 -70 -64 -117 -148 -117zM666 381c-58 0 -100 -32 -100 -79s42 -82 100 -82s100 35 100 82s-42 79 -100 79zM666 191c-68 0 -112 -37 -112 -86s44 -84 112 -84c67 0 112 35 112 84s-44 86 -112 86z" />
    <glyph glyph-name="oneeighth.alt" horiz-adv-x="945" 
d="M362 327h-282v30h128v341l-114 -40l-9 31l129 46h29v-378h119v-30zM221 0l256 370l240 358h40l-256 -370l-240 -358h-40zM743 -10c-83 0 -146 47 -146 115c0 49 33 82 83 102c-40 17 -70 48 -70 95c0 66 65 110 135 110c69 0 133 -45 133 -110c0 -47 -29 -78 -69 -95
c48 -17 82 -54 82 -100c0 -70 -64 -117 -148 -117zM744 381c-58 0 -100 -32 -100 -79s42 -82 100 -82s100 35 100 82s-42 79 -100 79zM744 191c-68 0 -112 -37 -112 -86s44 -84 112 -84c67 0 112 35 112 84s-44 86 -112 86z" />
    <glyph glyph-name="threeeighths" unicode="&#x215c;" horiz-adv-x="945" 
d="M205 0l256 370l240 358h40l-256 -370l-240 -358h-40zM200 316c-64 0 -114 30 -148 75l26 21c34 -44 73 -64 123 -64c54 0 99 35 99 88c0 55 -51 86 -123 86h-27l-8 22l144 151h-214v33h259v-29l-139 -146c84 -5 144 -43 144 -117c0 -71 -63 -120 -136 -120zM743 -10
c-83 0 -146 47 -146 115c0 49 33 82 83 102c-40 17 -70 48 -70 95c0 66 65 110 135 110c69 0 133 -45 133 -110c0 -47 -29 -78 -69 -95c48 -17 82 -54 82 -100c0 -70 -64 -117 -148 -117zM744 381c-58 0 -100 -32 -100 -79s42 -82 100 -82s100 35 100 82s-42 79 -100 79z
M744 191c-68 0 -112 -37 -112 -86s44 -84 112 -84c67 0 112 35 112 84s-44 86 -112 86z" />
    <glyph glyph-name="fiveeighths" unicode="&#x215d;" horiz-adv-x="945" 
d="M205 0l256 370l240 358h40l-256 -370l-240 -358h-40zM743 -10c-83 0 -146 47 -146 115c0 49 33 82 83 102c-40 17 -70 48 -70 95c0 66 65 110 135 110c69 0 133 -45 133 -110c0 -47 -29 -78 -69 -95c48 -17 82 -54 82 -100c0 -70 -64 -117 -148 -117zM199 316
c-57 0 -107 29 -143 69l25 23c35 -39 74 -60 119 -60c67 0 111 43 111 97c0 55 -45 90 -108 90c-36 0 -68 -9 -99 -24l-23 15l13 202h234v-34h-204l-11 -146c29 13 59 20 93 20c79 0 141 -47 141 -120c0 -78 -67 -132 -148 -132zM744 381c-58 0 -100 -32 -100 -79
s42 -82 100 -82s100 35 100 82s-42 79 -100 79zM744 191c-68 0 -112 -37 -112 -86s44 -84 112 -84c67 0 112 35 112 84s-44 86 -112 86z" />
    <glyph glyph-name="seveneighths" unicode="&#x215e;" horiz-adv-x="945" 
d="M174 0l256 370l240 358h40l-256 -370l-240 -358h-40zM167 324h-40l187 370h-236v34h275v-26zM743 -10c-83 0 -146 47 -146 115c0 49 33 82 83 102c-40 17 -70 48 -70 95c0 66 65 110 135 110c69 0 133 -45 133 -110c0 -47 -29 -78 -69 -95c48 -17 82 -54 82 -100
c0 -70 -64 -117 -148 -117zM744 381c-58 0 -100 -32 -100 -79s42 -82 100 -82s100 35 100 82s-42 79 -100 79zM744 191c-68 0 -112 -37 -112 -86s44 -84 112 -84c67 0 112 35 112 84s-44 86 -112 86z" />
    <glyph glyph-name="zero.tab" horiz-adv-x="630" 
d="M314 -12c-146 0 -252 143 -252 373v5c0 229 107 374 254 374c145 0 252 -143 252 -373v-5c0 -229 -107 -374 -254 -374zM315 701c-121 0 -207 -128 -207 -333v-5c0 -206 86 -336 207 -336s207 128 207 333v5c0 206 -86 336 -207 336z" />
    <glyph glyph-name="one.tab" horiz-adv-x="630" 
d="M584 0h-484v41h231v644l-208 -75l-13 38l230 85h34v-692h210v-41z" />
    <glyph glyph-name="two.tab" horiz-adv-x="630" 
d="M555 0h-496v33l288 263c113 103 154 167 154 241c0 95 -76 162 -174 162s-163 -56 -216 -145l-36 21c59 97 132 163 255 163c128 0 217 -86 217 -197v-2c0 -94 -50 -161 -171 -271l-248 -225h427v-43z" />
    <glyph glyph-name="three.tab" horiz-adv-x="630" 
d="M309 -12c-116 0 -199 53 -254 129l35 28c53 -72 122 -117 221 -117c103 0 195 69 195 174v2c0 102 -88 157 -222 157h-51l-16 29l268 296h-400v42h456v-39l-262 -289c154 2 273 -63 273 -194v-3c0 -129 -117 -215 -243 -215z" />
    <glyph glyph-name="three.tab_alt" horiz-adv-x="630" 
d="M313 -12c-112 0 -205 54 -261 133l36 24c53 -74 129 -118 227 -118c112 0 200 63 200 164c0 102 -86 157 -222 157h-75v39h80c116 0 204 59 204 160c0 90 -72 154 -187 154c-94 0 -163 -45 -214 -117l-34 21c55 80 138 135 249 135c137 0 231 -83 231 -192
c0 -100 -75 -157 -150 -178c90 -23 163 -77 163 -178c0 -116 -106 -204 -247 -204z" />
    <glyph glyph-name="four.tab" horiz-adv-x="630" 
d="M435 0v180h-379l-14 36l383 516h51v-514h115v-38h-115v-180h-41zM435 218v461l-343 -461h343z" />
    <glyph glyph-name="five.tab" horiz-adv-x="630" 
d="M311 -12c-105 0 -192 51 -249 116l33 30c59 -66 130 -107 218 -107c121 0 206 82 206 190v2c0 107 -83 178 -200 178c-68 0 -126 -20 -179 -48l-34 21l26 358h402v-43h-364l-21 -289c49 24 104 43 173 43c140 0 243 -88 243 -218v-2c0 -136 -111 -231 -254 -231z" />
    <glyph glyph-name="six.tab" horiz-adv-x="630" 
d="M334 455c129 0 235 -89 235 -226v-2c0 -135 -107 -239 -241 -239c-71 0 -132 28 -173 69c-56 56 -88 131 -88 283v3c0 229 108 397 285 397c76 0 135 -30 189 -78l-28 -33c-44 43 -98 72 -164 72c-151 -1 -238 -158 -238 -353v-39c38 91 119 146 223 146zM327 27
c118 0 197 91 197 200v1c0 111 -81 189 -192 188c-125 0 -204 -89 -204 -193v-1c0 -110 89 -196 199 -195z" />
    <glyph glyph-name="seven.tab" horiz-adv-x="630" 
d="M512 685h-433v43h483v-32l-340 -696h-49z" />
    <glyph glyph-name="eight.tab" horiz-adv-x="630" 
d="M315 -11c-151 0 -257 86 -257 201v3c0 88 70 156 163 183c-77 28 -139 85 -139 172v3c0 111 109 188 233 188s233 -77 233 -188v-3c0 -86 -62 -144 -139 -172c93 -28 163 -96 163 -183v-3c0 -115 -107 -201 -257 -201zM315 393c103 0 188 63 188 155v2
c0 87 -82 150 -188 150s-188 -63 -188 -149v-2c0 -92 85 -156 188 -156zM315 28c132 0 211 74 211 161v2c0 94 -93 164 -211 164s-211 -69 -211 -163v-3c0 -86 79 -161 211 -161z" />
    <glyph glyph-name="nine.tab" horiz-adv-x="630" 
d="M303 701c-118 0 -197 -92 -197 -203v-1c0 -114 81 -192 191 -191c126 0 205 90 205 196v1c0 112 -89 199 -199 198zM295 267c-129 0 -234 89 -234 229v2c0 138 107 242 241 242c71 0 132 -28 173 -69c56 -56 88 -131 88 -283v-3c0 -229 -108 -397 -285 -397
c-77 0 -140 32 -198 83l28 33c53 -48 105 -77 173 -77c151 0 238 164 238 355c0 4 0 17 -1 31c-38 -90 -118 -146 -223 -146z" />
    <glyph glyph-name="dollar.tab" horiz-adv-x="630" 
d="M132 545c0 -70 41 -124 174 -154l37 297c-12 1 -24 2 -37 2c-105 0 -174 -59 -174 -144v-1zM520 187c0 82 -52 128 -184 157l-37 -305c11 -1 22 -1 33 -1c114 0 188 66 188 148v1zM395 810l-10 -89c60 -12 111 -38 158 -76l-26 -35c-44 37 -88 61 -139 72l-37 -298
c149 -33 222 -89 222 -195v-1c0 -105 -95 -190 -233 -189c-12 0 -23 1 -34 1l-15 -123h-40l16 128c-80 15 -145 52 -197 101l28 33c50 -48 105 -82 176 -95l37 307c-147 34 -212 93 -212 193v1c0 106 91 184 219 183c13 0 25 -1 37 -2l11 84h39z" />
    <glyph glyph-name="sterling.tab" horiz-adv-x="630" 
d="M158 364v126c0 80 23 145 66 188c36 36 85 60 152 60c88 0 152 -43 197 -101l-33 -29c-39 51 -93 91 -164 91c-54 0 -91 -18 -121 -48c-34 -33 -54 -88 -54 -158v-129h296v-39h-296v-285h372v-40h-503v22l88 17v286h-88v39h88z" />
    <glyph glyph-name="Euro.tab" horiz-adv-x="630" 
d="M48 440v37h88c29 148 118 263 250 263c87 0 145 -47 187 -103l-32 -26c-41 56 -91 90 -157 90c-107 0 -180 -95 -205 -224h264v-37h-271c-3 -24 -4 -47 -4 -72v-6c0 -23 0 -46 3 -67h272v-37h-266c24 -133 96 -231 205 -231c75 0 121 38 164 94l29 -23
c-44 -60 -103 -110 -195 -110c-128 0 -220 108 -246 270h-86v37h80c-2 21 -2 42 -2 64v10c0 24 1 47 4 71h-82z" />
    <glyph glyph-name="yen.tab" horiz-adv-x="630" 
d="M97 160h197v127h-197v37h183l-251 404h51l236 -389l236 389h49l-253 -404h184v-37h-196v-127h196v-37h-196v-123h-42v123h-197v37z" />
    <glyph glyph-name="cent.tab" horiz-adv-x="630" 
d="M112 366c0 -107 61 -194 153 -224l92 464c-5 1 -11 1 -16 1c-133 0 -229 -109 -229 -239v-2zM424 734l-20 -96c65 -14 114 -49 154 -93l-29 -29c-38 39 -78 73 -135 85l-93 -468c11 -1 23 -2 35 -2c86 0 151 42 198 96l28 -25c-54 -62 -128 -109 -228 -109
c-14 0 -27 0 -39 2l-21 -101h-42l22 111c-111 34 -186 139 -186 260v2c0 147 118 278 274 278c7 0 15 0 22 -1l18 90h42z" />
    <glyph glyph-name="numbersign.tab" horiz-adv-x="630" 
d="M230 495l-38 -257h208l38 257h-208zM43 238h110l39 257h-115v38h120l30 195h38l-30 -195h209l29 195h39l-30 -195h105v-38h-110l-39 -257h115v-38h-120l-30 -200h-38l30 200h-209l-30 -200h-38l30 200h-105v38z" />
    <glyph glyph-name="paragraph.tab" horiz-adv-x="630" 
d="M451 0v288h-85c-158 0 -277 81 -277 218v1c0 138 114 222 279 221h128v-728h-45z" />
    <glyph glyph-name="section.tab" horiz-adv-x="630" 
d="M244 469c-83 1 -136 -38 -136 -85v-1c0 -46 43 -79 157 -105c58 -15 85 -19 121 -19c83 -1 136 38 136 85v1c0 46 -43 79 -157 105c-58 15 -87 18 -121 19zM326 -10c-87 0 -170 36 -220 83l29 33c44 -41 114 -77 194 -77s127 37 127 86v1c0 54 -57 89 -174 116
c-158 40 -218 81 -218 150v1c0 60 62 111 165 113c-60 25 -100 61 -100 114v1c0 74 73 128 175 127c87 0 170 -36 220 -83l-29 -33c-44 41 -114 77 -194 77s-127 -37 -127 -86v-1c0 -54 57 -89 174 -116c158 -40 218 -81 218 -150v-1c0 -60 -62 -111 -165 -113
c60 -25 100 -61 100 -114v-1c0 -74 -73 -128 -175 -127z" />
    <glyph glyph-name="degree.tab" horiz-adv-x="630" 
d="M314 326c-113 0 -208 91 -208 204v1c0 112 97 205 210 204c113 0 208 -91 208 -205v-1c0 -111 -97 -204 -210 -203zM315 363c94 0 167 73 167 167v1c0 92 -74 168 -167 167c-94 0 -167 -74 -167 -168v-1c0 -92 74 -167 167 -166z" />
    <glyph glyph-name="percent.tab" horiz-adv-x="630" 
d="M163 736c73 0 120 -76 120 -172v-4c0 -96 -47 -174 -120 -174s-120 76 -120 172v4c0 96 47 174 120 174zM494 728h37l-203 -371l-192 -357h-37l203 371zM163 703c-54 0 -84 -65 -84 -138v-8c0 -73 30 -138 84 -138s84 65 84 138v8c0 73 -30 138 -84 138zM467 342
c73 0 120 -76 120 -172v-4c0 -96 -47 -174 -120 -174s-120 76 -120 172v4c0 96 47 174 120 174zM467 309c-54 0 -84 -65 -84 -138v-8c0 -73 30 -138 84 -138s84 65 84 138v8c0 73 -30 138 -84 138z" />
    <glyph glyph-name="quotedbl.tab" horiz-adv-x="630" 
d="M151 464l67 264h57v-4l-99 -260h-25zM369 464l68 264h56v-4l-98 -260h-26z" />
    <glyph glyph-name="quotesingle.tab" horiz-adv-x="315" 
d="M103 464l68 264h56v-4l-98 -260h-26z" />
    <glyph glyph-name="period.tab" horiz-adv-x="315" 
d="M122 0v87h72v-87h-72z" />
    <glyph glyph-name="comma.tab" horiz-adv-x="315" 
d="M113 -103l-10 22c38 19 53 42 51 81h-32v87h72v-77c0 -63 -29 -93 -81 -113z" />
    <glyph glyph-name="colon.tab" horiz-adv-x="315" 
d="M122 441v86h72v-86h-72zM122 0v87h72v-87h-72z" />
    <glyph glyph-name="semicolon.tab" horiz-adv-x="315" 
d="M122 441v86h72v-86h-72zM113 -103l-10 22c38 19 53 42 51 81h-32v87h72v-77c0 -63 -29 -93 -81 -113z" />
    <glyph glyph-name="twodotleader.tab" horiz-adv-x="630" 
d="M125 0v81h68v-81h-68zM437 0v81h68v-81h-68z" />
    <glyph glyph-name="periodcentered.tab" horiz-adv-x="315" 
d="M122 266v87h72v-87h-72z" />
    <glyph glyph-name="slash.tab" horiz-adv-x="630" 
d="M595 830l-532 -963h-43l531 963h44z" />
    <glyph glyph-name="bar.tab" horiz-adv-x="315" 
d="M139 -133v963h38v-963h-38z" />
    <glyph glyph-name="underscore.tab" horiz-adv-x="630" 
d="M1 -163v38h628v-38h-628z" />
    <glyph glyph-name="plus.tab" horiz-adv-x="630" 
d="M555 346h-219v-225h-42v225h-219v40h219v225h42v-225h219v-40z" />
    <glyph glyph-name="minus.tab" horiz-adv-x="630" 
d="M555 345h-480v42h480v-42z" />
    <glyph glyph-name="divide.tab" horiz-adv-x="630" 
d="M280 532v81h70v-81h-70zM555 346h-480v40h480v-40zM280 120v81h70v-81h-70z" />
    <glyph glyph-name="equal.tab" horiz-adv-x="630" 
d="M536 462h-442v42h442v-42zM536 228h-442v42h442v-42z" />
    <glyph glyph-name="multiply.tab" horiz-adv-x="630" 
d="M506 145l-192 193l-192 -193l-29 28l194 192l-194 192l31 31l192 -194l192 194l29 -29l-194 -192l194 -192z" />
    <glyph glyph-name="less.tab" horiz-adv-x="630" 
d="M532 106l-462 245v30l462 246v-45l-412 -215l412 -217v-44z" />
    <glyph glyph-name="greater.tab" horiz-adv-x="630" 
d="M560 351l-462 -245v44l412 215l-412 217v45l462 -246v-30z" />
    <glyph glyph-name="plusminus.tab" horiz-adv-x="630" 
d="M555 377h-219v-214h-42v214h-219v41h219v214h42v-214h219v-41zM555 0h-480v41h480v-41z" />
    <glyph glyph-name="baht" unicode="&#xe3f;" horiz-adv-x="664" 
d="M374 810h40l-15 -87c103 -17 169 -81 169 -175v-1c0 -101 -66 -154 -135 -175c92 -21 166 -76 166 -177v-1c0 -120 -98 -195 -253 -194h-76l-21 -123h-39l21 123h-120v728h231c6 0 11 0 17 -1zM154 386h147l53 302c-5 0 -9 1 -13 1h-187v-303zM525 544
c0 75 -49 128 -136 141l-53 -299c115 0 189 56 189 157v1zM154 39h86l54 310h-140v-310zM346 349h-16l-54 -310h71c131 0 210 57 210 155v1c0 98 -80 155 -211 154z" />
    <glyph glyph-name="colonmonetary" unicode="&#x20a1;" horiz-adv-x="634" 
d="M255 62c33 -18 70 -28 108 -28l111 636c-31 15 -66 24 -108 24h-1zM107 359c0 -128 47 -224 118 -278l106 610c-128 -19 -224 -141 -224 -325v-7zM498 810h38l-21 -119c21 -12 39 -26 58 -41l-25 -32c-14 12 -28 23 -43 33l-108 -615c61 7 109 35 157 79l24 -29
c-51 -47 -108 -81 -185 -88l-21 -121h-39l22 121c-38 1 -74 8 -106 23l-25 -144h-38l28 162c-91 58 -150 170 -150 319v7c0 206 115 348 271 364l15 81h38l-14 -79c41 -1 75 -9 106 -22z" />
    <glyph glyph-name="florin" unicode="&#x192;" horiz-adv-x="525" 
d="M91 -5c-22 0 -34 2 -48 4v39c14 -4 26 -5 45 -5c46 0 78 27 91 96l51 275h-114v39h121l28 144c19 104 67 146 146 146c29 0 47 -3 72 -10v-39c-24 6 -48 10 -68 10c-59 0 -91 -29 -106 -112l-26 -139h162v-39h-169l-52 -278c-18 -94 -62 -131 -133 -131z" />
    <glyph glyph-name="naira" unicode="&#x20a6;" horiz-adv-x="863" 
d="M202 685v-202h132zM400 448l107 -164h154v164h-261zM202 448v-164h262l-107 164h-155zM661 49v200h-131zM805 247h-103v-247h-57l-160 247h-283v-247h-41v247h-103v37h103v164h-103v37h103v243h62l156 -243h282v243h41v-243h103v-37h-103v-164h103v-37z" />
    <glyph glyph-name="peso" unicode="&#x20b1;" horiz-adv-x="749" 
d="M149 0v480h-102v38h102v210h188c161 0 266 -78 272 -210h103v-38h-103c-8 -140 -129 -215 -282 -215h-133v-265h-45zM193 688v-171h372c-7 110 -96 171 -231 171h-141zM329 306c139 0 230 67 237 175h-373v-175h136z" />
    <glyph glyph-name="R_p" horiz-adv-x="1236" 
d="M138 337h184c133 0 216 71 216 177v2c0 107 -79 172 -211 172h-189v-351zM947 27c105 0 188 92 188 235v5c0 142 -85 237 -188 237c-102 0 -195 -98 -195 -235v-7c0 -138 93 -235 195 -235zM96 0v728h233c157 0 252 -86 252 -210v-3c0 -113 -80 -188 -192 -209l215 -306
h-53l-210 299h-203v-299h-42zM713 -166v696h42v-126c36 75 101 138 196 138c118 0 227 -107 227 -274v-5c0 -166 -109 -275 -227 -275c-95 0 -161 63 -196 136v-290h-42z" />
    <glyph glyph-name="rupee" unicode="&#x20a8;" horiz-adv-x="1122" 
d="M138 337h184c133 0 216 71 216 177v2c0 107 -79 172 -211 172h-189v-351zM96 0v728h233c157 0 252 -86 252 -210v-3c0 -113 -80 -188 -192 -209l215 -306h-53l-210 299h-203v-299h-42zM877 -10c-77 0 -149 30 -201 74l25 32c54 -43 109 -67 179 -67c73 0 133 40 133 103
v2c0 51 -32 80 -138 113c-124 38 -175 77 -175 152v1c0 82 72 139 166 139c68 0 128 -25 176 -59l-21 -35c-47 33 -97 55 -156 55c-73 0 -123 -42 -123 -98v-1c0 -51 35 -80 146 -114c121 -37 167 -77 167 -151v-2c0 -89 -81 -144 -178 -144z" />
    <glyph glyph-name="won" unicode="&#x20a9;" horiz-adv-x="1154" 
d="M575 681l-59 -196h121l-58 196h-4zM690 449l49 -166h140l44 166h-233zM232 449l45 -166h141l49 166h-235zM506 449l-50 -166h242l-50 166h-142zM810 39h4l55 209h-120zM344 39h4l60 209h-121zM1046 728l-70 -243h126v-36h-136l-48 -166h184v-35h-194l-72 -252h-50
l-78 252h-262l-77 -252h-51l-73 252h-193v35h183l-47 166h-136v36h125l-69 243h48l68 -243h253l74 245h55l73 -245h255l67 243h45z" />
    <glyph glyph-name="hryvnia" unicode="&#x20b4;" horiz-adv-x="668" 
d="M74 455l5 36l339 -40c69 54 90 90 89 134c0 73 -65 115 -153 115c-63 0 -138 -26 -200 -78l-25 33c54 48 138 85 226 85c130 0 199 -69 199 -155c0 -55 -27 -95 -82 -141l148 -17l-5 -35l-184 21l-133 -100l301 -35l-5 -36l-337 40c-74 -60 -95 -97 -94 -138
c0 -81 71 -116 160 -116c73 0 146 26 215 79l26 -35c-65 -48 -145 -84 -241 -84c-145 0 -207 68 -207 155c0 49 28 95 86 145l-149 18l5 36l185 -22l133 100z" />
    <glyph glyph-name="numero" unicode="&#x2116;" horiz-adv-x="1171" 
d="M918 301c-107 0 -180 93 -180 212v6c0 120 76 213 182 213c107 0 181 -93 181 -212v-7c0 -119 -77 -212 -183 -212zM919 337c83 0 142 78 142 176v6c0 99 -59 177 -142 177s-142 -79 -142 -176v-7c0 -99 59 -176 142 -176zM99 0v728h41l431 -644v644h42v-728h-35
l-438 655v-655h-41zM741 164v35h356v-35h-356z" />
    <glyph glyph-name="sheqel" unicode="&#x20aa;" horiz-adv-x="655" 
d="M379 373c0 83 -40 116 -123 116h-125v-489h-41v527h167c108 0 161 -43 161 -152v-189h-39v187zM256 141l-35 214h40l34 -204c11 -75 47 -112 122 -112h107v488h41v-527h-149c-96 0 -145 47 -160 141z" />
    <glyph glyph-name="Delta" unicode="&#x2206;" horiz-adv-x="825" 
d="M59 0l-4 34l337 699h41l338 -699l-5 -34h-707zM412 681l-307 -640h612z" />
    <glyph glyph-name="Omega" unicode="&#x2126;" horiz-adv-x="910" 
d="M455 740c215 0 357 -153 357 -351v-1c0 -149 -80 -259 -213 -349l239 2v-41h-304v37c137 89 232 187 232 350v1c0 179 -125 312 -311 312s-310 -133 -310 -312v-1c0 -160 93 -261 231 -350v-37h-304v41l239 -2c-131 89 -212 198 -212 349v1c0 195 141 351 356 351z" />
    <glyph glyph-name="mu" unicode="&#xb5;" horiz-adv-x="699" 
d="M677 37v-39c-12 -4 -26 -6 -44 -6c-73 0 -115 37 -118 118c-33 -67 -97 -122 -185 -122c-95 0 -157 55 -188 128h-1c4 -55 4 -92 4 -137v-145h-42v693h42v-300c0 -113 81 -200 185 -200c105 0 185 89 185 200v300h42v-404c0 -64 28 -92 79 -92c16 0 30 2 41 6z" />
    <glyph glyph-name="asciicircum" unicode="^" horiz-adv-x="532" 
d="M84 513l164 218h36l164 -218h-44l-139 179l-138 -179h-43z" />
    <glyph glyph-name="asciitilde" unicode="~" horiz-adv-x="484" 
d="M309 263c-21 0 -44 12 -70 24c-23 12 -47 24 -64 24c-25 0 -39 -13 -54 -56l-29 8c17 70 44 92 84 92c20 0 43 -11 69 -24c23 -12 47 -24 64 -24c25 0 39 13 54 56l29 -7c-17 -71 -44 -93 -83 -93z" />
    <glyph glyph-name="hcoslug" horiz-adv-x="694" 
d="M644 700v-800h-594v800h594zM247 428c0 17 11 29 27 29c17 0 29 -15 29 -38c0 -17 -7 -33 -18 -50c-23 22 -38 36 -38 59zM312 342c19 13 33 24 42 34c23 -23 18 -47 -1 -80c-13 15 -25 30 -41 46zM261 219c-30 0 -52 23 -52 54c0 15 5 29 16 40c18 -17 46 -47 74 -82
c-11 -9 -23 -12 -38 -12zM382 264c15 20 31 33 46 42c9 -15 25 -25 43 -25c28 0 50 23 50 54s-22 52 -50 52c-25 0 -44 -14 -60 -38c-2 27 -22 38 -49 37c6 10 9 21 9 34c0 35 -33 74 -95 74c-67 0 -109 -42 -109 -85c0 -29 10 -47 31 -69c-53 -18 -82 -49 -82 -91
c0 -53 49 -93 109 -93c42 0 76 14 104 45c33 -34 55 -45 85 -45c43 0 78 36 80 94l-7 2c-10 -17 -22 -29 -43 -29c-20 0 -37 12 -62 41zM286 124l-12 -2v-9h-7v-7h7v-20c0 -8 4 -13 12 -13s12 4 14 13l-5 2c-1 -5 -3 -7 -5 -7c-3 0 -4 2 -4 5v20h13v7h-13v11zM174 94
c0 -13 9 -21 21 -21s21 9 21 21s-9 20 -21 20s-21 -8 -21 -20zM203 94c0 -12 -3 -16 -8 -16s-8 4 -8 16c0 11 3 15 8 15s8 -4 8 -15zM219 81v-7h22v7h-4v15c0 6 3 10 7 10s6 -3 6 -7v-18h-4v-7h22v7h-6v19c0 8 -3 14 -12 14c-7 0 -11 -4 -14 -11v10h-17v-7h6v-25h-6zM379 93
c0 -8 -2 -13 -7 -13c-6 0 -8 5 -8 13c0 7 2 13 8 13c5 0 7 -5 7 -13zM125 81v-7h30v7h-10v16h4c5 0 5 -1 6 -8h7v23h-7c-1 -7 -1 -8 -6 -8h-4v18h12c7 0 9 -2 11 -13h8v20h-51v-7h7v-41h-7zM302 88v-14h7l1 4c3 -2 6 -5 13 -5c9 0 14 6 14 13c0 16 -24 10 -24 18
c0 2 2 4 5 4c4 0 7 -3 10 -7h7v13h-6l-2 -5c-2 3 -6 5 -11 5c-9 0 -14 -6 -14 -12c0 -16 24 -11 24 -19c0 -2 -2 -4 -5 -4c-5 0 -8 3 -12 9h-7zM352 125v-52h6l4 8c3 -5 7 -8 14 -8c12 0 16 12 16 21c0 12 -6 20 -15 20c-6 0 -11 -3 -13 -9v27h-18v-7h6zM405 65
c3 3 2 10 -5 10c-4 0 -7 -3 -7 -7c0 -5 4 -9 11 -9c9 0 14 6 18 16l13 31h5v7h-17v-7h5l-8 -20l-9 20h6v7h-25v-7h5s12 -23 16 -33c-1 -5 -4 -8 -8 -8zM294 39v3c0 10 3 12 6 12c2 0 3 -1 3 -1s-1 -1 -1 -3c0 -4 3 -6 6 -6v-5h-14zM464 33h-18v-7h6c-1 -3 -4 -7 -6 -9
c-4 4 -7 8 -12 13c7 3 11 6 11 12s-5 12 -14 12c-10 0 -17 -7 -17 -14c0 -5 2 -8 6 -12c-7 -2 -13 -7 -13 -15s6 -14 18 -14c6 0 11 2 15 6c4 -5 7 -6 12 -6c8 0 11 5 13 12l-5 1c-1 -4 -2 -5 -4 -5s-4 2 -6 5c3 4 6 8 9 14h5v7zM469 27c0 -17 11 -28 29 -28
c15 0 23 9 24 23h-8c-1 -9 -6 -16 -14 -16c-10 0 -16 7 -16 22c0 16 6 22 14 22s11 -4 15 -16h8v22h-8l-1 -6c-4 4 -9 7 -16 7c-14 0 -27 -12 -27 -30zM431 33c-4 4 -6 7 -6 10s2 5 5 5c4 0 6 -3 6 -6c0 -4 -2 -7 -5 -9zM340 18h26c1 13 -5 22 -19 22c-11 0 -20 -9 -20 -21
s8 -20 21 -20c11 0 16 6 18 14h-7c-1 -5 -4 -7 -9 -7c-7 0 -10 3 -10 12zM525 20c0 -13 9 -21 21 -21s21 9 21 21s-9 20 -21 20s-21 -8 -21 -20zM189 20c0 -13 9 -21 21 -21s21 9 21 21s-9 20 -21 20s-21 -8 -21 -20zM247 18h26c1 13 -5 22 -19 22c-11 0 -20 -9 -20 -21
s8 -20 21 -20c11 0 16 6 18 14h-7c-1 -5 -4 -7 -9 -7c-7 0 -10 3 -10 12zM340 23c0 9 3 12 7 12c5 0 7 -4 7 -12h-14zM554 20c0 -12 -3 -16 -8 -16s-8 4 -8 16c0 11 3 15 8 15s8 -4 8 -15zM218 20c0 -12 -3 -16 -8 -16s-8 4 -8 16c0 11 3 15 8 15s8 -4 8 -15zM247 23
c0 9 3 12 7 12c5 0 7 -4 7 -12h-14zM368 7v-7h26v7h-8v16c2 5 5 9 7 9v-1c0 -4 3 -6 6 -6c4 0 7 3 7 7c0 5 -3 8 -8 8s-9 -3 -12 -11v10h-18v-7h6v-25h-6zM276 7v-7h23v7h-5v25h14v-25h-5v-7h23v7h-6v52l-10 -2c-2 1 -6 2 -9 2c-10 0 -19 -6 -19 -19v-1h-7v-7h7v-25h-6z
M124 7v-7h29v7h-8v18h22v-18h-8v-7h29v7h-8v41h8v7h-29v-7h8v-16h-22v16h8v7h-29v-7h8v-41h-8zM437 9c-3 -2 -6 -3 -8 -3c-6 0 -10 4 -10 10c0 4 2 7 4 9c5 -5 9 -10 14 -16zM583 6c0 4 -3 7 -7 7s-7 -3 -7 -7s3 -7 7 -7s7 3 7 7z" />
    <glyph glyph-name="space" unicode=" " horiz-adv-x="318" 
 />
    <glyph glyph-name="uni00A0" unicode="&#xa0;" horiz-adv-x="318" 
 />
    <glyph glyph-name="emspace" unicode="&#x2003;" horiz-adv-x="1000" 
 />
    <glyph glyph-name="enspace" unicode="&#x2002;" horiz-adv-x="500" 
 />
    <glyph glyph-name="threeperemspace" unicode="&#x2004;" horiz-adv-x="333" 
 />
    <glyph glyph-name="fourperemspace" unicode="&#x2005;" horiz-adv-x="250" 
 />
    <glyph glyph-name="thinspace" unicode="&#x2009;" horiz-adv-x="133" 
 />
    <glyph glyph-name="hairspace" unicode="&#x200a;" horiz-adv-x="75" 
 />
    <glyph glyph-name="space.tab" horiz-adv-x="315" 
 />
    <glyph glyph-name="figurespace" unicode="&#x2007;" horiz-adv-x="630" 
 />
    <glyph glyph-name="NUL" horiz-adv-x="0" 
 />
    <glyph glyph-name="acute" unicode="&#xb4;" horiz-adv-x="532" 
d="M212 619l91 132l52 -25l-108 -107h-35z" />
    <glyph glyph-name="hungarumlaut" unicode="&#x2dd;" horiz-adv-x="532" 
d="M129 619l92 132l48 -25l-104 -107h-36zM260 619l92 132l47 -25l-104 -107h-35z" />
    <glyph glyph-name="grave" unicode="`" horiz-adv-x="532" 
d="M285 619l-108 107l52 25l91 -132h-35z" />
    <glyph glyph-name="caron.alt" horiz-adv-x="532" 
d="M231 604l18 155h52v-3l-45 -152h-25z" />
    <glyph glyph-name="circumflex" unicode="&#x2c6;" horiz-adv-x="532" 
d="M144 619l105 124h34l105 -124h-40l-83 76l-83 -76h-38z" />
    <glyph glyph-name="caron" unicode="&#x2c7;" horiz-adv-x="532" 
d="M388 743l-105 -124h-34l-105 124h40l83 -77l83 77h38z" />
    <glyph glyph-name="breve" unicode="&#x2d8;" horiz-adv-x="532" 
d="M266 617c-78 0 -130 44 -136 112h34c11 -39 44 -71 102 -71c59 0 91 32 102 71h34c-6 -68 -59 -112 -136 -112z" />
    <glyph glyph-name="tilde" unicode="&#x2dc;" horiz-adv-x="532" 
d="M333 622c-21 0 -44 12 -70 24c-23 12 -47 24 -64 24c-25 0 -39 -13 -54 -56l-29 8c17 70 44 92 83 92c21 0 44 -11 70 -24c23 -12 47 -24 64 -24c25 0 39 13 54 56l29 -7c-17 -71 -44 -93 -83 -93z" />
    <glyph glyph-name="macron" unicode="&#xaf;" horiz-adv-x="532" 
d="M118 646v40h296v-40h-296z" />
    <glyph glyph-name="dieresis" unicode="&#xa8;" horiz-adv-x="532" 
d="M156 625v74h61v-74h-61zM315 625v74h61v-74h-61z" />
    <glyph glyph-name="dotaccent" unicode="&#x2d9;" horiz-adv-x="532" 
d="M234 625v74h64v-74h-64z" />
    <glyph glyph-name="ring" unicode="&#x2da;" horiz-adv-x="532" 
d="M266 617c-58 0 -106 46 -106 102s48 102 106 102s106 -46 106 -102s-48 -102 -106 -102zM266 644c41 0 76 34 76 75s-35 75 -76 75s-76 -34 -76 -75s35 -75 76 -75z" />
    <glyph glyph-name="commaaccent" unicode="&#x326;" horiz-adv-x="532" 
d="M221 -221l-7 22c35 9 50 25 48 56h-28v66h64v-52c0 -54 -25 -82 -77 -92z" />
    <glyph glyph-name="cedilla" unicode="&#xb8;" horiz-adv-x="532" 
d="M225 -152l-46 23l92 137h36z" />
    <glyph glyph-name="ogonek" unicode="&#x2db;" horiz-adv-x="532" 
d="M341 -138v-31h-1c-79 2 -126 34 -125 81c0 38 27 70 76 105l28 -16c-42 -32 -61 -55 -61 -84c0 -31 24 -50 83 -55z" />
    <glyph glyph-name="uni0384" unicode="&#x384;" horiz-adv-x="532" 
d="M222 619l66 147l53 -22l-86 -125h-33z" />
    <glyph glyph-name="uni0385" unicode="&#x385;" horiz-adv-x="532" 
d="M231 625l42 159l53 -14l-63 -145h-32zM128 625v73h61v-73h-61zM343 625v73h61v-73h-61z" />
    <glyph glyph-name="uni0387" unicode="&#x387;" horiz-adv-x="239" 
d="M90 449v78h59v-78h-59z" />
    <glyph glyph-name="descendercyrillic" horiz-adv-x="532" 
d="M225 11l42 1c49 -32 74 -62 74 -99c0 -48 -47 -82 -121 -82c-10 0 -20 1 -24 1v32c9 -1 13 -1 19 -1c52 1 82 22 82 54c0 28 -17 52 -72 94z" />
    <glyph glyph-name="acute.cap" horiz-adv-x="532" 
d="M209 796l99 116l50 -24l-111 -92h-38z" />
    <glyph glyph-name="hungarumlaut.cap" horiz-adv-x="532" 
d="M262 796l99 116l50 -24l-110 -92h-39zM122 796l99 116l50 -24l-110 -92h-39z" />
    <glyph glyph-name="grave.cap" horiz-adv-x="532" 
d="M323 796h-38l-111 92l50 24z" />
    <glyph glyph-name="circumflex.cap" horiz-adv-x="532" 
d="M138 796l108 108h40l108 -108h-46l-83 67l-82 -67h-45z" />
    <glyph glyph-name="caron.cap" horiz-adv-x="532" 
d="M394 904l-108 -108h-40l-108 108h46l83 -68l82 68h45z" />
    <glyph glyph-name="breve.cap" horiz-adv-x="532" 
d="M266 794c-78 0 -130 38 -136 99h37c11 -34 42 -58 99 -58s87 24 99 58h37c-7 -61 -58 -99 -136 -99z" />
    <glyph glyph-name="tilde.cap" horiz-adv-x="532" 
d="M333 799c-21 0 -46 12 -73 24c-21 10 -43 20 -59 20c-25 0 -39 -13 -54 -52l-31 8c17 63 44 87 82 87c21 0 46 -11 73 -24c21 -10 43 -20 59 -20c25 0 39 13 54 52l31 -9c-17 -62 -44 -86 -82 -86z" />
    <glyph glyph-name="macron.cap" horiz-adv-x="532" 
d="M111 823v42h310v-42h-310z" />
    <glyph glyph-name="dieresis.cap" horiz-adv-x="532" 
d="M147 802v70h66v-70h-66zM319 802v70h65v-70h-65z" />
    <glyph glyph-name="dotaccent.cap" horiz-adv-x="532" 
d="M232 802v70h68v-70h-68z" />
    <glyph glyph-name="ring.cap" horiz-adv-x="532" 
d="M266 794c-60 0 -109 41 -109 96c0 56 49 97 109 97s109 -41 109 -97c0 -55 -49 -96 -109 -96zM266 822c42 0 75 29 75 68c0 40 -33 69 -75 69s-75 -29 -75 -69c0 -39 33 -68 75 -68z" />
    <glyph glyph-name="uni0384.cap" horiz-adv-x="532" 
d="M95 555l23 173h54l-50 -173h-27z" />
    <glyph glyph-name="commaaccent.rot" horiz-adv-x="532" 
d="M312 768l6 -21c-35 -10 -49 -26 -48 -56h28v-67h-63v52c0 54 24 82 77 92z" />
    <glyph glyph-name="acute.altlc" horiz-adv-x="532" 
d="M212 853l92 115l50 -25l-105 -90h-37z" />
    <glyph glyph-name="acute.altuc" horiz-adv-x="532" 
d="M212 915l96 105l48 -24l-105 -81h-39z" />
    <glyph glyph-name="caron.alt.cap" horiz-adv-x="532" 
d="M231 604l18 155h52v-3l-45 -152h-25z" />
    <glyph glyph-name="cedilla.cap" horiz-adv-x="532" 
d="M225 -152l-46 23l92 137h36z" />
    <glyph glyph-name="commaaccent.cap" horiz-adv-x="532" 
d="M221 -221l-7 22c35 9 50 25 48 56h-28v66h64v-52c0 -54 -25 -82 -77 -92z" />
    <glyph glyph-name="ogonek.cap" horiz-adv-x="532" 
d="M341 -138v-31h-1c-79 2 -126 34 -125 81c0 38 27 70 76 105l28 -16c-42 -32 -61 -55 -61 -84c0 -31 24 -50 83 -55z" />
    <glyph glyph-name="uni0385.cap" horiz-adv-x="532" 
d="M231 625l42 159l53 -14l-63 -145h-32zM128 625v73h61v-73h-61zM343 625v73h61v-73h-61z" />
    </font>
</defs>
</svg>
