<?xml version="1.0" standalone="no"?>
<!DOCTYPE svg PUBLIC "-//W3C//DTD SVG 1.1//EN" "http://www.w3.org/Graphics/SVG/1.1/DTD/svg11.dtd" >
<svg xmlns="http://www.w3.org/2000/svg" xmlns:xlink="http://www.w3.org/1999/xlink" version="1.1">
<metadata>
Created by FontForge 20190801 at Tue Apr 21 18:02:58 2015
 By Jimmy Wärting
Copyright C 2010, 2014 Hoefler &#38; Co. http:www.typography.com
</metadata>
<defs>
<font id="GothamSSm-Book" horiz-adv-x="420" >
  <font-face 
    font-family="Gotham SSm"
    font-weight="325"
    font-stretch="normal"
    units-per-em="1000"
    panose-1="0 0 0 0 0 0 0 0 0 0"
    ascent="800"
    descent="-200"
    x-height="541"
    cap-height="728"
    bbox="-222 -264 1216 1038"
    underline-thickness="50"
    underline-position="-100"
    stemh="86"
    stemv="94"
    unicode-range="U+0020-FB04"
  />
<missing-glyph horiz-adv-x="500" 
d="M0 -200v1000h500v-1000h-500zM71 750l179 -390l179 390h-358zM450 676l-172 -376l172 -376v752zM50 -76l172 376l-172 376v-752zM250 240l-179 -390h358z" />
    <glyph glyph-name="f_f" unicode="ff" horiz-adv-x="778" 
d="M505 0v459h-73v80h73v45c0 61 16 108 46 138c28 27 67 42 118 42c39 0 66 -5 92 -14v-81c-27 9 -49 14 -76 14c-58 0 -87 -34 -87 -105v-39h162v-80h-161v-459h-94zM120 0v459h-73v80h73v45c0 61 16 108 46 138c28 27 67 42 118 42c39 0 66 -5 92 -14v-81
c-27 9 -49 14 -76 14c-58 0 -87 -34 -87 -105v-39h162v-80h-161v-459h-94z" />
    <glyph glyph-name="fi" unicode="fi" horiz-adv-x="674" 
d="M477 649v98h105v-98h-105zM120 0v459h-73v80h73v45c0 61 16 108 46 138c28 27 67 42 118 42c39 0 66 -5 92 -14v-81c-27 9 -49 14 -76 14c-58 0 -87 -34 -87 -105v-39h162v-80h-161v-459h-94zM483 0v541h93v-541h-93z" />
    <glyph glyph-name="fl" unicode="fl" horiz-adv-x="674" 
d="M482 0v759h93v-759h-93zM120 0v459h-73v80h73v45c0 61 16 108 46 138c28 27 67 42 118 42c39 0 66 -5 92 -14v-81c-27 9 -49 14 -76 14c-58 0 -87 -34 -87 -105v-39h162v-80h-161v-459h-94z" />
    <glyph glyph-name="f_f_i" unicode="ffi" horiz-adv-x="1059" 
d="M861 649v98h105v-98h-105zM505 0v459h-73v80h73v45c0 61 16 108 46 138c28 27 67 42 118 42c39 0 66 -5 92 -14v-81c-27 9 -49 14 -76 14c-58 0 -87 -34 -87 -105v-39h162v-80h-161v-459h-94zM120 0v459h-73v80h73v45c0 61 16 108 46 138c28 27 67 42 118 42
c39 0 66 -5 92 -14v-81c-27 9 -49 14 -76 14c-58 0 -87 -34 -87 -105v-39h162v-80h-161v-459h-94zM867 0v541h93v-541h-93z" />
    <glyph glyph-name="f_f_l" unicode="ffl" horiz-adv-x="1059" 
d="M867 0v759h93v-759h-93zM505 0v459h-73v80h73v45c0 61 16 108 46 138c28 27 67 42 118 42c39 0 66 -5 92 -14v-81c-27 9 -49 14 -76 14c-58 0 -87 -34 -87 -105v-39h162v-80h-161v-459h-94zM120 0v459h-73v80h73v45c0 61 16 108 46 138c28 27 67 42 118 42
c39 0 66 -5 92 -14v-81c-27 9 -49 14 -76 14c-58 0 -87 -34 -87 -105v-39h162v-80h-161v-459h-94z" />
    <glyph glyph-name=".notdef" horiz-adv-x="500" 
d="M0 -200v1000h500v-1000h-500zM71 750l179 -390l179 390h-358zM450 676l-172 -376l172 -376v752zM50 -76l172 376l-172 376v-752zM250 240l-179 -390h358z" />
    <glyph glyph-name="A" unicode="A" horiz-adv-x="830" 
d="M259 274h308l-154 347zM41 0l329 733h90l328 -733h-102l-83 188h-380l-83 -188h-99z" />
    <glyph glyph-name="B" unicode="B" horiz-adv-x="759" 
d="M104 0v728h315c83 0 149 -24 190 -64c31 -32 48 -71 48 -119v-2c0 -92 -56 -140 -112 -166c86 -27 153 -76 153 -176v-2c0 -126 -106 -199 -266 -199h-328zM560 529v2c0 68 -54 111 -151 111h-210v-233h203c94 0 158 41 158 120zM601 209c0 73 -61 117 -180 117h-222
v-240h234c103 0 168 44 168 121v2z" />
    <glyph glyph-name="C" unicode="C" horiz-adv-x="779" 
d="M438 -12c-210 0 -366 165 -366 374v2c0 206 154 376 370 376c133 0 212 -47 284 -114l-63 -71c-61 57 -128 97 -222 97c-154 0 -269 -126 -269 -286v-2c0 -160 115 -288 269 -288c97 0 160 38 227 102l63 -62c-76 -78 -159 -128 -293 -128z" />
    <glyph glyph-name="D" unicode="D" horiz-adv-x="821" 
d="M104 0v728h259c229 0 387 -157 387 -362v-2c0 -205 -158 -364 -387 -364h-259zM363 640h-163v-552h163c174 0 286 118 286 274v2c0 155 -112 276 -286 276z" />
    <glyph glyph-name="E" unicode="E" horiz-adv-x="705" 
d="M104 0v728h530v-87h-434v-231h387v-87h-387v-236h439v-87h-535z" />
    <glyph glyph-name="F" unicode="F" horiz-adv-x="690" 
d="M104 0v728h529v-88h-433v-241h386v-88h-386v-311h-96z" />
    <glyph glyph-name="G" unicode="G" horiz-adv-x="823" 
d="M444 -12c-228 0 -372 165 -372 374v2c0 201 150 376 368 376c124 0 200 -35 274 -97l-61 -73c-57 49 -117 82 -217 82c-152 0 -264 -131 -264 -286v-2c0 -166 107 -290 276 -290c78 0 151 29 199 68v167h-210v85h303v-295c-69 -60 -171 -111 -296 -111z" />
    <glyph glyph-name="H" unicode="H" horiz-adv-x="798" 
d="M104 0v728h96v-317h398v317h97v-728h-97v322h-398v-322h-96z" />
    <glyph glyph-name="I" unicode="I" horiz-adv-x="319" 
d="M111 0v728h97v-728h-97z" />
    <glyph glyph-name="J" unicode="J" horiz-adv-x="585" 
d="M260 -10c-110 0 -180 53 -227 125l67 62c44 -64 89 -99 161 -99c77 0 134 56 134 165v485h98v-485c0 -85 -26 -150 -68 -191c-41 -41 -98 -62 -165 -62z" />
    <glyph glyph-name="K" unicode="K" horiz-adv-x="758" 
d="M104 0v728h96v-414l396 414h123l-310 -316l323 -412h-119l-270 345l-143 -145v-200h-96z" />
    <glyph glyph-name="L" unicode="L" horiz-adv-x="649" 
d="M104 0v728h96v-640h402v-88h-498z" />
    <glyph glyph-name="M" unicode="M" horiz-adv-x="911" 
d="M104 0v728h99l252 -381l252 381h100v-728h-96v570l-255 -376h-4l-254 374v-568h-94z" />
    <glyph glyph-name="N" unicode="N" horiz-adv-x="830" 
d="M104 0v728h89l438 -559v559h95v-728h-79l-449 573v-573h-94z" />
    <glyph glyph-name="O" unicode="O" horiz-adv-x="892" 
d="M445 -12c-222 0 -373 172 -373 374v2c0 202 153 376 375 376s373 -172 373 -374v-2c0 -202 -153 -376 -375 -376zM447 76c160 0 273 128 273 286v2c0 158 -116 288 -275 288c-160 0 -273 -128 -273 -286v-2c0 -158 116 -288 275 -288z" />
    <glyph glyph-name="P" unicode="P" horiz-adv-x="703" 
d="M104 0v728h277c166 0 274 -90 274 -234v-2c0 -159 -132 -242 -288 -242h-167v-250h-96zM200 337h171c113 0 187 62 187 152v2c0 98 -74 149 -185 149h-173v-303z" />
    <glyph glyph-name="Q" unicode="Q" horiz-adv-x="892" 
d="M830 48l-64 -70l-94 84c-61 -46 -139 -74 -227 -74c-222 0 -373 172 -373 374v2c0 202 153 376 375 376s373 -172 373 -374v-2c0 -89 -30 -172 -82 -237zM447 76c59 0 112 17 155 47l-133 115l64 71l134 -122c34 48 53 109 53 175v2c0 158 -116 288 -275 288
c-160 0 -273 -128 -273 -286v-2c0 -158 116 -288 275 -288z" />
    <glyph glyph-name="Q.alt" horiz-adv-x="892" 
d="M728 -105l-131 123c-46 -19 -97 -30 -152 -30c-222 0 -373 172 -373 374v2c0 202 153 376 375 376s373 -172 373 -374v-2c0 -114 -49 -219 -131 -289l183 -176v-4h-144zM447 76c160 0 273 128 273 286v2c0 158 -116 288 -275 288c-160 0 -273 -128 -273 -286v-2
c0 -158 116 -288 275 -288z" />
    <glyph glyph-name="R" unicode="R" horiz-adv-x="760" 
d="M200 360h213c104 0 176 54 176 141v2c0 86 -65 137 -176 137h-213v-280zM104 0v728h316c91 0 163 -27 208 -73c37 -36 58 -89 58 -147v-2c0 -120 -79 -192 -190 -215l215 -291h-116l-201 274h-194v-274h-96z" />
    <glyph glyph-name="S" unicode="S" horiz-adv-x="674" 
d="M355 -10c-114 0 -212 38 -299 116l59 70c74 -66 146 -100 243 -100c92 0 153 47 153 114v2c0 62 -34 97 -182 130c-164 36 -244 88 -244 212v2c0 118 102 202 242 202c106 0 184 -30 258 -90l-54 -74c-67 54 -133 78 -206 78c-89 0 -144 -48 -144 -107v-2
c0 -66 36 -100 190 -134c160 -36 236 -93 236 -208v-2c0 -128 -105 -209 -252 -209z" />
    <glyph glyph-name="T" unicode="T" horiz-adv-x="676" 
d="M290 0v639h-241v89h578v-89h-241v-639h-96z" />
    <glyph glyph-name="U" unicode="U" horiz-adv-x="797" 
d="M398 -11c-184 0 -306 109 -306 317v422h97v-417c0 -150 79 -234 211 -234c127 0 208 77 208 229v422h96v-416c0 -213 -122 -323 -306 -323z" />
    <glyph glyph-name="V" unicode="V" horiz-adv-x="788" 
d="M351 -5l-310 733h107l247 -607l248 607h104l-310 -733h-86z" />
    <glyph glyph-name="W" unicode="W" horiz-adv-x="1162" 
d="M306 -5l-258 733h105l197 -586l193 588h80l193 -588l198 586h101l-258 -733h-82l-194 570l-193 -570h-82z" />
    <glyph glyph-name="X" unicode="X" horiz-adv-x="763" 
d="M593 728h111l-264 -356l274 -372h-113l-221 303l-220 -303h-111l274 371l-264 357h114l210 -289z" />
    <glyph glyph-name="Y" unicode="Y" horiz-adv-x="753" 
d="M328 0v288l-299 440h115l233 -352l235 352h112l-299 -438v-290h-97z" />
    <glyph glyph-name="Z" unicode="Z" horiz-adv-x="732" 
d="M73 0v67l459 576h-444v85h572v-67l-459 -576h459v-85h-587z" />
    <glyph glyph-name="a" unicode="a" horiz-adv-x="612" 
d="M271 61c95 0 170 56 170 137v47c-37 12 -87 23 -148 23c-95 0 -149 -41 -149 -105v-2c0 -63 58 -100 127 -100zM250 -12c-101 0 -199 58 -199 168v2c0 115 94 175 229 175c67 0 113 -9 160 -23v18c0 90 -56 138 -153 138c-63 0 -112 -15 -161 -38l-27 75
c59 27 118 46 199 46c78 0 137 -21 176 -60c38 -38 56 -92 56 -161v-328h-91v77c-37 -47 -97 -89 -189 -89z" />
    <glyph glyph-name="a.alt" horiz-adv-x="701" 
d="M335 71c96 0 184 80 184 199v2c0 118 -88 198 -184 198c-98 0 -179 -75 -179 -198v-2c0 -120 83 -199 179 -199zM316 -12c-129 0 -256 103 -256 281v2c0 178 126 282 256 282c97 0 159 -52 201 -110v98h93v-541h-93v103c-43 -62 -105 -115 -201 -115z" />
    <glyph glyph-name="b" unicode="b" horiz-adv-x="701" 
d="M385 -12c-98 0 -160 52 -201 110v-98h-94v759h94v-321c43 63 105 115 201 115c128 0 256 -103 256 -281v-2c0 -178 -127 -282 -256 -282zM365 71c99 0 180 75 180 198v2c0 121 -83 199 -180 199c-95 0 -184 -80 -184 -198v-2c0 -119 89 -199 184 -199z" />
    <glyph glyph-name="c" unicode="c" horiz-adv-x="602" 
d="M336 -12c-159 0 -278 127 -278 280v2c0 153 119 283 279 283c102 0 165 -42 216 -96l-60 -64c-42 43 -87 77 -157 77c-104 0 -183 -89 -183 -198v-2c0 -111 80 -199 188 -199c66 0 115 32 158 76l58 -56c-54 -60 -118 -103 -221 -103z" />
    <glyph glyph-name="d" unicode="d" horiz-adv-x="701" 
d="M335 71c96 0 184 80 184 199v2c0 118 -88 198 -184 198c-98 0 -179 -75 -179 -198v-2c0 -120 83 -199 179 -199zM316 -12c-129 0 -256 103 -256 281v2c0 178 126 282 256 282c97 0 159 -52 201 -110v316h93v-759h-93v103c-43 -62 -105 -115 -201 -115z" />
    <glyph glyph-name="e" unicode="e" horiz-adv-x="627" 
d="M330 -12c-150 0 -272 113 -272 281v2c0 156 110 282 261 282c164 0 255 -130 255 -288c0 -10 -1 -18 -2 -29h-419c12 -108 89 -169 179 -169c71 0 120 28 164 73l57 -51c-53 -61 -121 -101 -223 -101zM152 303h327c-8 93 -62 171 -161 171c-90 0 -155 -72 -166 -171z" />
    <glyph glyph-name="f" unicode="f" horiz-adv-x="393" 
d="M120 0v459h-73v80h73v45c0 61 16 108 46 138c28 27 67 42 118 42c39 0 66 -5 92 -14v-81c-27 9 -49 14 -76 14c-58 0 -87 -34 -87 -105v-39h162v-80h-161v-459h-94z" />
    <glyph glyph-name="g" unicode="g" horiz-adv-x="701" 
d="M333 124c97 0 186 70 186 172v2c0 104 -89 173 -186 173s-177 -67 -177 -172v-2c0 -103 81 -173 177 -173zM330 -168c-89 0 -173 24 -245 71l40 73c61 -42 128 -65 204 -65c116 0 188 62 188 184v57c-46 -62 -109 -110 -205 -110c-129 0 -252 97 -252 254v2
c0 158 124 255 252 255c98 0 161 -48 205 -105v93h93v-441c0 -86 -24 -152 -69 -196c-48 -48 -121 -72 -211 -72z" />
    <glyph glyph-name="h" unicode="h" horiz-adv-x="650" 
d="M90 0v759h94v-309c36 56 90 103 180 103c129 0 203 -87 203 -214v-339h-94v313c0 96 -51 154 -139 154c-86 0 -150 -62 -150 -159v-308h-94z" />
    <glyph glyph-name="i" unicode="i" horiz-adv-x="289" 
d="M92 649v98h105v-98h-105zM98 0v541h93v-541h-93z" />
    <glyph glyph-name="j" unicode="j" horiz-adv-x="289" 
d="M92 649v98h105v-98h-105zM52 -170c-21 0 -35 2 -53 5v77c12 -2 27 -3 38 -3c36 0 61 21 61 70v562h93v-565c0 -99 -51 -146 -139 -146z" />
    <glyph glyph-name="k" unicode="k" horiz-adv-x="604" 
d="M90 0v759h94v-503l271 285h117l-224 -229l231 -312h-112l-183 247l-100 -102v-145h-94z" />
    <glyph glyph-name="l" unicode="l" horiz-adv-x="289" 
d="M98 0v759h93v-759h-93z" />
    <glyph glyph-name="m" unicode="m" horiz-adv-x="997" 
d="M90 0v541h94v-88c35 52 83 100 172 100c85 0 141 -45 170 -104c40 58 98 104 188 104c123 0 198 -81 198 -215v-338h-94v313c0 99 -49 154 -131 154c-78 0 -139 -56 -139 -157v-310h-94v315c0 96 -49 152 -130 152c-80 0 -140 -65 -140 -159v-308h-94z" />
    <glyph glyph-name="n" unicode="n" horiz-adv-x="650" 
d="M90 0v541h94v-91c36 56 90 103 180 103c129 0 203 -87 203 -214v-339h-94v313c0 96 -51 154 -139 154c-86 0 -150 -62 -150 -159v-308h-94z" />
    <glyph glyph-name="o" unicode="o" horiz-adv-x="684" 
d="M341 -12c-164 0 -283 127 -283 280v2c0 153 121 283 285 283c163 0 283 -127 283 -281v-2c0 -153 -121 -282 -285 -282zM343 71c112 0 187 89 187 197v2c0 110 -81 200 -189 200c-112 0 -188 -90 -188 -198v-2c0 -109 81 -199 190 -199z" />
    <glyph glyph-name="p" unicode="p" horiz-adv-x="701" 
d="M365 71c99 0 180 75 180 198v2c0 121 -83 199 -180 199c-95 0 -184 -80 -184 -198v-2c0 -119 89 -199 184 -199zM90 -166v707h94v-103c43 63 105 115 201 115c128 0 256 -103 256 -281v-2c0 -178 -127 -282 -256 -282c-98 0 -160 52 -201 110v-264h-94z" />
    <glyph glyph-name="q" unicode="q" horiz-adv-x="701" 
d="M517 -166v269c-43 -62 -105 -115 -201 -115c-129 0 -256 103 -256 281v2c0 178 126 282 256 282c97 0 159 -52 201 -110v98h93v-707h-93zM335 71c96 0 184 80 184 199v2c0 118 -88 198 -184 198c-98 0 -179 -75 -179 -198v-2c0 -120 83 -199 179 -199z" />
    <glyph glyph-name="r" unicode="r" horiz-adv-x="431" 
d="M90 0v541h94v-135c38 87 112 149 212 144v-99h-6c-116 0 -206 -81 -206 -238v-213h-94z" />
    <glyph glyph-name="s" unicode="s" horiz-adv-x="527" 
d="M271 -10c-77 0 -162 29 -226 79l46 66c59 -44 123 -68 184 -68s103 30 103 77v2c0 51 -61 70 -130 90c-83 24 -176 54 -176 154v2c0 97 80 159 187 159c66 0 140 -24 196 -61l-41 -69c-51 32 -108 52 -158 52c-59 0 -96 -30 -96 -71v-2c0 -48 65 -67 134 -88
c83 -25 173 -58 173 -155v-2c0 -107 -86 -165 -196 -165z" />
    <glyph glyph-name="t" unicode="t" horiz-adv-x="430" 
d="M272 -9c-88 0 -154 42 -154 154v314h-73v82h73v159h93v-159h164v-82h-164v-301c0 -60 33 -83 84 -83c28 0 51 6 78 19v-79c-29 -16 -60 -24 -101 -24z" />
    <glyph glyph-name="u" unicode="u" horiz-adv-x="650" 
d="M285 -12c-128 0 -203 87 -203 214v339h94v-313c0 -96 51 -154 140 -154c86 0 150 63 150 159v308h93v-541h-93v91c-36 -56 -91 -103 -181 -103z" />
    <glyph glyph-name="v" unicode="v" horiz-adv-x="621" 
d="M269 -4l-231 545h102l171 -433l172 433h100l-231 -545h-83z" />
    <glyph glyph-name="w" unicode="w" horiz-adv-x="903" 
d="M230 -4l-185 545h98l132 -415l138 417h79l138 -417l133 415h96l-186 -545h-83l-138 409l-139 -409h-83z" />
    <glyph glyph-name="x" unicode="x" horiz-adv-x="607" 
d="M155 541l149 -203l150 203h103l-201 -264l209 -277h-106l-157 214l-157 -214h-103l207 275l-199 266h105z" />
    <glyph glyph-name="y" unicode="y" horiz-adv-x="625" 
d="M322 105l164 436h99l-223 -558c-46 -112 -96 -153 -180 -153c-47 0 -81 11 -119 30l32 72c25 -13 49 -20 81 -20c44 0 72 22 101 89l-240 540h102z" />
    <glyph glyph-name="z" unicode="z" horiz-adv-x="588" 
d="M61 0v62l345 401h-333v78h457v-62l-345 -400h345v-79h-469z" />
    <glyph glyph-name="uni0391" unicode="&#x391;" horiz-adv-x="830" 
d="M259 274h308l-154 347zM41 0l329 733h90l328 -733h-102l-83 188h-380l-83 -188h-99z" />
    <glyph glyph-name="uni0392" unicode="&#x392;" horiz-adv-x="759" 
d="M104 0v728h315c83 0 149 -24 190 -64c31 -32 48 -71 48 -119v-2c0 -92 -56 -140 -112 -166c86 -27 153 -76 153 -176v-2c0 -126 -106 -199 -266 -199h-328zM560 529v2c0 68 -54 111 -151 111h-210v-233h203c94 0 158 41 158 120zM601 209c0 73 -61 117 -180 117h-222
v-240h234c103 0 168 44 168 121v2z" />
    <glyph glyph-name="uni0393" unicode="&#x393;" horiz-adv-x="649" 
d="M104 0v728h498v-88h-402v-640h-96z" />
    <glyph glyph-name="uni0394" unicode="&#x394;" horiz-adv-x="828" 
d="M62 0l-8 71l311 662h98l311 -662l-8 -71h-704zM413 626l-251 -539h499z" />
    <glyph glyph-name="uni0395" unicode="&#x395;" horiz-adv-x="705" 
d="M104 0v728h530v-87h-434v-231h387v-87h-387v-236h439v-87h-535z" />
    <glyph glyph-name="uni0396" unicode="&#x396;" horiz-adv-x="732" 
d="M73 0v67l459 576h-444v85h572v-67l-459 -576h459v-85h-587z" />
    <glyph glyph-name="uni0397" unicode="&#x397;" horiz-adv-x="798" 
d="M104 0v728h96v-317h398v317h97v-728h-97v322h-398v-322h-96z" />
    <glyph glyph-name="uni0398" unicode="&#x398;" horiz-adv-x="892" 
d="M445 -12c-222 0 -373 172 -373 374v2c0 202 153 376 375 376s373 -172 373 -374v-2c0 -202 -153 -376 -375 -376zM447 75c162 0 275 126 275 287v2c0 161 -115 289 -277 289s-275 -126 -275 -287v-2c0 -161 115 -289 277 -289zM628 411v-90h-364v90h364z" />
    <glyph glyph-name="uni0399" unicode="&#x399;" horiz-adv-x="319" 
d="M111 0v728h97v-728h-97z" />
    <glyph glyph-name="uni039A" unicode="&#x39a;" horiz-adv-x="758" 
d="M104 0v728h96v-414l396 414h123l-310 -316l323 -412h-119l-270 345l-143 -145v-200h-96z" />
    <glyph glyph-name="uni039B" unicode="&#x39b;" horiz-adv-x="810" 
d="M448 733l321 -733h-107l-259 603l-258 -603h-104l321 733h86z" />
    <glyph glyph-name="uni039C" unicode="&#x39c;" horiz-adv-x="911" 
d="M104 0v728h99l252 -381l252 381h100v-728h-96v570l-255 -376h-4l-254 374v-568h-94z" />
    <glyph glyph-name="uni039D" unicode="&#x39d;" horiz-adv-x="830" 
d="M104 0v728h89l438 -559v559h95v-728h-79l-449 573v-573h-94z" />
    <glyph glyph-name="uni039E" unicode="&#x39e;" horiz-adv-x="701" 
d="M631 639h-560v89h560v-89zM603 322h-505v89h505v-89zM636 0h-571v89h571v-89z" />
    <glyph glyph-name="uni039E.alt" horiz-adv-x="782" 
d="M717 87v-87h-652v87h279v237h-246v86h246v231h-273v87h641v-87h-274v-231h246v-86h-246v-237h279z" />
    <glyph glyph-name="uni039F" unicode="&#x39f;" horiz-adv-x="892" 
d="M445 -12c-222 0 -373 172 -373 374v2c0 202 153 376 375 376s373 -172 373 -374v-2c0 -202 -153 -376 -375 -376zM447 76c160 0 273 128 273 286v2c0 158 -116 288 -275 288c-160 0 -273 -128 -273 -286v-2c0 -158 116 -288 275 -288z" />
    <glyph glyph-name="uni03A0" unicode="&#x3a0;" horiz-adv-x="796" 
d="M104 0v728h588v-728h-96v640h-396v-640h-96z" />
    <glyph glyph-name="uni03A1" unicode="&#x3a1;" horiz-adv-x="703" 
d="M104 0v728h277c166 0 274 -90 274 -234v-2c0 -159 -132 -242 -288 -242h-167v-250h-96zM200 337h171c113 0 187 62 187 152v2c0 98 -74 149 -185 149h-173v-303z" />
    <glyph glyph-name="uni03A3" unicode="&#x3a3;" horiz-adv-x="712" 
d="M482 364l-273 -278h442v-86h-578v72l286 292l-284 292v72h570v-86h-434z" />
    <glyph glyph-name="uni03A4" unicode="&#x3a4;" horiz-adv-x="676" 
d="M290 0v639h-241v89h578v-89h-241v-639h-96z" />
    <glyph glyph-name="uni03A5" unicode="&#x3a5;" horiz-adv-x="753" 
d="M328 0v288l-299 440h115l233 -352l235 352h112l-299 -438v-290h-97z" />
    <glyph glyph-name="uni03A6" unicode="&#x3a6;" horiz-adv-x="972" 
d="M438 -13v86c-239 3 -377 121 -377 293v1c0 169 137 291 377 294v80h96v-80c238 -4 376 -121 376 -294v-1c0 -168 -137 -290 -376 -293v-86h-96zM810 368c0 117 -89 206 -278 208v-418c186 2 278 87 278 209v1zM162 366c0 -119 89 -207 278 -208v418
c-187 -3 -278 -88 -278 -209v-1z" />
    <glyph glyph-name="uni03A7" unicode="&#x3a7;" horiz-adv-x="763" 
d="M593 728h111l-264 -356l274 -372h-113l-221 303l-220 -303h-111l274 371l-264 357h114l210 -289z" />
    <glyph glyph-name="uni03A8" unicode="&#x3a8;" horiz-adv-x="897" 
d="M816 728v-253c0 -208 -125 -299 -319 -303v-172h-96v172c-195 4 -320 94 -320 300v256h96v-254c0 -149 80 -210 225 -213v467h94v-467c145 3 225 63 225 210v257h95z" />
    <glyph glyph-name="uni03A9" unicode="&#x3a9;" horiz-adv-x="912" 
d="M456 740c223 0 365 -148 365 -344v-1c0 -135 -71 -234 -182 -312l204 1v-84h-313v81c111 74 190 157 190 306v1c0 155 -104 265 -265 264c-159 0 -264 -108 -264 -263v-1c0 -141 77 -230 191 -307v-81h-314v84l205 -1c-111 80 -182 175 -182 313v1c0 187 141 344 365 343
z" />
    <glyph glyph-name="uni03B1" unicode="&#x3b1;" horiz-adv-x="741" 
d="M335 71c96 0 184 80 184 199v2c0 118 -88 198 -184 198c-98 0 -179 -75 -179 -198v-2c0 -120 83 -199 179 -199zM715 77v-77c-16 -4 -34 -7 -61 -7c-76 0 -119 32 -131 102c-44 -59 -110 -107 -204 -107c-132 0 -259 103 -259 281v2c0 178 126 282 256 282
c97 0 159 -52 201 -110v98h93v-402c2 -46 25 -66 68 -66c14 0 27 1 37 4z" />
    <glyph glyph-name="uni03B2" unicode="&#x3b2;" horiz-adv-x="686" 
d="M183 501v-88h112c129 0 207 54 207 145c0 74 -56 128 -149 128c-106 0 -170 -71 -170 -185zM296 341h-113v-64c0 -134 86 -207 198 -207c96 0 151 55 151 125c0 91 -73 146 -236 146zM184 -166h-94v667c0 165 100 265 263 265c155 0 244 -85 244 -202v-1
c0 -94 -58 -159 -155 -182c109 -24 186 -77 186 -193v-1c0 -108 -83 -200 -229 -199c-102 0 -173 48 -215 110v-264z" />
    <glyph glyph-name="uni03B3" unicode="&#x3b3;" horiz-adv-x="621" 
d="M583 541l-226 -529v-178h-94v180l-225 527h103l170 -428l171 428h101z" />
    <glyph glyph-name="uni03B4" unicode="&#x3b4;" horiz-adv-x="669" 
d="M538 680l-284 2l166 -132c126 -97 189 -176 189 -295c0 -145 -109 -267 -279 -267c-167 0 -272 118 -272 262c0 140 74 217 234 296l-170 144v69h416v-79zM358 492h-1c-154 -75 -208 -144 -207 -242c0 -100 72 -181 181 -181c112 0 185 83 185 182c0 88 -44 145 -158 241
z" />
    <glyph glyph-name="uni03B5" unicode="&#x3b5;" horiz-adv-x="589" 
d="M415 236h-120c-97 0 -140 -35 -140 -81v-1c0 -52 53 -87 149 -87c72 0 140 22 200 59l42 -66c-72 -46 -154 -72 -245 -72c-159 0 -240 67 -240 157v1c0 71 53 111 112 128c-55 20 -97 56 -97 123v1c0 84 78 154 229 154c99 0 171 -28 234 -72l-48 -67
c-50 36 -114 61 -184 61c-91 0 -138 -38 -138 -84v-1c0 -52 44 -79 125 -79h121v-74z" />
    <glyph glyph-name="uni03B6" unicode="&#x3b6;" horiz-adv-x="571" 
d="M440 -133v121l-121 14c-179 22 -261 98 -261 212c0 90 37 147 154 266l196 199h-309v80h431v-73l-254 -264c-91 -93 -123 -134 -123 -200c0 -75 62 -120 184 -135l191 -24v-196h-88z" />
    <glyph glyph-name="uni03B7" unicode="&#x3b7;" horiz-adv-x="650" 
d="M567 -166h-94v479c0 96 -51 154 -139 154c-86 0 -150 -62 -150 -159v-308h-94v541h94v-91c36 56 90 103 180 103c129 0 203 -87 203 -214v-505z" />
    <glyph glyph-name="uni03B8" unicode="&#x3b8;" horiz-adv-x="698" 
d="M348 -12c-176 0 -281 167 -281 375v26c0 208 106 375 283 375c176 0 281 -167 281 -375v-26c0 -208 -106 -375 -283 -375zM348 682c-114 0 -183 -112 -187 -266h377c-5 154 -78 266 -190 266zM350 69c114 0 184 113 188 268h-377c4 -155 76 -268 189 -268z" />
    <glyph glyph-name="uni03B9" unicode="&#x3b9;" horiz-adv-x="314" 
d="M88 143v398h94v-394c0 -51 22 -74 67 -74c15 0 28 1 38 4v-77c-16 -4 -35 -7 -62 -7c-91 0 -137 47 -137 150z" />
    <glyph glyph-name="uni03BA" unicode="&#x3ba;" horiz-adv-x="604" 
d="M184 541v-298l274 298h117l-224 -235l228 -306h-112l-179 241l-104 -107v-134h-94v541h94z" />
    <glyph glyph-name="uni03BB" unicode="&#x3bb;" horiz-adv-x="634" 
d="M101 669v79c25 10 52 15 81 15c91 0 123 -43 168 -154l247 -609h-102l-174 442l-182 -442h-100l238 548l-13 34c-29 71 -50 100 -99 100c-19 0 -40 -4 -64 -13z" />
    <glyph glyph-name="uni03BC" unicode="&#x3bc;" horiz-adv-x="700" 
d="M675 77v-77c-16 -4 -34 -7 -61 -7c-70 0 -113 28 -128 88c-36 -58 -91 -91 -154 -91c-68 0 -128 34 -159 100h-2c8 -53 12 -85 12 -131v-125h-93v707h94v-310c0 -93 60 -159 146 -159c85 0 146 66 146 159v310h94v-402c2 -46 24 -66 67 -66c15 0 28 1 38 4z" />
    <glyph glyph-name="uni03BD" unicode="&#x3bd;" horiz-adv-x="621" 
d="M269 -4l-231 545h102l171 -433l172 433h100l-231 -545h-83z" />
    <glyph glyph-name="uni03BE" unicode="&#x3be;" horiz-adv-x="581" 
d="M557 685l-50 -72c-49 41 -104 70 -172 70c-90 0 -148 -51 -148 -130c0 -86 76 -134 173 -134h95v-79h-113c-119 0 -188 -52 -188 -127c0 -84 76 -114 192 -127l186 -24v-195h-89v121l-116 14c-159 17 -269 70 -269 201c0 102 75 157 160 181c-49 19 -126 68 -126 176
c0 112 92 206 243 206c97 0 164 -34 222 -81z" />
    <glyph glyph-name="uni03BF" unicode="&#x3bf;" horiz-adv-x="684" 
d="M341 -12c-164 0 -283 127 -283 280v2c0 153 121 283 285 283c163 0 283 -127 283 -281v-2c0 -153 -121 -282 -285 -282zM343 71c112 0 187 89 187 197v2c0 110 -81 200 -189 200c-112 0 -188 -90 -188 -198v-2c0 -109 81 -199 190 -199z" />
    <glyph glyph-name="uni03C0" unicode="&#x3c0;" horiz-adv-x="731" 
d="M31 541h650v-84h-104v-310c0 -51 23 -74 68 -74c15 0 27 1 37 4v-77c-16 -4 -34 -7 -61 -7c-92 0 -137 47 -137 150v314h-256v-457h-94v457h-103v84z" />
    <glyph glyph-name="uni03C1" unicode="&#x3c1;" horiz-adv-x="689" 
d="M355 71c97 0 178 75 178 198v2c0 121 -81 199 -178 199c-102 0 -182 -80 -182 -198v-2c0 -119 87 -199 182 -199zM78 -166v430c0 167 113 289 276 289c153 0 275 -113 275 -281v-2c0 -175 -127 -282 -254 -282c-100 0 -162 51 -203 113v-267h-94z" />
    <glyph glyph-name="uni03C3" unicode="&#x3c3;" horiz-adv-x="712" 
d="M679 459l-172 1c73 -44 114 -114 114 -201v-1c0 -149 -118 -270 -282 -270c-163 0 -281 121 -281 274v1c0 153 117 278 294 278h327v-82zM341 71c112 0 186 83 186 190v2c0 110 -77 195 -188 195c-112 0 -186 -86 -186 -193v-1c0 -110 79 -193 188 -193z" />
    <glyph glyph-name="uni03C2" unicode="&#x3c2;" horiz-adv-x="602" 
d="M444 -133v122l-93 11c-187 24 -293 118 -293 281v1c0 145 110 272 275 271c107 0 170 -43 222 -101l-63 -66c-41 49 -90 84 -160 84c-104 0 -179 -82 -179 -186v-1c0 -120 81 -182 219 -199l161 -21v-196h-89z" />
    <glyph glyph-name="uni03C4" unicode="&#x3c4;" horiz-adv-x="591" 
d="M549 457h-218v-285c0 -77 33 -100 93 -100c24 0 46 3 74 11v-77c-27 -9 -56 -15 -91 -15c-112 0 -170 46 -170 177v289h-207v84h519v-84z" />
    <glyph glyph-name="uni03C5" unicode="&#x3c5;" horiz-adv-x="652" 
d="M325 -12c-146 0 -242 82 -242 241v312h94v-309c0 -108 57 -162 149 -162c93 0 150 53 150 161v310h94v-310c0 -161 -98 -243 -245 -243z" />
    <glyph glyph-name="uni03C6" unicode="&#x3c6;" horiz-adv-x="873" 
d="M483 -166h-93v163c-217 5 -333 120 -333 273v1c0 149 117 268 333 273v215h93v-215c216 -5 333 -121 333 -272v-1c0 -151 -117 -270 -333 -274v-163zM152 270c0 -110 80 -189 240 -191v384c-162 -3 -240 -82 -240 -192v-1zM722 271c0 109 -80 189 -240 192v-384
c161 3 240 81 240 191v1z" />
    <glyph glyph-name="uni03C7" unicode="&#x3c7;" horiz-adv-x="633" 
d="M154 541l163 -267l165 267h105l-217 -334l243 -373h-109l-189 303l-190 -303h-105l241 371l-216 336h109z" />
    <glyph glyph-name="uni03C8" unicode="&#x3c8;" horiz-adv-x="851" 
d="M472 -166h-93v163c-189 2 -297 105 -297 274v270h93v-268c0 -118 74 -191 205 -193v679h92v-679c130 1 204 75 204 192v269h94v-267c0 -172 -111 -275 -298 -277v-163z" />
    <glyph glyph-name="uni03C9" unicode="&#x3c9;" horiz-adv-x="924" 
d="M416 437h92v-165c0 -121 45 -200 132 -200c76 0 125 63 125 177c0 117 -55 207 -130 292h107c63 -72 117 -171 117 -294c0 -160 -81 -259 -210 -259c-105 0 -163 69 -188 150c-25 -80 -82 -150 -189 -150c-128 0 -207 98 -207 259c0 123 55 222 117 294h105
c-75 -84 -128 -175 -128 -292c0 -113 50 -177 123 -177c89 0 134 79 134 200v165z" />
    <glyph glyph-name="uni0410" unicode="&#x410;" horiz-adv-x="830" 
d="M259 274h308l-154 347zM41 0l329 733h90l328 -733h-102l-83 188h-380l-83 -188h-99z" />
    <glyph glyph-name="uni0411" unicode="&#x411;" horiz-adv-x="739" 
d="M104 0v728h519v-87h-424v-218h220c159 0 265 -68 265 -205v-1c0 -144 -119 -217 -275 -217h-305zM199 87h213c102 0 176 44 176 126v2c0 86 -71 123 -172 123h-217v-251z" />
    <glyph glyph-name="uni0412" unicode="&#x412;" horiz-adv-x="759" 
d="M104 0v728h315c83 0 149 -24 190 -64c31 -32 48 -71 48 -119v-2c0 -92 -56 -140 -112 -166c86 -27 153 -76 153 -176v-2c0 -126 -106 -199 -266 -199h-328zM560 529v2c0 68 -54 111 -151 111h-210v-233h203c94 0 158 41 158 120zM601 209c0 73 -61 117 -180 117h-222
v-240h234c103 0 168 44 168 121v2z" />
    <glyph glyph-name="uni0413" unicode="&#x413;" horiz-adv-x="649" 
d="M104 0v728h498v-88h-402v-640h-96z" />
    <glyph glyph-name="uni0414" unicode="&#x414;" horiz-adv-x="888" 
d="M443 625l-231 -539h461zM41 88h70l283 645h100l283 -645h70v-239h-92v151h-622v-151h-92v239z" />
    <glyph glyph-name="uni0415" unicode="&#x415;" horiz-adv-x="705" 
d="M104 0v728h530v-87h-434v-231h387v-87h-387v-236h439v-87h-535z" />
    <glyph glyph-name="uni0401" unicode="&#x401;" horiz-adv-x="705" 
d="M218 791v101h107v-101h-107zM419 791v101h106v-101h-106zM104 0v728h530v-87h-434v-231h387v-87h-387v-236h439v-87h-535z" />
    <glyph glyph-name="uni0416" unicode="&#x416;" horiz-adv-x="1117" 
d="M36 728h117l277 -315h82l-1 315h95v-315h81l278 315h116l-313 -352l326 -376h-117l-285 329h-86v-329h-95l1 329h-91l-283 -329h-115l327 376z" />
    <glyph glyph-name="uni0417" unicode="&#x417;" horiz-adv-x="695" 
d="M117 562l-59 65c69 62 159 113 290 113c158 0 262 -77 262 -194v-1c0 -86 -50 -146 -142 -174c94 -21 159 -79 159 -172v-1c0 -120 -110 -210 -290 -210c-127 0 -220 44 -290 104l57 69c63 -51 136 -87 235 -87c112 0 190 52 190 128v2c0 80 -75 122 -195 122h-127v82
h128c103 0 177 44 177 126v1c0 71 -64 119 -166 119c-96 0 -169 -41 -229 -92z" />
    <glyph glyph-name="uni0418" unicode="&#x418;" horiz-adv-x="830" 
d="M726 0h-97v578l-444 -578h-81v728h96v-564l434 564h92v-728z" />
    <glyph glyph-name="uni0419" unicode="&#x419;" horiz-adv-x="830" 
d="M415 786c-90 0 -155 45 -162 125h71c12 -33 40 -53 91 -53s79 20 91 53h71c-7 -80 -72 -125 -162 -125zM726 0h-97v578l-444 -578h-81v728h96v-564l434 564h92v-728z" />
    <glyph glyph-name="uni041A" unicode="&#x41a;" horiz-adv-x="762" 
d="M104 0v728h96v-314h108l293 314h124l-339 -351l355 -377h-126l-305 328h-110v-328h-96z" />
    <glyph glyph-name="uni041B" unicode="&#x41b;" horiz-adv-x="810" 
d="M448 733l321 -733h-107l-259 603l-258 -603h-104l321 733h86z" />
    <glyph glyph-name="uni041C" unicode="&#x41c;" horiz-adv-x="911" 
d="M104 0v728h99l252 -381l252 381h100v-728h-96v570l-255 -376h-4l-254 374v-568h-94z" />
    <glyph glyph-name="uni041D" unicode="&#x41d;" horiz-adv-x="798" 
d="M104 0v728h96v-317h398v317h97v-728h-97v322h-398v-322h-96z" />
    <glyph glyph-name="uni041E" unicode="&#x41e;" horiz-adv-x="892" 
d="M445 -12c-222 0 -373 172 -373 374v2c0 202 153 376 375 376s373 -172 373 -374v-2c0 -202 -153 -376 -375 -376zM447 76c160 0 273 128 273 286v2c0 158 -116 288 -275 288c-160 0 -273 -128 -273 -286v-2c0 -158 116 -288 275 -288z" />
    <glyph glyph-name="uni041F" unicode="&#x41f;" horiz-adv-x="796" 
d="M104 0v728h588v-728h-96v640h-396v-640h-96z" />
    <glyph glyph-name="uni0420" unicode="&#x420;" horiz-adv-x="703" 
d="M104 0v728h277c166 0 274 -90 274 -234v-2c0 -159 -132 -242 -288 -242h-167v-250h-96zM200 337h171c113 0 187 62 187 152v2c0 98 -74 149 -185 149h-173v-303z" />
    <glyph glyph-name="uni0421" unicode="&#x421;" horiz-adv-x="779" 
d="M438 -12c-210 0 -366 165 -366 374v2c0 206 154 376 370 376c133 0 212 -47 284 -114l-63 -71c-61 57 -128 97 -222 97c-154 0 -269 -126 -269 -286v-2c0 -160 115 -288 269 -288c97 0 160 38 227 102l63 -62c-76 -78 -159 -128 -293 -128z" />
    <glyph glyph-name="uni0422" unicode="&#x422;" horiz-adv-x="676" 
d="M290 0v639h-241v89h578v-89h-241v-639h-96z" />
    <glyph glyph-name="uni0423" unicode="&#x423;" horiz-adv-x="748" 
d="M297 0h-108l149 252l-302 476h110l246 -392l221 392h108z" />
    <glyph glyph-name="uni0424" unicode="&#x424;" horiz-adv-x="972" 
d="M438 -13v86c-239 3 -377 121 -377 293v1c0 169 137 291 377 294v80h96v-80c238 -4 376 -121 376 -294v-1c0 -168 -137 -290 -376 -293v-86h-96zM810 368c0 117 -89 206 -278 208v-418c186 2 278 87 278 209v1zM162 366c0 -119 89 -207 278 -208v418
c-187 -3 -278 -88 -278 -209v-1z" />
    <glyph glyph-name="uni0424.bgr" horiz-adv-x="988" 
d="M446 -104v103c-225 9 -374 162 -374 363v2c0 198 149 354 374 365v103h96v-103c225 -9 374 -165 374 -363v-2c0 -198 -150 -355 -374 -365v-103h-96zM171 364c0 -157 113 -271 277 -279v558c-166 -7 -277 -123 -277 -277v-2zM816 364c0 154 -112 270 -276 278v-557
c166 9 276 121 276 277v2z" />
    <glyph glyph-name="uni0425" unicode="&#x425;" horiz-adv-x="763" 
d="M593 728h111l-264 -356l274 -372h-113l-221 303l-220 -303h-111l274 371l-264 357h114l210 -289z" />
    <glyph glyph-name="uni0426" unicode="&#x426;" horiz-adv-x="815" 
d="M679 -151v151h-575v728h96v-640h396v640h96v-640h78v-239h-91z" />
    <glyph glyph-name="uni0427" unicode="&#x427;" horiz-adv-x="746" 
d="M546 0v276c-61 -17 -133 -26 -188 -26c-169 0 -273 71 -273 245v233h97v-218c0 -124 60 -172 185 -172c55 0 120 9 179 26v364h96v-728h-96z" />
    <glyph glyph-name="uni0428" unicode="&#x428;" horiz-adv-x="1157" 
d="M104 0v728h96v-640h330v640h97v-640h330v640h97v-728h-950z" />
    <glyph glyph-name="uni0429" unicode="&#x429;" horiz-adv-x="1177" 
d="M104 0v728h96v-640h330v640h97v-640h330v640h97v-640h78v-239h-91v151h-937z" />
    <glyph glyph-name="uni042A" unicode="&#x42a;" horiz-adv-x="884" 
d="M283 0v641h-237v87h333v-257h178c165 0 277 -82 277 -230v-2c0 -153 -121 -239 -288 -239h-263zM379 88h170c112 0 188 56 188 148v2c0 95 -72 146 -183 146h-175v-296z" />
    <glyph glyph-name="uni042B" unicode="&#x42b;" horiz-adv-x="989" 
d="M789 0v728h96v-728h-96zM104 0v728h96v-257h178c165 0 277 -82 277 -231v-1c0 -153 -121 -239 -288 -239h-263zM200 88h170c113 0 188 56 188 149v1c0 95 -72 146 -183 146h-175v-296z" />
    <glyph glyph-name="uni042C" unicode="&#x42c;" horiz-adv-x="705" 
d="M104 0v728h96v-257h178c165 0 277 -82 277 -230v-2c0 -153 -121 -239 -288 -239h-263zM200 88h170c112 0 188 56 188 148v2c0 95 -72 146 -183 146h-175v-296z" />
    <glyph glyph-name="uni042D" unicode="&#x42d;" horiz-adv-x="779" 
d="M56 622c72 68 161 118 294 118c209 0 358 -159 358 -374v-2c0 -209 -149 -376 -367 -376c-126 0 -217 48 -291 121l62 67c69 -66 138 -101 228 -101c146 0 251 105 266 250h-387v84h386c-16 143 -119 244 -259 244c-95 0 -167 -38 -232 -96z" />
    <glyph glyph-name="uni042E" unicode="&#x42e;" horiz-adv-x="1148" 
d="M104 0v728h96v-317h158c21 178 161 329 359 329c214 0 359 -176 359 -374v-2c0 -198 -147 -376 -361 -376c-201 0 -340 153 -358 334h-157v-322h-96zM717 76c153 0 259 130 259 286v2c0 156 -108 288 -261 288c-154 0 -260 -130 -260 -286v-2c0 -156 109 -288 262 -288z
" />
    <glyph glyph-name="uni042F" unicode="&#x42f;" horiz-adv-x="760" 
d="M560 360v280h-214c-110 0 -175 -53 -175 -137v-2c0 -92 77 -141 184 -141h205zM268 285c-112 23 -194 97 -194 217v1c0 142 109 225 280 225h302v-728h-96v274h-186l-208 -274h-117z" />
    <glyph glyph-name="uni0430" unicode="&#x430;" horiz-adv-x="612" 
d="M271 61c95 0 170 56 170 137v47c-37 12 -87 23 -148 23c-95 0 -149 -41 -149 -105v-2c0 -63 58 -100 127 -100zM250 -12c-101 0 -199 58 -199 168v2c0 115 94 175 229 175c67 0 113 -9 160 -23v18c0 90 -56 138 -153 138c-63 0 -112 -15 -161 -38l-27 75
c59 27 118 46 199 46c78 0 137 -21 176 -60c38 -38 56 -92 56 -161v-328h-91v77c-37 -47 -97 -89 -189 -89z" />
    <glyph glyph-name="uni0431" unicode="&#x431;" horiz-adv-x="682" 
d="M345 -12c-83 0 -148 29 -191 73c-56 56 -87 139 -87 255v1c0 274 93 388 294 422l184 31l16 -87l-186 -30c-144 -25 -203 -88 -219 -237c45 61 120 102 213 102c158 0 255 -108 255 -254v-1c0 -151 -112 -276 -279 -275zM346 69c109 0 183 83 183 192v1
c0 105 -69 182 -176 181c-114 0 -191 -76 -191 -181c0 -116 80 -193 184 -193z" />
    <glyph glyph-name="uni0432" unicode="&#x432;" horiz-adv-x="629" 
d="M90 0v541h274c113 0 184 -52 184 -139c0 -67 -38 -103 -93 -124c69 -19 115 -57 115 -130c0 -97 -82 -148 -206 -148h-274zM455 392c0 47 -37 77 -104 77h-169v-161h163c72 0 110 34 110 84zM477 152c0 54 -43 86 -124 86h-171v-165h179c74 0 116 31 116 79z" />
    <glyph glyph-name="uni0432.bgr" horiz-adv-x="677" 
d="M80 264v237c0 165 100 265 263 265c150 0 244 -83 244 -204v-1c0 -97 -64 -157 -155 -180c109 -23 186 -74 186 -188v-1c0 -113 -98 -205 -262 -204c-171 0 -276 84 -276 276zM174 501v-88h111c129 0 207 54 207 145c0 74 -56 128 -149 128c-106 0 -169 -71 -169 -185z
M286 341h-112v-76c0 -125 54 -197 183 -197c104 0 165 58 165 132c0 88 -73 141 -236 141z" />
    <glyph glyph-name="uni0433" unicode="&#x433;" horiz-adv-x="523" 
d="M90 0v541h397v-85h-303v-456h-94z" />
    <glyph glyph-name="uni0433.bgr" horiz-adv-x="541" 
d="M246 -10c-118 0 -188 55 -188 148v2c0 89 64 129 187 170c120 39 144 58 144 96v2c0 36 -28 65 -94 65c-61 0 -124 -23 -178 -57l-41 69c66 42 146 66 220 66c119 0 182 -60 182 -146v-2c0 -87 -64 -123 -190 -164c-104 -34 -141 -54 -141 -100v-1c0 -49 36 -71 102 -71
c63 0 134 26 200 71l43 -66c-73 -50 -156 -82 -246 -82z" />
    <glyph glyph-name="uni0434" unicode="&#x434;" horiz-adv-x="693" 
d="M346 450l-158 -367h314zM297 545h98l206 -460h62v-225h-86v140h-461v-140h-86v225h61z" />
    <glyph glyph-name="uni0434.bgr" horiz-adv-x="701" 
d="M333 124c97 0 186 70 186 172v2c0 104 -89 173 -186 173s-177 -67 -177 -172v-2c0 -103 81 -173 177 -173zM330 -168c-89 0 -173 24 -245 71l40 73c61 -42 128 -65 204 -65c116 0 188 62 188 184v57c-46 -62 -109 -110 -205 -110c-129 0 -252 97 -252 254v2
c0 158 124 255 252 255c98 0 161 -48 205 -105v93h93v-441c0 -86 -24 -152 -69 -196c-48 -48 -121 -72 -211 -72z" />
    <glyph glyph-name="uni0435" unicode="&#x435;" horiz-adv-x="627" 
d="M330 -12c-150 0 -272 113 -272 281v2c0 156 110 282 261 282c164 0 255 -130 255 -288c0 -10 -1 -18 -2 -29h-419c12 -108 89 -169 179 -169c71 0 120 28 164 73l57 -51c-53 -61 -121 -101 -223 -101zM152 303h327c-8 93 -62 171 -161 171c-90 0 -155 -72 -166 -171z" />
    <glyph glyph-name="uni0451" unicode="&#x451;" horiz-adv-x="627" 
d="M172 619v106h104v-106h-104zM360 619v106h104v-106h-104zM330 -12c-150 0 -272 113 -272 281v2c0 156 110 282 261 282c164 0 255 -130 255 -288c0 -10 -1 -18 -2 -29h-419c12 -108 89 -169 179 -169c71 0 120 28 164 73l57 -51c-53 -61 -121 -101 -223 -101zM152 303
h327c-8 93 -62 171 -161 171c-90 0 -155 -72 -166 -171z" />
    <glyph glyph-name="uni0436" unicode="&#x436;" horiz-adv-x="918" 
d="M505 541l-1 -227h82l189 227h112l-229 -265l237 -276h-113l-195 232h-83l1 -232h-92l1 232h-85l-194 -232h-112l237 272l-229 269h114l188 -227h81l-1 227h92z" />
    <glyph glyph-name="uni0436.bgr" horiz-adv-x="918" 
d="M505 759l-1 -445h82l189 227h112l-229 -265l237 -276h-113l-195 232h-83l1 -232h-92l1 232h-85l-194 -232h-112l237 272l-229 269h114l188 -227h81l-1 445h92z" />
    <glyph glyph-name="uni0437" unicode="&#x437;" horiz-adv-x="587" 
d="M45 62l48 67c53 -37 120 -62 193 -62c93 0 148 35 148 88v1c0 50 -54 81 -140 80h-121v74h119c82 0 127 32 127 82v1c0 49 -47 81 -130 81c-65 0 -129 -22 -189 -65l-49 63c66 49 144 81 242 81c136 0 220 -62 220 -151v-1c0 -69 -50 -106 -105 -125
c65 -14 119 -56 119 -128v-1c0 -87 -85 -159 -240 -159c-99 0 -180 29 -242 74z" />
    <glyph glyph-name="uni0438" unicode="&#x438;" horiz-adv-x="671" 
d="M90 0v541h94v-397l307 397h90v-541h-93v401l-311 -401h-87z" />
    <glyph glyph-name="uni0438.bgr" horiz-adv-x="650" 
d="M285 -12c-128 0 -203 87 -203 214v339h94v-313c0 -96 51 -154 140 -154c86 0 150 63 150 159v308h93v-541h-93v91c-36 -56 -91 -103 -181 -103z" />
    <glyph glyph-name="uni0439" unicode="&#x439;" horiz-adv-x="671" 
d="M335 617c-90 0 -154 50 -161 136h67c12 -38 41 -65 94 -65s82 27 94 65h67c-7 -86 -71 -136 -161 -136zM90 0v541h94v-397l307 397h90v-541h-93v401l-311 -401h-87z" />
    <glyph glyph-name="uni0439.bgr" horiz-adv-x="650" 
d="M320 617c-90 0 -154 50 -161 136h67c12 -38 41 -65 94 -65s82 27 94 65h67c-7 -86 -71 -136 -161 -136zM285 -12c-128 0 -203 87 -203 214v339h94v-313c0 -96 51 -154 140 -154c86 0 150 63 150 159v308h93v-541h-93v91c-36 -56 -91 -103 -181 -103z" />
    <glyph glyph-name="uni043A" unicode="&#x43a;" horiz-adv-x="609" 
d="M184 541v-227h87l194 227h116l-235 -264l241 -277h-116l-198 232h-89v-232h-94v541h94z" />
    <glyph glyph-name="uni043A.bgr" horiz-adv-x="609" 
d="M184 759v-445h87l194 227h116l-235 -264l241 -277h-116l-198 232h-89v-232h-94v759h94z" />
    <glyph glyph-name="uni043B" unicode="&#x43b;" horiz-adv-x="646" 
d="M367 545l242 -545h-104l-183 429l-184 -429h-101l242 545h88z" />
    <glyph glyph-name="uni043C" unicode="&#x43c;" horiz-adv-x="762" 
d="M90 0v541h98l194 -287l192 287h98v-541h-93v398l-197 -287h-3l-197 285v-396h-92z" />
    <glyph glyph-name="uni043D" unicode="&#x43d;" horiz-adv-x="669" 
d="M90 0v541h94v-225h301v225h93v-541h-93v230h-301v-230h-94z" />
    <glyph glyph-name="uni043E" unicode="&#x43e;" horiz-adv-x="684" 
d="M341 -12c-164 0 -283 127 -283 280v2c0 153 121 283 285 283c163 0 283 -127 283 -281v-2c0 -153 -121 -282 -285 -282zM343 71c112 0 187 89 187 197v2c0 110 -81 200 -189 200c-112 0 -188 -90 -188 -198v-2c0 -109 81 -199 190 -199z" />
    <glyph glyph-name="uni043F" unicode="&#x43f;" horiz-adv-x="668" 
d="M90 0v541h487v-541h-94v456h-299v-456h-94z" />
    <glyph glyph-name="uni043F.bgr" horiz-adv-x="650" 
d="M90 0v541h94v-91c36 56 90 103 180 103c129 0 203 -87 203 -214v-339h-94v313c0 96 -51 154 -139 154c-86 0 -150 -62 -150 -159v-308h-94z" />
    <glyph glyph-name="uni0440" unicode="&#x440;" horiz-adv-x="701" 
d="M365 71c99 0 180 75 180 198v2c0 121 -83 199 -180 199c-95 0 -184 -80 -184 -198v-2c0 -119 89 -199 184 -199zM90 -166v707h94v-103c43 63 105 115 201 115c128 0 256 -103 256 -281v-2c0 -178 -127 -282 -256 -282c-98 0 -160 52 -201 110v-264h-94z" />
    <glyph glyph-name="uni0441" unicode="&#x441;" horiz-adv-x="602" 
d="M336 -12c-159 0 -278 127 -278 280v2c0 153 119 283 279 283c102 0 165 -42 216 -96l-60 -64c-42 43 -87 77 -157 77c-104 0 -183 -89 -183 -198v-2c0 -111 80 -199 188 -199c66 0 115 32 158 76l58 -56c-54 -60 -118 -103 -221 -103z" />
    <glyph glyph-name="uni0442" unicode="&#x442;" horiz-adv-x="584" 
d="M245 0v457h-210v84h513v-84h-209v-457h-94z" />
    <glyph glyph-name="uni0442.bgr" horiz-adv-x="997" 
d="M90 0v541h94v-88c35 52 83 100 172 100c85 0 141 -45 170 -104c40 58 98 104 188 104c123 0 198 -81 198 -215v-338h-94v313c0 99 -49 154 -131 154c-78 0 -139 -56 -139 -157v-310h-94v315c0 96 -49 152 -130 152c-80 0 -140 -65 -140 -159v-308h-94z" />
    <glyph glyph-name="uni0443" unicode="&#x443;" horiz-adv-x="625" 
d="M322 105l164 436h99l-223 -558c-46 -112 -96 -153 -180 -153c-47 0 -81 11 -119 30l32 72c25 -13 49 -20 81 -20c44 0 72 22 101 89l-240 540h102z" />
    <glyph glyph-name="uni0444" unicode="&#x444;" horiz-adv-x="873" 
d="M483 -166h-93v163c-217 5 -333 120 -333 273v1c0 149 117 268 333 273v215h93v-215c216 -5 333 -121 333 -272v-1c0 -151 -117 -270 -333 -274v-163zM152 270c0 -110 80 -189 240 -191v384c-162 -3 -240 -82 -240 -192v-1zM722 271c0 109 -80 189 -240 192v-384
c161 3 240 81 240 191v1z" />
    <glyph glyph-name="uni0445" unicode="&#x445;" horiz-adv-x="607" 
d="M155 541l149 -203l150 203h103l-201 -264l209 -277h-106l-157 214l-157 -214h-103l207 275l-199 266h105z" />
    <glyph glyph-name="uni0446" unicode="&#x446;" horiz-adv-x="685" 
d="M557 -140v140h-467v541h94v-456h299v456h94v-456h66v-225h-86z" />
    <glyph glyph-name="uni0446.bgr" horiz-adv-x="667" 
d="M285 -12c-128 0 -203 87 -203 214v339h94v-313c0 -96 51 -154 140 -154c86 0 150 63 150 159v308h93v-456h66v-225h-86v140h-73v91c-36 -56 -91 -103 -181 -103z" />
    <glyph glyph-name="uni0447" unicode="&#x447;" horiz-adv-x="621" 
d="M437 0v185c-40 -10 -96 -21 -147 -21c-138 0 -219 60 -219 202v175h93v-167c0 -90 45 -124 138 -124c49 0 92 8 135 21v270h94v-541h-94z" />
    <glyph glyph-name="uni0448" unicode="&#x448;" horiz-adv-x="973" 
d="M90 0v541h94v-456h256v456h94v-456h255v456h94v-541h-793z" />
    <glyph glyph-name="uni0448.bgr" horiz-adv-x="997" 
d="M906 541v-541h-94v88c-35 -51 -82 -100 -171 -100c-85 0 -141 45 -170 104c-41 -58 -98 -104 -188 -104c-123 0 -198 82 -198 215v338h94v-313c0 -99 49 -154 131 -154c77 0 139 56 139 158v309h94v-315c0 -96 49 -152 130 -152c80 0 139 65 139 159v308h94z" />
    <glyph glyph-name="uni0449" unicode="&#x449;" horiz-adv-x="991" 
d="M90 0v541h94v-456h256v456h94v-456h255v456h94v-456h66v-225h-86v140h-773z" />
    <glyph glyph-name="uni0449.bgr" horiz-adv-x="1014" 
d="M886 -140v140h-74v88c-35 -51 -82 -100 -171 -100c-85 0 -141 45 -170 104c-41 -58 -98 -104 -188 -104c-123 0 -198 82 -198 215v338h94v-313c0 -99 49 -154 131 -154c77 0 139 56 139 158v309h94v-315c0 -96 49 -152 130 -152c80 0 139 65 139 159v308h94v-456h66v-225
h-86z" />
    <glyph glyph-name="uni044A" unicode="&#x44a;" horiz-adv-x="710" 
d="M30 541h269v-180h154c131 0 213 -68 213 -179v-1c0 -109 -80 -181 -218 -181h-242v458h-176v83zM299 282v-203h147c84 0 126 38 126 102v1c0 59 -42 101 -125 100h-148z" />
    <glyph glyph-name="uni044B" unicode="&#x44b;" horiz-adv-x="830" 
d="M646 0v541h94v-541h-94zM184 541v-180h153c132 0 214 -68 214 -179v-1c0 -109 -80 -181 -219 -181h-242v541h94zM183 282v-203h148c84 0 125 38 125 102v1c0 59 -41 101 -124 100h-149z" />
    <glyph glyph-name="uni044C" unicode="&#x44c;" horiz-adv-x="595" 
d="M184 541v-180h153c132 0 214 -68 214 -179v-1c0 -109 -80 -181 -219 -181h-242v541h94zM183 282v-203h148c84 0 125 38 125 102v1c0 59 -41 101 -124 100h-149z" />
    <glyph glyph-name="uni044D" unicode="&#x44d;" horiz-adv-x="605" 
d="M97 141c49 -47 103 -73 174 -73c98 0 171 72 181 167l-278 -1v78h277c-12 93 -82 160 -180 160c-74 0 -126 -30 -172 -71l-51 63c57 50 125 89 227 89c159 0 272 -119 272 -282v-2c0 -154 -114 -281 -274 -281c-97 0 -167 32 -229 90z" />
    <glyph glyph-name="uni044E" unicode="&#x44e;" horiz-adv-x="917" 
d="M184 230v-230h-94v541h94v-225h123c21 132 130 237 276 237c161 0 276 -127 276 -281v-2c0 -153 -116 -282 -278 -282c-148 0 -257 106 -275 242h-122zM583 71c109 0 181 89 181 197v2c0 110 -77 200 -183 200c-109 0 -181 -90 -181 -198v-2c0 -109 77 -199 183 -199z
" />
    <glyph glyph-name="uni044E.bgr" horiz-adv-x="917" 
d="M581 -12c-148 0 -257 106 -275 242h-122v-230h-94v759h94v-443h123c21 132 130 237 276 237c161 0 276 -127 276 -281v-2c0 -153 -116 -282 -278 -282zM583 71c109 0 181 89 181 197v2c0 110 -77 200 -183 200c-109 0 -181 -90 -181 -198v-2c0 -109 77 -199 183 -199z
" />
    <glyph glyph-name="uni044F" unicode="&#x44f;" horiz-adv-x="639" 
d="M455 465h-166c-75 0 -123 -39 -123 -97v-1c0 -60 46 -98 123 -98h166v196zM455 196h-147l-145 -196h-110l155 206c-83 20 -135 78 -135 161v1c0 107 84 173 215 173h260v-541h-93v196z" />
    <glyph glyph-name="Aacute" unicode="&#xc1;" horiz-adv-x="830" 
d="M376 801l109 139l91 -41l-123 -98h-77zM259 274h308l-154 347zM41 0l329 733h90l328 -733h-102l-83 188h-380l-83 -188h-99z" />
    <glyph glyph-name="aacute" unicode="&#xe1;" horiz-adv-x="612" 
d="M269 619l101 156l92 -42l-121 -114h-72zM271 61c95 0 170 56 170 137v47c-37 12 -87 23 -148 23c-95 0 -149 -41 -149 -105v-2c0 -63 58 -100 127 -100zM250 -12c-101 0 -199 58 -199 168v2c0 115 94 175 229 175c67 0 113 -9 160 -23v18c0 90 -56 138 -153 138
c-63 0 -112 -15 -161 -38l-27 75c59 27 118 46 199 46c78 0 137 -21 176 -60c38 -38 56 -92 56 -161v-328h-91v77c-37 -47 -97 -89 -189 -89z" />
    <glyph glyph-name="aacute.alt" horiz-adv-x="701" 
d="M317 619l101 156l92 -42l-121 -114h-72zM335 71c96 0 184 80 184 199v2c0 118 -88 198 -184 198c-98 0 -179 -75 -179 -198v-2c0 -120 83 -199 179 -199zM316 -12c-129 0 -256 103 -256 281v2c0 178 126 282 256 282c97 0 159 -52 201 -110v98h93v-541h-93v103
c-43 -62 -105 -115 -201 -115z" />
    <glyph glyph-name="Abreve" unicode="&#x102;" horiz-adv-x="830" 
d="M415 799c-90 0 -155 45 -162 125h71c12 -33 40 -53 91 -53s79 20 91 53h71c-7 -80 -72 -125 -162 -125zM259 274h308l-154 347zM41 0l329 733h90l328 -733h-102l-83 188h-380l-83 -188h-99z" />
    <glyph glyph-name="abreve" unicode="&#x103;" horiz-adv-x="612" 
d="M307 617c-90 0 -154 50 -161 136h67c12 -38 41 -65 94 -65s82 27 94 65h67c-7 -86 -71 -136 -161 -136zM271 61c95 0 170 56 170 137v47c-37 12 -87 23 -148 23c-95 0 -149 -41 -149 -105v-2c0 -63 58 -100 127 -100zM250 -12c-101 0 -199 58 -199 168v2
c0 115 94 175 229 175c67 0 113 -9 160 -23v18c0 90 -56 138 -153 138c-63 0 -112 -15 -161 -38l-27 75c59 27 118 46 199 46c78 0 137 -21 176 -60c38 -38 56 -92 56 -161v-328h-91v77c-37 -47 -97 -89 -189 -89z" />
    <glyph glyph-name="abreve.alt" horiz-adv-x="701" 
d="M355 617c-90 0 -154 50 -161 136h67c12 -38 41 -65 94 -65s82 27 94 65h67c-7 -86 -71 -136 -161 -136zM335 71c96 0 184 80 184 199v2c0 118 -88 198 -184 198c-98 0 -179 -75 -179 -198v-2c0 -120 83 -199 179 -199zM316 -12c-129 0 -256 103 -256 281v2
c0 178 126 282 256 282c97 0 159 -52 201 -110v98h93v-541h-93v103c-43 -62 -105 -115 -201 -115z" />
    <glyph glyph-name="Acircumflex" unicode="&#xc2;" horiz-adv-x="830" 
d="M253 799l118 128h88l118 -128h-85l-78 62l-78 -62h-83zM259 274h308l-154 347zM41 0l329 733h90l328 -733h-102l-83 188h-380l-83 -188h-99z" />
    <glyph glyph-name="acircumflex" unicode="&#xe2;" horiz-adv-x="612" 
d="M151 619l114 141h84l114 -141h-78l-79 70l-79 -70h-76zM271 61c95 0 170 56 170 137v47c-37 12 -87 23 -148 23c-95 0 -149 -41 -149 -105v-2c0 -63 58 -100 127 -100zM250 -12c-101 0 -199 58 -199 168v2c0 115 94 175 229 175c67 0 113 -9 160 -23v18
c0 90 -56 138 -153 138c-63 0 -112 -15 -161 -38l-27 75c59 27 118 46 199 46c78 0 137 -21 176 -60c38 -38 56 -92 56 -161v-328h-91v77c-37 -47 -97 -89 -189 -89z" />
    <glyph glyph-name="acircumflex.alt" horiz-adv-x="701" 
d="M199 619l114 141h84l114 -141h-78l-79 70l-79 -70h-76zM335 71c96 0 184 80 184 199v2c0 118 -88 198 -184 198c-98 0 -179 -75 -179 -198v-2c0 -120 83 -199 179 -199zM316 -12c-129 0 -256 103 -256 281v2c0 178 126 282 256 282c97 0 159 -52 201 -110v98h93v-541h-93
v103c-43 -62 -105 -115 -201 -115z" />
    <glyph glyph-name="Adieresis" unicode="&#xc4;" horiz-adv-x="830" 
d="M261 801v101h107v-101h-107zM462 801v101h106v-101h-106zM259 274h308l-154 347zM41 0l329 733h90l328 -733h-102l-83 188h-380l-83 -188h-99z" />
    <glyph glyph-name="adieresis" unicode="&#xe4;" horiz-adv-x="612" 
d="M161 619v106h104v-106h-104zM349 619v106h104v-106h-104zM271 61c95 0 170 56 170 137v47c-37 12 -87 23 -148 23c-95 0 -149 -41 -149 -105v-2c0 -63 58 -100 127 -100zM250 -12c-101 0 -199 58 -199 168v2c0 115 94 175 229 175c67 0 113 -9 160 -23v18
c0 90 -56 138 -153 138c-63 0 -112 -15 -161 -38l-27 75c59 27 118 46 199 46c78 0 137 -21 176 -60c38 -38 56 -92 56 -161v-328h-91v77c-37 -47 -97 -89 -189 -89z" />
    <glyph glyph-name="adieresis.alt" horiz-adv-x="701" 
d="M209 619v106h104v-106h-104zM397 619v106h104v-106h-104zM335 71c96 0 184 80 184 199v2c0 118 -88 198 -184 198c-98 0 -179 -75 -179 -198v-2c0 -120 83 -199 179 -199zM316 -12c-129 0 -256 103 -256 281v2c0 178 126 282 256 282c97 0 159 -52 201 -110v98h93v-541
h-93v103c-43 -62 -105 -115 -201 -115z" />
    <glyph glyph-name="Agrave" unicode="&#xc0;" horiz-adv-x="830" 
d="M454 801h-76l-124 98l92 41zM259 274h308l-154 347zM41 0l329 733h90l328 -733h-102l-83 188h-380l-83 -188h-99z" />
    <glyph glyph-name="agrave" unicode="&#xe0;" horiz-adv-x="612" 
d="M273 619l-121 114l92 42l101 -156h-72zM271 61c95 0 170 56 170 137v47c-37 12 -87 23 -148 23c-95 0 -149 -41 -149 -105v-2c0 -63 58 -100 127 -100zM250 -12c-101 0 -199 58 -199 168v2c0 115 94 175 229 175c67 0 113 -9 160 -23v18c0 90 -56 138 -153 138
c-63 0 -112 -15 -161 -38l-27 75c59 27 118 46 199 46c78 0 137 -21 176 -60c38 -38 56 -92 56 -161v-328h-91v77c-37 -47 -97 -89 -189 -89z" />
    <glyph glyph-name="agrave.alt" horiz-adv-x="701" 
d="M320 619l-121 114l92 42l101 -156h-72zM335 71c96 0 184 80 184 199v2c0 118 -88 198 -184 198c-98 0 -179 -75 -179 -198v-2c0 -120 83 -199 179 -199zM316 -12c-129 0 -256 103 -256 281v2c0 178 126 282 256 282c97 0 159 -52 201 -110v98h93v-541h-93v103
c-43 -62 -105 -115 -201 -115z" />
    <glyph glyph-name="Amacron" unicode="&#x100;" horiz-adv-x="830" 
d="M239 820v75h352v-75h-352zM259 274h308l-154 347zM41 0l329 733h90l328 -733h-102l-83 188h-380l-83 -188h-99z" />
    <glyph glyph-name="amacron" unicode="&#x101;" horiz-adv-x="612" 
d="M140 637v73h334v-73h-334zM271 61c95 0 170 56 170 137v47c-37 12 -87 23 -148 23c-95 0 -149 -41 -149 -105v-2c0 -63 58 -100 127 -100zM250 -12c-101 0 -199 58 -199 168v2c0 115 94 175 229 175c67 0 113 -9 160 -23v18c0 90 -56 138 -153 138
c-63 0 -112 -15 -161 -38l-27 75c59 27 118 46 199 46c78 0 137 -21 176 -60c38 -38 56 -92 56 -161v-328h-91v77c-37 -47 -97 -89 -189 -89z" />
    <glyph glyph-name="amacron.alt" horiz-adv-x="701" 
d="M188 637v73h334v-73h-334zM335 71c96 0 184 80 184 199v2c0 118 -88 198 -184 198c-98 0 -179 -75 -179 -198v-2c0 -120 83 -199 179 -199zM316 -12c-129 0 -256 103 -256 281v2c0 178 126 282 256 282c97 0 159 -52 201 -110v98h93v-541h-93v103
c-43 -62 -105 -115 -201 -115z" />
    <glyph glyph-name="Aogonek" unicode="&#x104;" horiz-adv-x="830" 
d="M796 -120v-51c-6 0 -13 -1 -18 -1c-88 2 -135 37 -135 86c0 32 17 58 47 86h-4l-83 188h-380l-83 -188h-99l329 733h90l328 -733h-24c-31 -28 -44 -49 -44 -73c0 -29 23 -45 76 -47zM259 274h308l-154 347z" />
    <glyph glyph-name="aogonek" unicode="&#x105;" horiz-adv-x="612" 
d="M523 -172c-88 2 -135 37 -135 86c0 33 19 60 51 90v73c-37 -47 -97 -89 -189 -89c-101 0 -199 58 -199 168v2c0 115 94 175 229 175c67 0 113 -9 160 -23v18c0 90 -56 138 -153 138c-63 0 -112 -15 -161 -38l-27 75c59 27 118 46 199 46c78 0 137 -21 176 -60
c38 -38 56 -92 56 -161v-328h-21c-31 -28 -44 -49 -44 -73c0 -29 23 -45 76 -47v-51c-6 0 -13 -1 -18 -1zM271 61c95 0 170 56 170 137v47c-37 12 -87 23 -148 23c-95 0 -149 -41 -149 -105v-2c0 -63 58 -100 127 -100z" />
    <glyph glyph-name="aogonek.alt" horiz-adv-x="701" 
d="M624 -120v-51c-6 0 -13 -1 -18 -1c-88 2 -135 37 -135 86c0 32 17 58 47 86h-1v103c-43 -62 -105 -115 -201 -115c-129 0 -256 103 -256 281v2c0 178 126 282 256 282c97 0 159 -52 201 -110v98h93v-541h-18c-31 -28 -44 -49 -44 -73c0 -29 23 -45 76 -47zM335 71
c96 0 184 80 184 199v2c0 118 -88 198 -184 198c-98 0 -179 -75 -179 -198v-2c0 -120 83 -199 179 -199z" />
    <glyph glyph-name="Aring" unicode="&#xc5;" horiz-adv-x="830" 
d="M415 716c39 0 68 27 68 63c0 35 -29 62 -68 62c-40 0 -69 -27 -69 -62c0 -36 29 -63 69 -63zM259 274h308l-154 347zM41 0l309 690c-32 18 -53 50 -53 89c0 60 54 105 118 105s118 -45 118 -105c0 -39 -22 -71 -54 -89l309 -690h-102l-83 188h-380l-83 -188h-99z" />
    <glyph glyph-name="aring" unicode="&#xe5;" horiz-adv-x="612" 
d="M307 617c-63 0 -115 49 -115 111c0 61 52 111 115 111s115 -50 115 -111c0 -62 -52 -111 -115 -111zM307 657c39 0 71 32 71 71c0 38 -32 71 -71 71s-71 -33 -71 -71c0 -39 32 -71 71 -71zM271 61c95 0 170 56 170 137v47c-37 12 -87 23 -148 23
c-95 0 -149 -41 -149 -105v-2c0 -63 58 -100 127 -100zM250 -12c-101 0 -199 58 -199 168v2c0 115 94 175 229 175c67 0 113 -9 160 -23v18c0 90 -56 138 -153 138c-63 0 -112 -15 -161 -38l-27 75c59 27 118 46 199 46c78 0 137 -21 176 -60c38 -38 56 -92 56 -161v-328
h-91v77c-37 -47 -97 -89 -189 -89z" />
    <glyph glyph-name="aring.alt" horiz-adv-x="701" 
d="M355 617c-63 0 -115 49 -115 111c0 61 52 111 115 111s115 -50 115 -111c0 -62 -52 -111 -115 -111zM355 657c39 0 71 32 71 71c0 38 -32 71 -71 71s-71 -33 -71 -71c0 -39 32 -71 71 -71zM335 71c96 0 184 80 184 199v2c0 118 -88 198 -184 198
c-98 0 -179 -75 -179 -198v-2c0 -120 83 -199 179 -199zM316 -12c-129 0 -256 103 -256 281v2c0 178 126 282 256 282c97 0 159 -52 201 -110v98h93v-541h-93v103c-43 -62 -105 -115 -201 -115z" />
    <glyph glyph-name="aring.alt2" horiz-adv-x="612" 
d="M236 620c0 -38 32 -71 71 -71s71 33 71 71c0 39 -32 71 -71 71s-71 -32 -71 -71zM271 61c95 0 170 56 170 137v47c-37 12 -87 23 -148 23c-95 0 -149 -41 -149 -105v-2c0 -63 58 -100 127 -100zM250 -12c-101 0 -199 58 -199 168v2c0 115 94 175 229 175
c67 0 113 -9 160 -23v18c0 90 -56 138 -153 138c-63 0 -112 -15 -161 -38l-27 75c40 19 81 33 128 41c-22 19 -35 45 -35 76c0 62 52 111 115 111s115 -49 115 -111c0 -33 -16 -62 -41 -81c38 -9 69 -27 93 -50c38 -38 56 -92 56 -161v-328h-91v77c-37 -47 -97 -89 -189 -89
z" />
    <glyph glyph-name="Aringacute" unicode="&#x1fa;" horiz-adv-x="830" 
d="M372 914l110 124l90 -41l-124 -83h-76zM415 716c39 0 68 27 68 63c0 35 -29 62 -68 62c-40 0 -69 -27 -69 -62c0 -36 29 -63 69 -63zM259 274h308l-154 347zM41 0l309 690c-32 18 -53 50 -53 89c0 60 54 105 118 105s118 -45 118 -105c0 -39 -22 -71 -54 -89l309 -690
h-102l-83 188h-380l-83 -188h-99z" />
    <glyph glyph-name="aringacute" unicode="&#x1fb;" horiz-adv-x="612" 
d="M268 870l105 135l90 -43l-121 -92h-74zM307 617c-63 0 -115 49 -115 111c0 61 52 111 115 111s115 -50 115 -111c0 -62 -52 -111 -115 -111zM307 657c39 0 71 32 71 71c0 38 -32 71 -71 71s-71 -33 -71 -71c0 -39 32 -71 71 -71zM271 61c95 0 170 56 170 137v47
c-37 12 -87 23 -148 23c-95 0 -149 -41 -149 -105v-2c0 -63 58 -100 127 -100zM250 -12c-101 0 -199 58 -199 168v2c0 115 94 175 229 175c67 0 113 -9 160 -23v18c0 90 -56 138 -153 138c-63 0 -112 -15 -161 -38l-27 75c59 27 118 46 199 46c78 0 137 -21 176 -60
c38 -38 56 -92 56 -161v-328h-91v77c-37 -47 -97 -89 -189 -89z" />
    <glyph glyph-name="aringacute.alt" horiz-adv-x="701" 
d="M316 870l105 135l90 -43l-121 -92h-74zM355 617c-63 0 -115 49 -115 111c0 61 52 111 115 111s115 -50 115 -111c0 -62 -52 -111 -115 -111zM355 657c39 0 71 32 71 71c0 38 -32 71 -71 71s-71 -33 -71 -71c0 -39 32 -71 71 -71zM335 71c96 0 184 80 184 199v2
c0 118 -88 198 -184 198c-98 0 -179 -75 -179 -198v-2c0 -120 83 -199 179 -199zM316 -12c-129 0 -256 103 -256 281v2c0 178 126 282 256 282c97 0 159 -52 201 -110v98h93v-541h-93v103c-43 -62 -105 -115 -201 -115z" />
    <glyph glyph-name="aringacute.alt2" horiz-adv-x="612" 
d="M268 768l105 135l90 -43l-121 -92h-74zM236 620c0 -38 32 -71 71 -71s71 33 71 71c0 39 -32 71 -71 71s-71 -32 -71 -71zM271 61c95 0 170 56 170 137v47c-37 12 -87 23 -148 23c-95 0 -149 -41 -149 -105v-2c0 -63 58 -100 127 -100zM250 -12c-101 0 -199 58 -199 168v2
c0 115 94 175 229 175c67 0 113 -9 160 -23v18c0 90 -56 138 -153 138c-63 0 -112 -15 -161 -38l-27 75c40 19 81 33 128 41c-22 19 -35 45 -35 76c0 62 52 111 115 111s115 -49 115 -111c0 -33 -16 -62 -41 -81c38 -9 69 -27 93 -50c38 -38 56 -92 56 -161v-328h-91v77
c-37 -47 -97 -89 -189 -89z" />
    <glyph glyph-name="Atilde" unicode="&#xc3;" horiz-adv-x="830" 
d="M495 801c-27 0 -56 12 -84 23c-22 9 -44 17 -60 17c-27 0 -40 -14 -55 -49l-57 16c22 75 51 113 103 113c27 0 56 -12 84 -23c22 -9 44 -17 60 -17c28 0 40 14 55 49l57 -17c-21 -75 -50 -112 -103 -112zM259 274h308l-154 347zM41 0l329 733h90l328 -733h-102l-83 188
h-380l-83 -188h-99z" />
    <glyph glyph-name="atilde" unicode="&#xe3;" horiz-adv-x="612" 
d="M385 619c-26 0 -52 10 -78 21c-24 10 -47 21 -64 21c-28 0 -40 -15 -55 -52l-55 16c21 80 50 115 104 115c26 0 52 -10 78 -21c24 -10 47 -20 64 -20c28 0 40 14 55 51l55 -16c-21 -80 -50 -115 -104 -115zM271 61c95 0 170 56 170 137v47c-37 12 -87 23 -148 23
c-95 0 -149 -41 -149 -105v-2c0 -63 58 -100 127 -100zM250 -12c-101 0 -199 58 -199 168v2c0 115 94 175 229 175c67 0 113 -9 160 -23v18c0 90 -56 138 -153 138c-63 0 -112 -15 -161 -38l-27 75c59 27 118 46 199 46c78 0 137 -21 176 -60c38 -38 56 -92 56 -161v-328
h-91v77c-37 -47 -97 -89 -189 -89z" />
    <glyph glyph-name="atilde.alt" horiz-adv-x="701" 
d="M433 619c-26 0 -52 10 -78 21c-24 10 -47 21 -64 21c-28 0 -40 -15 -55 -52l-55 16c21 80 50 115 104 115c26 0 52 -10 78 -21c24 -10 47 -20 64 -20c28 0 40 14 55 51l55 -16c-21 -80 -50 -115 -104 -115zM335 71c96 0 184 80 184 199v2c0 118 -88 198 -184 198
c-98 0 -179 -75 -179 -198v-2c0 -120 83 -199 179 -199zM316 -12c-129 0 -256 103 -256 281v2c0 178 126 282 256 282c97 0 159 -52 201 -110v98h93v-541h-93v103c-43 -62 -105 -115 -201 -115z" />
    <glyph glyph-name="Cacute" unicode="&#x106;" horiz-adv-x="779" 
d="M394 801l109 139l91 -41l-123 -98h-77zM438 -12c-210 0 -366 165 -366 374v2c0 206 154 376 370 376c133 0 212 -47 284 -114l-63 -71c-61 57 -128 97 -222 97c-154 0 -269 -126 -269 -286v-2c0 -160 115 -288 269 -288c97 0 160 38 227 102l63 -62
c-76 -78 -159 -128 -293 -128z" />
    <glyph glyph-name="cacute" unicode="&#x107;" horiz-adv-x="602" 
d="M293 619l101 156l92 -42l-121 -114h-72zM336 -12c-159 0 -278 127 -278 280v2c0 153 119 283 279 283c102 0 165 -42 216 -96l-60 -64c-42 43 -87 77 -157 77c-104 0 -183 -89 -183 -198v-2c0 -111 80 -199 188 -199c66 0 115 32 158 76l58 -56
c-54 -60 -118 -103 -221 -103z" />
    <glyph glyph-name="Ccaron" unicode="&#x10c;" horiz-adv-x="779" 
d="M595 929l-118 -128h-88l-118 128h85l78 -61l78 61h83zM438 -12c-210 0 -366 165 -366 374v2c0 206 154 376 370 376c133 0 212 -47 284 -114l-63 -71c-61 57 -128 97 -222 97c-154 0 -269 -126 -269 -286v-2c0 -160 115 -288 269 -288c97 0 160 38 227 102l63 -62
c-76 -78 -159 -128 -293 -128z" />
    <glyph glyph-name="ccaron" unicode="&#x10d;" horiz-adv-x="602" 
d="M487 760l-114 -141h-84l-114 141h78l79 -70l79 70h76zM336 -12c-159 0 -278 127 -278 280v2c0 153 119 283 279 283c102 0 165 -42 216 -96l-60 -64c-42 43 -87 77 -157 77c-104 0 -183 -89 -183 -198v-2c0 -111 80 -199 188 -199c66 0 115 32 158 76l58 -56
c-54 -60 -118 -103 -221 -103z" />
    <glyph glyph-name="Ccedilla" unicode="&#xc7;" horiz-adv-x="779" 
d="M388 -164l-87 38l80 118c-181 26 -309 180 -309 370v2c0 206 154 376 370 376c133 0 212 -47 284 -114l-63 -71c-61 57 -128 97 -222 97c-154 0 -269 -126 -269 -286v-2c0 -160 115 -288 269 -288c97 0 160 38 227 102l63 -62c-73 -74 -151 -123 -274 -127z" />
    <glyph glyph-name="ccedilla" unicode="&#xe7;" horiz-adv-x="602" 
d="M285 -164l-87 38l81 120c-130 25 -221 140 -221 274v2c0 153 119 283 279 283c102 0 165 -42 216 -96l-60 -64c-42 43 -87 77 -157 77c-104 0 -183 -89 -183 -198v-2c0 -111 80 -199 188 -199c66 0 115 32 158 76l58 -56c-51 -57 -111 -97 -203 -102z" />
    <glyph glyph-name="Cdotaccent" unicode="&#x10a;" horiz-adv-x="779" 
d="M378 801v101h110v-101h-110zM438 -12c-210 0 -366 165 -366 374v2c0 206 154 376 370 376c133 0 212 -47 284 -114l-63 -71c-61 57 -128 97 -222 97c-154 0 -269 -126 -269 -286v-2c0 -160 115 -288 269 -288c97 0 160 38 227 102l63 -62c-76 -78 -159 -128 -293 -128z
" />
    <glyph glyph-name="cdotaccent" unicode="&#x10b;" horiz-adv-x="602" 
d="M277 619v107h108v-107h-108zM336 -12c-159 0 -278 127 -278 280v2c0 153 119 283 279 283c102 0 165 -42 216 -96l-60 -64c-42 43 -87 77 -157 77c-104 0 -183 -89 -183 -198v-2c0 -111 80 -199 188 -199c66 0 115 32 158 76l58 -56c-54 -60 -118 -103 -221 -103z" />
    <glyph glyph-name="Dcaron" unicode="&#x10e;" horiz-adv-x="821" 
d="M557 919l-118 -128h-88l-118 128h85l78 -61l78 61h83zM104 0v728h259c229 0 387 -157 387 -362v-2c0 -205 -158 -364 -387 -364h-259zM363 640h-163v-552h163c174 0 286 118 286 274v2c0 155 -112 276 -286 276z" />
    <glyph glyph-name="dcaron" unicode="&#x10f;" horiz-adv-x="701" 
d="M674 580l15 179h84v-3l-55 -176h-44zM335 71c96 0 184 80 184 199v2c0 118 -88 198 -184 198c-98 0 -179 -75 -179 -198v-2c0 -120 83 -199 179 -199zM316 -12c-129 0 -256 103 -256 281v2c0 178 126 282 256 282c97 0 159 -52 201 -110v316h93v-759h-93v103
c-43 -62 -105 -115 -201 -115z" />
    <glyph glyph-name="Dcroat" unicode="&#x110;" horiz-adv-x="852" 
d="M135 0v329h-78v74h78v325h259c229 0 387 -157 387 -362v-2c0 -205 -158 -364 -387 -364h-259zM439 329h-207v-241h162c174 0 286 118 286 274v2c0 155 -112 276 -286 276h-162v-237h207v-74z" />
    <glyph glyph-name="dcroat" unicode="&#x111;" horiz-adv-x="701" 
d="M335 71c96 0 184 80 184 199v2c0 118 -88 198 -184 198c-98 0 -179 -75 -179 -198v-2c0 -120 83 -199 179 -199zM337 632v64h180v63h93v-63h72v-64h-72v-632h-93v103c-43 -62 -105 -115 -201 -115c-129 0 -256 103 -256 281v2c0 178 126 282 256 282
c97 0 159 -52 201 -110v189h-180z" />
    <glyph glyph-name="Eacute" unicode="&#xc9;" horiz-adv-x="705" 
d="M332 791l109 139l91 -41l-123 -98h-77zM104 0v728h530v-87h-434v-231h387v-87h-387v-236h439v-87h-535z" />
    <glyph glyph-name="eacute" unicode="&#xe9;" horiz-adv-x="627" 
d="M280 619l101 156l92 -42l-121 -114h-72zM330 -12c-150 0 -272 113 -272 281v2c0 156 110 282 261 282c164 0 255 -130 255 -288c0 -10 -1 -18 -2 -29h-419c12 -108 89 -169 179 -169c71 0 120 28 164 73l57 -51c-53 -61 -121 -101 -223 -101zM152 303h327
c-8 93 -62 171 -161 171c-90 0 -155 -72 -166 -171z" />
    <glyph glyph-name="Ebreve" unicode="&#x114;" horiz-adv-x="705" 
d="M371 789c-90 0 -155 45 -162 125h71c12 -33 40 -53 91 -53s79 20 91 53h71c-7 -80 -72 -125 -162 -125zM104 0v728h530v-87h-434v-231h387v-87h-387v-236h439v-87h-535z" />
    <glyph glyph-name="ebreve" unicode="&#x115;" horiz-adv-x="627" 
d="M318 617c-90 0 -154 50 -161 136h67c12 -38 41 -65 94 -65s82 27 94 65h67c-7 -86 -71 -136 -161 -136zM330 -12c-150 0 -272 113 -272 281v2c0 156 110 282 261 282c164 0 255 -130 255 -288c0 -10 -1 -18 -2 -29h-419c12 -108 89 -169 179 -169c71 0 120 28 164 73
l57 -51c-53 -61 -121 -101 -223 -101zM152 303h327c-8 93 -62 171 -161 171c-90 0 -155 -72 -166 -171z" />
    <glyph glyph-name="Ecaron" unicode="&#x11a;" horiz-adv-x="705" 
d="M533 919l-118 -128h-88l-118 128h85l78 -61l78 61h83zM104 0v728h530v-87h-434v-231h387v-87h-387v-236h439v-87h-535z" />
    <glyph glyph-name="ecaron" unicode="&#x11b;" horiz-adv-x="627" 
d="M474 760l-114 -141h-84l-114 141h78l79 -70l79 70h76zM330 -12c-150 0 -272 113 -272 281v2c0 156 110 282 261 282c164 0 255 -130 255 -288c0 -10 -1 -18 -2 -29h-419c12 -108 89 -169 179 -169c71 0 120 28 164 73l57 -51c-53 -61 -121 -101 -223 -101zM152 303h327
c-8 93 -62 171 -161 171c-90 0 -155 -72 -166 -171z" />
    <glyph glyph-name="Ecircumflex" unicode="&#xca;" horiz-adv-x="705" 
d="M209 791l118 128h88l118 -128h-85l-78 62l-78 -62h-83zM104 0v728h530v-87h-434v-231h387v-87h-387v-236h439v-87h-535z" />
    <glyph glyph-name="ecircumflex" unicode="&#xea;" horiz-adv-x="627" 
d="M162 619l114 141h84l114 -141h-78l-79 70l-79 -70h-76zM330 -12c-150 0 -272 113 -272 281v2c0 156 110 282 261 282c164 0 255 -130 255 -288c0 -10 -1 -18 -2 -29h-419c12 -108 89 -169 179 -169c71 0 120 28 164 73l57 -51c-53 -61 -121 -101 -223 -101zM152 303h327
c-8 93 -62 171 -161 171c-90 0 -155 -72 -166 -171z" />
    <glyph glyph-name="Edieresis" unicode="&#xcb;" horiz-adv-x="705" 
d="M218 791v101h107v-101h-107zM419 791v101h106v-101h-106zM104 0v728h530v-87h-434v-231h387v-87h-387v-236h439v-87h-535z" />
    <glyph glyph-name="edieresis" unicode="&#xeb;" horiz-adv-x="627" 
d="M172 619v106h104v-106h-104zM360 619v106h104v-106h-104zM330 -12c-150 0 -272 113 -272 281v2c0 156 110 282 261 282c164 0 255 -130 255 -288c0 -10 -1 -18 -2 -29h-419c12 -108 89 -169 179 -169c71 0 120 28 164 73l57 -51c-53 -61 -121 -101 -223 -101zM152 303
h327c-8 93 -62 171 -161 171c-90 0 -155 -72 -166 -171z" />
    <glyph glyph-name="Edotaccent" unicode="&#x116;" horiz-adv-x="705" 
d="M316 791v101h110v-101h-110zM104 0v728h530v-87h-434v-231h387v-87h-387v-236h439v-87h-535z" />
    <glyph glyph-name="edotaccent" unicode="&#x117;" horiz-adv-x="627" 
d="M264 619v107h108v-107h-108zM330 -12c-150 0 -272 113 -272 281v2c0 156 110 282 261 282c164 0 255 -130 255 -288c0 -10 -1 -18 -2 -29h-419c12 -108 89 -169 179 -169c71 0 120 28 164 73l57 -51c-53 -61 -121 -101 -223 -101zM152 303h327c-8 93 -62 171 -161 171
c-90 0 -155 -72 -166 -171z" />
    <glyph glyph-name="Egrave" unicode="&#xc8;" horiz-adv-x="705" 
d="M410 791h-76l-124 98l92 41zM104 0v728h530v-87h-434v-231h387v-87h-387v-236h439v-87h-535z" />
    <glyph glyph-name="egrave" unicode="&#xe8;" horiz-adv-x="627" 
d="M284 619l-121 114l92 42l101 -156h-72zM330 -12c-150 0 -272 113 -272 281v2c0 156 110 282 261 282c164 0 255 -130 255 -288c0 -10 -1 -18 -2 -29h-419c12 -108 89 -169 179 -169c71 0 120 28 164 73l57 -51c-53 -61 -121 -101 -223 -101zM152 303h327
c-8 93 -62 171 -161 171c-90 0 -155 -72 -166 -171z" />
    <glyph glyph-name="Emacron" unicode="&#x112;" horiz-adv-x="705" 
d="M195 810v75h352v-75h-352zM104 0v728h530v-87h-434v-231h387v-87h-387v-236h439v-87h-535z" />
    <glyph glyph-name="emacron" unicode="&#x113;" horiz-adv-x="627" 
d="M151 637v73h334v-73h-334zM330 -12c-150 0 -272 113 -272 281v2c0 156 110 282 261 282c164 0 255 -130 255 -288c0 -10 -1 -18 -2 -29h-419c12 -108 89 -169 179 -169c71 0 120 28 164 73l57 -51c-53 -61 -121 -101 -223 -101zM152 303h327c-8 93 -62 171 -161 171
c-90 0 -155 -72 -166 -171z" />
    <glyph glyph-name="Eogonek" unicode="&#x118;" horiz-adv-x="705" 
d="M104 0v728h530v-87h-434v-231h387v-87h-387v-236h439v-87h-33c-31 -28 -44 -49 -44 -73c0 -29 23 -45 76 -47v-51c-6 0 -13 -1 -18 -1c-88 2 -135 37 -135 86c0 32 17 58 47 86h-428z" />
    <glyph glyph-name="eogonek" unicode="&#x119;" horiz-adv-x="627" 
d="M496 140l57 -51c-20 -22 -34 -35 -57 -55c-52 -45 -68 -73 -68 -101c0 -35 24 -50 77 -53v-51c-7 0 -13 -1 -19 -1c-88 2 -134 36 -134 87c0 27 13 52 37 78c-17 -3 -38 -5 -59 -5c-150 0 -272 113 -272 281v2c0 156 110 282 261 282c164 0 255 -130 255 -288
c0 -10 -1 -18 -2 -29h-419c12 -108 89 -169 179 -169c71 0 120 28 164 73zM152 303h327c-8 93 -62 171 -161 171c-90 0 -155 -72 -166 -171z" />
    <glyph glyph-name="Gbreve" unicode="&#x11e;" horiz-adv-x="823" 
d="M432 799c-90 0 -155 45 -162 125h71c12 -33 40 -53 91 -53s79 20 91 53h71c-7 -80 -72 -125 -162 -125zM444 -12c-228 0 -372 165 -372 374v2c0 201 150 376 368 376c124 0 200 -35 274 -97l-61 -73c-57 49 -117 82 -217 82c-152 0 -264 -131 -264 -286v-2
c0 -166 107 -290 276 -290c78 0 151 29 199 68v167h-210v85h303v-295c-69 -60 -171 -111 -296 -111z" />
    <glyph glyph-name="gbreve" unicode="&#x11f;" horiz-adv-x="701" 
d="M355 617c-90 0 -154 50 -161 136h67c12 -38 41 -65 94 -65s82 27 94 65h67c-7 -86 -71 -136 -161 -136zM333 124c97 0 186 70 186 172v2c0 104 -89 173 -186 173s-177 -67 -177 -172v-2c0 -103 81 -173 177 -173zM330 -168c-89 0 -173 24 -245 71l40 73
c61 -42 128 -65 204 -65c116 0 188 62 188 184v57c-46 -62 -109 -110 -205 -110c-129 0 -252 97 -252 254v2c0 158 124 255 252 255c98 0 161 -48 205 -105v93h93v-441c0 -86 -24 -152 -69 -196c-48 -48 -121 -72 -211 -72z" />
    <glyph glyph-name="Gcommaaccent" unicode="&#x122;" horiz-adv-x="823" 
d="M444 -12c-228 0 -372 165 -372 374v2c0 201 150 376 368 376c124 0 200 -35 274 -97l-61 -73c-57 49 -117 82 -217 82c-152 0 -264 -131 -264 -286v-2c0 -166 107 -290 276 -290c78 0 151 29 199 68v167h-210v85h303v-295c-69 -60 -171 -111 -296 -111zM368 -264l-7 34
c47 8 69 28 66 65h-46v92h102v-79c0 -71 -39 -105 -115 -112z" />
    <glyph glyph-name="gcommaaccent" unicode="&#x123;" horiz-adv-x="701" 
d="M418 810l7 -34c-48 -8 -69 -28 -66 -65h46v-92h-103v79c0 71 39 106 116 112zM333 124c97 0 186 70 186 172v2c0 104 -89 173 -186 173s-177 -67 -177 -172v-2c0 -103 81 -173 177 -173zM330 -168c-89 0 -173 24 -245 71l40 73c61 -42 128 -65 204 -65
c116 0 188 62 188 184v57c-46 -62 -109 -110 -205 -110c-129 0 -252 97 -252 254v2c0 158 124 255 252 255c98 0 161 -48 205 -105v93h93v-441c0 -86 -24 -152 -69 -196c-48 -48 -121 -72 -211 -72z" />
    <glyph glyph-name="Gdotaccent" unicode="&#x120;" horiz-adv-x="823" 
d="M377 801v101h110v-101h-110zM444 -12c-228 0 -372 165 -372 374v2c0 201 150 376 368 376c124 0 200 -35 274 -97l-61 -73c-57 49 -117 82 -217 82c-152 0 -264 -131 -264 -286v-2c0 -166 107 -290 276 -290c78 0 151 29 199 68v167h-210v85h303v-295
c-69 -60 -171 -111 -296 -111z" />
    <glyph glyph-name="gdotaccent" unicode="&#x121;" horiz-adv-x="701" 
d="M301 619v107h108v-107h-108zM333 124c97 0 186 70 186 172v2c0 104 -89 173 -186 173s-177 -67 -177 -172v-2c0 -103 81 -173 177 -173zM330 -168c-89 0 -173 24 -245 71l40 73c61 -42 128 -65 204 -65c116 0 188 62 188 184v57c-46 -62 -109 -110 -205 -110
c-129 0 -252 97 -252 254v2c0 158 124 255 252 255c98 0 161 -48 205 -105v93h93v-441c0 -86 -24 -152 -69 -196c-48 -48 -121 -72 -211 -72z" />
    <glyph glyph-name="Hbar" unicode="&#x126;" horiz-adv-x="836" 
d="M219 407h398v124h-398v-124zM47 531v71h76v126h96v-126h398v126h96v-126h76v-71h-76v-531h-96v318h-398v-318h-96v531h-76z" />
    <glyph glyph-name="hbar" unicode="&#x127;" horiz-adv-x="650" 
d="M364 632h-180v-182c36 56 90 103 180 103c129 0 203 -87 203 -214v-339h-94v313c0 96 -51 154 -139 154c-86 0 -150 -62 -150 -159v-308h-94v632h-72v64h72v63h94v-63h180v-64z" />
    <glyph glyph-name="Iacute" unicode="&#xcd;" horiz-adv-x="319" 
d="M120 791l109 139l91 -41l-123 -98h-77zM111 0v728h97v-728h-97z" />
    <glyph glyph-name="iacute" unicode="&#xed;" horiz-adv-x="289" 
d="M107 619l101 156l92 -42l-121 -114h-72zM98 0v541h93v-541h-93z" />
    <glyph glyph-name="Ibreve" unicode="&#x12c;" horiz-adv-x="319" 
d="M159 789c-90 0 -155 45 -162 125h71c12 -33 40 -53 91 -53s79 20 91 53h71c-7 -80 -72 -125 -162 -125zM111 0v728h97v-728h-97z" />
    <glyph glyph-name="ibreve" unicode="&#x12d;" horiz-adv-x="289" 
d="M144 617c-90 0 -154 50 -161 136h67c12 -38 41 -65 94 -65s82 27 94 65h67c-7 -86 -71 -136 -161 -136zM98 0v541h93v-541h-93z" />
    <glyph glyph-name="Icircumflex" unicode="&#xce;" horiz-adv-x="319" 
d="M-3 791l118 128h88l118 -128h-85l-78 62l-78 -62h-83zM111 0v728h97v-728h-97z" />
    <glyph glyph-name="icircumflex" unicode="&#xee;" horiz-adv-x="289" 
d="M-12 619l114 141h84l114 -141h-78l-79 70l-79 -70h-76zM98 0v541h93v-541h-93z" />
    <glyph glyph-name="Idieresis" unicode="&#xcf;" horiz-adv-x="319" 
d="M6 791v101h107v-101h-107zM207 791v101h106v-101h-106zM111 0v728h97v-728h-97z" />
    <glyph glyph-name="idieresis" unicode="&#xef;" horiz-adv-x="289" 
d="M-2 619v106h104v-106h-104zM186 619v106h104v-106h-104zM98 0v541h93v-541h-93z" />
    <glyph glyph-name="Idotaccent" unicode="&#x130;" horiz-adv-x="319" 
d="M104 791v101h110v-101h-110zM111 0v728h97v-728h-97z" />
    <glyph glyph-name="i.dot" horiz-adv-x="289" 
d="M92 649v98h105v-98h-105zM98 0v541h93v-541h-93z" />
    <glyph glyph-name="dotlessi" unicode="&#x131;" horiz-adv-x="289" 
d="M98 0v541h93v-541h-93z" />
    <glyph glyph-name="Igrave" unicode="&#xcc;" horiz-adv-x="319" 
d="M198 791h-76l-124 98l92 41zM111 0v728h97v-728h-97z" />
    <glyph glyph-name="igrave" unicode="&#xec;" horiz-adv-x="289" 
d="M110 619l-121 114l92 42l101 -156h-72zM98 0v541h93v-541h-93z" />
    <glyph glyph-name="Imacron" unicode="&#x12a;" horiz-adv-x="319" 
d="M-17 810v75h352v-75h-352zM111 0v728h97v-728h-97z" />
    <glyph glyph-name="imacron" unicode="&#x12b;" horiz-adv-x="289" 
d="M-23 637v73h334v-73h-334zM98 0v541h93v-541h-93z" />
    <glyph glyph-name="Iogonek" unicode="&#x12e;" horiz-adv-x="319" 
d="M111 0v728h97v-728h-16c-31 -28 -44 -49 -44 -73c0 -29 23 -45 76 -47v-51c-6 0 -13 -1 -18 -1c-88 2 -135 37 -135 86c0 32 17 58 47 86h-7z" />
    <glyph glyph-name="iogonek" unicode="&#x12f;" horiz-adv-x="289" 
d="M92 649v98h105v-98h-105zM98 0v541h93v-541h-14c-31 -28 -44 -49 -44 -73c0 -29 23 -45 76 -47v-51c-6 0 -13 -1 -18 -1c-88 2 -135 37 -135 86c0 32 17 58 47 86h-5z" />
    <glyph glyph-name="Kcommaaccent" unicode="&#x136;" horiz-adv-x="758" 
d="M104 0v728h96v-414l396 414h123l-310 -316l323 -412h-119l-270 345l-143 -145v-200h-96zM318 -257l-7 34c47 8 69 28 66 65h-46v92h102v-79c0 -71 -39 -105 -115 -112z" />
    <glyph glyph-name="kcommaaccent" unicode="&#x137;" horiz-adv-x="604" 
d="M90 0v759h94v-503l271 285h117l-224 -229l231 -312h-112l-183 247l-100 -102v-145h-94zM252 -262l-7 34c47 8 69 28 66 65h-46v92h102v-79c0 -71 -39 -105 -115 -112z" />
    <glyph glyph-name="Lacute" unicode="&#x139;" horiz-adv-x="649" 
d="M126 791l109 139l91 -41l-123 -98h-77zM104 0v728h96v-640h402v-88h-498z" />
    <glyph glyph-name="lacute" unicode="&#x13a;" horiz-adv-x="289" 
d="M107 812l109 139l91 -41l-123 -98h-77zM98 0v759h93v-759h-93z" />
    <glyph glyph-name="Lcaron" unicode="&#x13d;" horiz-adv-x="649" 
d="M292 549l15 179h84v-3l-55 -176h-44zM104 0v728h96v-640h402v-88h-498z" />
    <glyph glyph-name="lcaron" unicode="&#x13e;" horiz-adv-x="289" 
d="M98 0v759h93v-759h-93zM255 580l15 179h84v-3l-55 -176h-44z" />
    <glyph glyph-name="Lcommaaccent" unicode="&#x13b;" horiz-adv-x="649" 
d="M104 0v728h96v-640h402v-88h-498zM285 -262l-7 34c47 8 69 28 66 65h-46v92h102v-79c0 -71 -39 -105 -115 -112z" />
    <glyph glyph-name="lcommaaccent" unicode="&#x13c;" horiz-adv-x="289" 
d="M98 0v759h93v-759h-93zM80 -262l-7 34c47 8 69 28 66 65h-46v92h102v-79c0 -71 -39 -105 -115 -112z" />
    <glyph glyph-name="Ldot" unicode="&#x13f;" horiz-adv-x="649" 
d="M104 0v728h96v-640h402v-88h-498zM436 332v107h105v-107h-105z" />
    <glyph glyph-name="ldot" unicode="&#x140;" horiz-adv-x="364" 
d="M98 0v759h93v-759h-93zM276 334v103h94v-103h-94z" />
    <glyph glyph-name="Lslash" unicode="&#x141;" horiz-adv-x="680" 
d="M410 412l-180 -83v-241h403v-88h-498v285l-78 -35v93l78 35v350h95v-307l180 84v-93z" />
    <glyph glyph-name="lslash" unicode="&#x142;" horiz-adv-x="351" 
d="M301 405l-79 -42v-363h-93v314l-79 -42v93l79 41v353h93v-304l79 42v-92z" />
    <glyph glyph-name="Nacute" unicode="&#x143;" horiz-adv-x="830" 
d="M376 788l109 139l91 -41l-123 -98h-77zM104 0v728h89l438 -559v559h95v-728h-79l-449 573v-573h-94z" />
    <glyph glyph-name="nacute" unicode="&#x144;" horiz-adv-x="650" 
d="M291 619l101 156l92 -42l-121 -114h-72zM90 0v541h94v-91c36 56 90 103 180 103c129 0 203 -87 203 -214v-339h-94v313c0 96 -51 154 -139 154c-86 0 -150 -62 -150 -159v-308h-94z" />
    <glyph glyph-name="Ncaron" unicode="&#x147;" horiz-adv-x="830" 
d="M577 916l-118 -128h-88l-118 128h85l78 -61l78 61h83zM104 0v728h89l438 -559v559h95v-728h-79l-449 573v-573h-94z" />
    <glyph glyph-name="ncaron" unicode="&#x148;" horiz-adv-x="650" 
d="M484 760l-114 -141h-84l-114 141h78l79 -70l79 70h76zM90 0v541h94v-91c36 56 90 103 180 103c129 0 203 -87 203 -214v-339h-94v313c0 96 -51 154 -139 154c-86 0 -150 -62 -150 -159v-308h-94z" />
    <glyph glyph-name="Ncommaaccent" unicode="&#x145;" horiz-adv-x="830" 
d="M104 0v728h89l438 -559v559h95v-728h-79l-449 573v-573h-94zM350 -257l-7 34c47 8 69 28 66 65h-46v92h102v-79c0 -71 -39 -105 -115 -112z" />
    <glyph glyph-name="ncommaaccent" unicode="&#x146;" horiz-adv-x="650" 
d="M90 0v541h94v-91c36 56 90 103 180 103c129 0 203 -87 203 -214v-339h-94v313c0 96 -51 154 -139 154c-86 0 -150 -62 -150 -159v-308h-94zM264 -262l-7 34c47 8 69 28 66 65h-46v92h102v-79c0 -71 -39 -105 -115 -112z" />
    <glyph glyph-name="Ntilde" unicode="&#xd1;" horiz-adv-x="830" 
d="M495 788c-27 0 -56 12 -84 23c-22 9 -44 17 -60 17c-27 0 -40 -14 -55 -49l-57 16c22 75 51 113 103 113c27 0 56 -12 84 -23c22 -9 44 -17 60 -17c28 0 40 14 55 49l57 -17c-21 -75 -50 -112 -103 -112zM104 0v728h89l438 -559v559h95v-728h-79l-449 573v-573h-94z" />
    <glyph glyph-name="ntilde" unicode="&#xf1;" horiz-adv-x="650" 
d="M406 619c-26 0 -52 10 -78 21c-24 10 -47 21 -64 21c-28 0 -40 -15 -55 -52l-55 16c21 80 50 115 104 115c26 0 52 -10 78 -21c24 -10 47 -20 64 -20c28 0 40 14 55 51l55 -16c-21 -80 -50 -115 -104 -115zM90 0v541h94v-91c36 56 90 103 180 103c129 0 203 -87 203 -214
v-339h-94v313c0 96 -51 154 -139 154c-86 0 -150 -62 -150 -159v-308h-94z" />
    <glyph glyph-name="Oacute" unicode="&#xd3;" horiz-adv-x="892" 
d="M407 801l109 139l91 -41l-123 -98h-77zM445 -12c-222 0 -373 172 -373 374v2c0 202 153 376 375 376s373 -172 373 -374v-2c0 -202 -153 -376 -375 -376zM447 76c160 0 273 128 273 286v2c0 158 -116 288 -275 288c-160 0 -273 -128 -273 -286v-2
c0 -158 116 -288 275 -288z" />
    <glyph glyph-name="oacute" unicode="&#xf3;" horiz-adv-x="684" 
d="M304 619l101 156l92 -42l-121 -114h-72zM341 -12c-164 0 -283 127 -283 280v2c0 153 121 283 285 283c163 0 283 -127 283 -281v-2c0 -153 -121 -282 -285 -282zM343 71c112 0 187 89 187 197v2c0 110 -81 200 -189 200c-112 0 -188 -90 -188 -198v-2
c0 -109 81 -199 190 -199z" />
    <glyph glyph-name="Obreve" unicode="&#x14e;" horiz-adv-x="892" 
d="M446 799c-90 0 -155 45 -162 125h71c12 -33 40 -53 91 -53s79 20 91 53h71c-7 -80 -72 -125 -162 -125zM445 -12c-222 0 -373 172 -373 374v2c0 202 153 376 375 376s373 -172 373 -374v-2c0 -202 -153 -376 -375 -376zM447 76c160 0 273 128 273 286v2
c0 158 -116 288 -275 288c-160 0 -273 -128 -273 -286v-2c0 -158 116 -288 275 -288z" />
    <glyph glyph-name="obreve" unicode="&#x14f;" horiz-adv-x="684" 
d="M342 617c-90 0 -154 50 -161 136h67c12 -38 41 -65 94 -65s82 27 94 65h67c-7 -86 -71 -136 -161 -136zM341 -12c-164 0 -283 127 -283 280v2c0 153 121 283 285 283c163 0 283 -127 283 -281v-2c0 -153 -121 -282 -285 -282zM343 71c112 0 187 89 187 197v2
c0 110 -81 200 -189 200c-112 0 -188 -90 -188 -198v-2c0 -109 81 -199 190 -199z" />
    <glyph glyph-name="Ocircumflex" unicode="&#xd4;" horiz-adv-x="892" 
d="M284 801l118 128h88l118 -128h-85l-78 62l-78 -62h-83zM445 -12c-222 0 -373 172 -373 374v2c0 202 153 376 375 376s373 -172 373 -374v-2c0 -202 -153 -376 -375 -376zM447 76c160 0 273 128 273 286v2c0 158 -116 288 -275 288c-160 0 -273 -128 -273 -286v-2
c0 -158 116 -288 275 -288z" />
    <glyph glyph-name="ocircumflex" unicode="&#xf4;" horiz-adv-x="684" 
d="M186 619l114 141h84l114 -141h-78l-79 70l-79 -70h-76zM341 -12c-164 0 -283 127 -283 280v2c0 153 121 283 285 283c163 0 283 -127 283 -281v-2c0 -153 -121 -282 -285 -282zM343 71c112 0 187 89 187 197v2c0 110 -81 200 -189 200c-112 0 -188 -90 -188 -198v-2
c0 -109 81 -199 190 -199z" />
    <glyph glyph-name="Odieresis" unicode="&#xd6;" horiz-adv-x="892" 
d="M293 801v101h107v-101h-107zM494 801v101h106v-101h-106zM445 -12c-222 0 -373 172 -373 374v2c0 202 153 376 375 376s373 -172 373 -374v-2c0 -202 -153 -376 -375 -376zM447 76c160 0 273 128 273 286v2c0 158 -116 288 -275 288c-160 0 -273 -128 -273 -286v-2
c0 -158 116 -288 275 -288z" />
    <glyph glyph-name="odieresis" unicode="&#xf6;" horiz-adv-x="684" 
d="M196 619v106h104v-106h-104zM384 619v106h104v-106h-104zM341 -12c-164 0 -283 127 -283 280v2c0 153 121 283 285 283c163 0 283 -127 283 -281v-2c0 -153 -121 -282 -285 -282zM343 71c112 0 187 89 187 197v2c0 110 -81 200 -189 200c-112 0 -188 -90 -188 -198v-2
c0 -109 81 -199 190 -199z" />
    <glyph glyph-name="Ograve" unicode="&#xd2;" horiz-adv-x="892" 
d="M485 801h-76l-124 98l92 41zM445 -12c-222 0 -373 172 -373 374v2c0 202 153 376 375 376s373 -172 373 -374v-2c0 -202 -153 -376 -375 -376zM447 76c160 0 273 128 273 286v2c0 158 -116 288 -275 288c-160 0 -273 -128 -273 -286v-2c0 -158 116 -288 275 -288z" />
    <glyph glyph-name="ograve" unicode="&#xf2;" horiz-adv-x="684" 
d="M307 619l-121 114l92 42l101 -156h-72zM341 -12c-164 0 -283 127 -283 280v2c0 153 121 283 285 283c163 0 283 -127 283 -281v-2c0 -153 -121 -282 -285 -282zM343 71c112 0 187 89 187 197v2c0 110 -81 200 -189 200c-112 0 -188 -90 -188 -198v-2
c0 -109 81 -199 190 -199z" />
    <glyph glyph-name="Ohungarumlaut" unicode="&#x150;" horiz-adv-x="892" 
d="M482 801l108 139l89 -41l-123 -98h-74zM315 801l109 139l89 -41l-123 -98h-75zM445 -12c-222 0 -373 172 -373 374v2c0 202 153 376 375 376s373 -172 373 -374v-2c0 -202 -153 -376 -375 -376zM447 76c160 0 273 128 273 286v2c0 158 -116 288 -275 288
c-160 0 -273 -128 -273 -286v-2c0 -158 116 -288 275 -288z" />
    <glyph glyph-name="ohungarumlaut" unicode="&#x151;" horiz-adv-x="684" 
d="M216 619l100 156l88 -41l-117 -115h-71zM377 619l102 156l88 -41l-118 -115h-72zM341 -12c-164 0 -283 127 -283 280v2c0 153 121 283 285 283c163 0 283 -127 283 -281v-2c0 -153 -121 -282 -285 -282zM343 71c112 0 187 89 187 197v2c0 110 -81 200 -189 200
c-112 0 -188 -90 -188 -198v-2c0 -109 81 -199 190 -199z" />
    <glyph glyph-name="Omacron" unicode="&#x14c;" horiz-adv-x="892" 
d="M270 820v75h352v-75h-352zM445 -12c-222 0 -373 172 -373 374v2c0 202 153 376 375 376s373 -172 373 -374v-2c0 -202 -153 -376 -375 -376zM447 76c160 0 273 128 273 286v2c0 158 -116 288 -275 288c-160 0 -273 -128 -273 -286v-2c0 -158 116 -288 275 -288z" />
    <glyph glyph-name="omacron" unicode="&#x14d;" horiz-adv-x="684" 
d="M175 637v73h334v-73h-334zM341 -12c-164 0 -283 127 -283 280v2c0 153 121 283 285 283c163 0 283 -127 283 -281v-2c0 -153 -121 -282 -285 -282zM343 71c112 0 187 89 187 197v2c0 110 -81 200 -189 200c-112 0 -188 -90 -188 -198v-2c0 -109 81 -199 190 -199z" />
    <glyph glyph-name="Oslash" unicode="&#xd8;" horiz-adv-x="892" 
d="M730 733h99l-103 -114c60 -68 94 -157 94 -253v-2c0 -202 -153 -376 -375 -376c-88 0 -164 27 -224 71l-59 -64h-99l103 114c-60 67 -94 157 -94 253v2c0 202 153 376 375 376c87 0 163 -27 224 -72zM170 365c0 -71 22 -135 61 -186l379 419c-45 35 -102 56 -165 56
c-161 0 -275 -129 -275 -288v-1zM447 74c161 0 275 129 275 288v1c0 70 -23 135 -61 185l-380 -419c45 -34 102 -55 166 -55z" />
    <glyph glyph-name="oslash" unicode="&#xf8;" horiz-adv-x="684" 
d="M551 548h91l-84 -92c43 -49 68 -114 68 -184v-2c0 -153 -121 -282 -285 -282c-64 0 -120 19 -166 51l-42 -44h-91l83 90c-43 49 -67 113 -67 183v2c0 153 121 283 285 283c63 0 119 -19 165 -52zM151 271c0 -45 13 -87 36 -121l265 286c-31 23 -69 36 -111 36
c-114 0 -190 -91 -190 -200v-1zM343 68c113 0 190 91 190 200v1c0 45 -14 87 -37 121l-264 -287c31 -22 69 -35 111 -35z" />
    <glyph glyph-name="Oslashacute" unicode="&#x1fe;" horiz-adv-x="892" 
d="M407 801l109 139l91 -41l-123 -98h-77zM730 733h99l-103 -114c60 -68 94 -157 94 -253v-2c0 -202 -153 -376 -375 -376c-88 0 -164 27 -224 71l-59 -64h-99l103 114c-60 67 -94 157 -94 253v2c0 202 153 376 375 376c87 0 163 -27 224 -72zM170 365
c0 -71 22 -135 61 -186l379 419c-45 35 -102 56 -165 56c-161 0 -275 -129 -275 -288v-1zM447 74c161 0 275 129 275 288v1c0 70 -23 135 -61 185l-380 -419c45 -34 102 -55 166 -55z" />
    <glyph glyph-name="oslashacute" unicode="&#x1ff;" horiz-adv-x="684" 
d="M304 619l101 156l92 -42l-121 -114h-72zM551 548h91l-84 -92c43 -49 68 -114 68 -184v-2c0 -153 -121 -282 -285 -282c-64 0 -120 19 -166 51l-42 -44h-91l83 90c-43 49 -67 113 -67 183v2c0 153 121 283 285 283c63 0 119 -19 165 -52zM151 271c0 -45 13 -87 36 -121
l265 286c-31 23 -69 36 -111 36c-114 0 -190 -91 -190 -200v-1zM343 68c113 0 190 91 190 200v1c0 45 -14 87 -37 121l-264 -287c31 -22 69 -35 111 -35z" />
    <glyph glyph-name="Otilde" unicode="&#xd5;" horiz-adv-x="892" 
d="M526 801c-27 0 -56 12 -84 23c-22 9 -44 17 -60 17c-27 0 -40 -14 -55 -49l-57 16c22 75 51 113 103 113c27 0 56 -12 84 -23c22 -9 44 -17 60 -17c28 0 40 14 55 49l57 -17c-21 -75 -50 -112 -103 -112zM445 -12c-222 0 -373 172 -373 374v2c0 202 153 376 375 376
s373 -172 373 -374v-2c0 -202 -153 -376 -375 -376zM447 76c160 0 273 128 273 286v2c0 158 -116 288 -275 288c-160 0 -273 -128 -273 -286v-2c0 -158 116 -288 275 -288z" />
    <glyph glyph-name="otilde" unicode="&#xf5;" horiz-adv-x="684" 
d="M420 619c-26 0 -52 10 -78 21c-24 10 -47 21 -64 21c-28 0 -40 -15 -55 -52l-55 16c21 80 50 115 104 115c26 0 52 -10 78 -21c24 -10 47 -20 64 -20c28 0 40 14 55 51l55 -16c-21 -80 -50 -115 -104 -115zM341 -12c-164 0 -283 127 -283 280v2c0 153 121 283 285 283
c163 0 283 -127 283 -281v-2c0 -153 -121 -282 -285 -282zM343 71c112 0 187 89 187 197v2c0 110 -81 200 -189 200c-112 0 -188 -90 -188 -198v-2c0 -109 81 -199 190 -199z" />
    <glyph glyph-name="Racute" unicode="&#x154;" horiz-adv-x="760" 
d="M331 791l109 139l91 -41l-123 -98h-77zM200 360h213c104 0 176 54 176 141v2c0 86 -65 137 -176 137h-213v-280zM104 0v728h316c91 0 163 -27 208 -73c37 -36 58 -89 58 -147v-2c0 -120 -79 -192 -190 -215l215 -291h-116l-201 274h-194v-274h-96z" />
    <glyph glyph-name="racute" unicode="&#x155;" horiz-adv-x="431" 
d="M193 619l101 156l92 -42l-121 -114h-72zM90 0v541h94v-135c38 87 112 149 212 144v-99h-6c-116 0 -206 -81 -206 -238v-213h-94z" />
    <glyph glyph-name="Rcaron" unicode="&#x158;" horiz-adv-x="760" 
d="M532 919l-118 -128h-88l-118 128h85l78 -61l78 61h83zM200 360h213c104 0 176 54 176 141v2c0 86 -65 137 -176 137h-213v-280zM104 0v728h316c91 0 163 -27 208 -73c37 -36 58 -89 58 -147v-2c0 -120 -79 -192 -190 -215l215 -291h-116l-201 274h-194v-274h-96z" />
    <glyph glyph-name="rcaron" unicode="&#x159;" horiz-adv-x="431" 
d="M387 760l-114 -141h-84l-114 141h78l79 -70l79 70h76zM90 0v541h94v-135c38 87 112 149 212 144v-99h-6c-116 0 -206 -81 -206 -238v-213h-94z" />
    <glyph glyph-name="Rcommaaccent" unicode="&#x156;" horiz-adv-x="760" 
d="M200 360h213c104 0 176 54 176 141v2c0 86 -65 137 -176 137h-213v-280zM104 0v728h316c91 0 163 -27 208 -73c37 -36 58 -89 58 -147v-2c0 -120 -79 -192 -190 -215l215 -291h-116l-201 274h-194v-274h-96zM305 -257l-7 34c47 8 69 28 66 65h-46v92h102v-79
c0 -71 -39 -105 -115 -112z" />
    <glyph glyph-name="rcommaaccent" unicode="&#x157;" horiz-adv-x="431" 
d="M90 0v541h94v-135c38 87 112 149 212 144v-99h-6c-116 0 -206 -81 -206 -238v-213h-94zM80 -262l-7 34c47 8 69 28 66 65h-46v92h102v-79c0 -71 -39 -105 -115 -112z" />
    <glyph glyph-name="Sacute" unicode="&#x15a;" horiz-adv-x="674" 
d="M304 801l109 139l91 -41l-123 -98h-77zM355 -10c-114 0 -212 38 -299 116l59 70c74 -66 146 -100 243 -100c92 0 153 47 153 114v2c0 62 -34 97 -182 130c-164 36 -244 88 -244 212v2c0 118 102 202 242 202c106 0 184 -30 258 -90l-54 -74c-67 54 -133 78 -206 78
c-89 0 -144 -48 -144 -107v-2c0 -66 36 -100 190 -134c160 -36 236 -93 236 -208v-2c0 -128 -105 -209 -252 -209z" />
    <glyph glyph-name="sacute" unicode="&#x15b;" horiz-adv-x="527" 
d="M229 619l101 156l92 -42l-121 -114h-72zM271 -10c-77 0 -162 29 -226 79l46 66c59 -44 123 -68 184 -68s103 30 103 77v2c0 51 -61 70 -130 90c-83 24 -176 54 -176 154v2c0 97 80 159 187 159c66 0 140 -24 196 -61l-41 -69c-51 32 -108 52 -158 52
c-59 0 -96 -30 -96 -71v-2c0 -48 65 -67 134 -88c83 -25 173 -58 173 -155v-2c0 -107 -86 -165 -196 -165z" />
    <glyph glyph-name="Scaron" unicode="&#x160;" horiz-adv-x="674" 
d="M505 929l-118 -128h-88l-118 128h85l78 -61l78 61h83zM355 -10c-114 0 -212 38 -299 116l59 70c74 -66 146 -100 243 -100c92 0 153 47 153 114v2c0 62 -34 97 -182 130c-164 36 -244 88 -244 212v2c0 118 102 202 242 202c106 0 184 -30 258 -90l-54 -74
c-67 54 -133 78 -206 78c-89 0 -144 -48 -144 -107v-2c0 -66 36 -100 190 -134c160 -36 236 -93 236 -208v-2c0 -128 -105 -209 -252 -209z" />
    <glyph glyph-name="scaron" unicode="&#x161;" horiz-adv-x="527" 
d="M423 760l-114 -141h-84l-114 141h78l79 -70l79 70h76zM271 -10c-77 0 -162 29 -226 79l46 66c59 -44 123 -68 184 -68s103 30 103 77v2c0 51 -61 70 -130 90c-83 24 -176 54 -176 154v2c0 97 80 159 187 159c66 0 140 -24 196 -61l-41 -69c-51 32 -108 52 -158 52
c-59 0 -96 -30 -96 -71v-2c0 -48 65 -67 134 -88c83 -25 173 -58 173 -155v-2c0 -107 -86 -165 -196 -165z" />
    <glyph glyph-name="Scedilla" unicode="&#x15e;" horiz-adv-x="674" 
d="M314 -164l-87 38l80 119c-94 9 -177 46 -251 113l59 70c74 -66 146 -100 243 -100c92 0 153 47 153 114v2c0 62 -34 97 -182 130c-164 36 -244 88 -244 212v2c0 118 102 202 242 202c106 0 184 -30 258 -90l-54 -74c-67 54 -133 78 -206 78c-89 0 -144 -48 -144 -107v-2
c0 -66 36 -100 190 -134c160 -36 236 -93 236 -208v-2c0 -120 -92 -198 -223 -208z" />
    <glyph glyph-name="scedilla" unicode="&#x15f;" horiz-adv-x="527" 
d="M226 -164l-87 38l81 120c-62 9 -125 35 -175 75l46 66c59 -44 123 -68 184 -68s103 30 103 77v2c0 51 -61 70 -130 90c-83 24 -176 54 -176 154v2c0 97 80 159 187 159c66 0 140 -24 196 -61l-41 -69c-51 32 -108 52 -158 52c-59 0 -96 -30 -96 -71v-2
c0 -48 65 -67 134 -88c83 -25 173 -58 173 -155v-2c0 -99 -73 -156 -171 -164z" />
    <glyph glyph-name="Scommaaccent" unicode="&#x218;" horiz-adv-x="674" 
d="M355 -10c-114 0 -212 38 -299 116l59 70c74 -66 146 -100 243 -100c92 0 153 47 153 114v2c0 62 -34 97 -182 130c-164 36 -244 88 -244 212v2c0 118 102 202 242 202c106 0 184 -30 258 -90l-54 -74c-67 54 -133 78 -206 78c-89 0 -144 -48 -144 -107v-2
c0 -66 36 -100 190 -134c160 -36 236 -93 236 -208v-2c0 -128 -105 -209 -252 -209zM279 -264l-7 34c47 8 69 28 66 65h-46v92h102v-79c0 -71 -39 -105 -115 -112z" />
    <glyph glyph-name="scommaaccent" unicode="&#x219;" horiz-adv-x="527" 
d="M271 -10c-77 0 -162 29 -226 79l46 66c59 -44 123 -68 184 -68s103 30 103 77v2c0 51 -61 70 -130 90c-83 24 -176 54 -176 154v2c0 97 80 159 187 159c66 0 140 -24 196 -61l-41 -69c-51 32 -108 52 -158 52c-59 0 -96 -30 -96 -71v-2c0 -48 65 -67 134 -88
c83 -25 173 -58 173 -155v-2c0 -107 -86 -165 -196 -165zM202 -262l-7 34c47 8 69 28 66 65h-46v92h102v-79c0 -71 -39 -105 -115 -112z" />
    <glyph glyph-name="Tcaron" unicode="&#x164;" horiz-adv-x="676" 
d="M500 919l-118 -128h-88l-118 128h85l78 -61l78 61h83zM290 0v639h-241v89h578v-89h-241v-639h-96z" />
    <glyph glyph-name="tcaron" unicode="&#x165;" horiz-adv-x="430" 
d="M296 609l15 179h84v-3l-55 -176h-44zM272 -9c-88 0 -154 42 -154 154v314h-73v82h73v159h93v-159h164v-82h-164v-301c0 -60 33 -83 84 -83c28 0 51 6 78 19v-79c-29 -16 -60 -24 -101 -24z" />
    <glyph glyph-name="Tcommaaccent" unicode="&#x162;" horiz-adv-x="676" 
d="M290 0v639h-241v89h578v-89h-241v-639h-96zM273 -262l-7 34c47 8 69 28 66 65h-46v92h102v-79c0 -71 -39 -105 -115 -112z" />
    <glyph glyph-name="tcommaaccent" unicode="&#x163;" horiz-adv-x="430" 
d="M272 -9c-88 0 -154 42 -154 154v314h-73v82h73v159h93v-159h164v-82h-164v-301c0 -60 33 -83 84 -83c28 0 51 6 78 19v-79c-29 -16 -60 -24 -101 -24zM173 -262l-7 34c47 8 69 28 66 65h-46v92h102v-79c0 -71 -39 -105 -115 -112z" />
    <glyph glyph-name="Uacute" unicode="&#xda;" horiz-adv-x="797" 
d="M359 788l109 139l91 -41l-123 -98h-77zM398 -11c-184 0 -306 109 -306 317v422h97v-417c0 -150 79 -234 211 -234c127 0 208 77 208 229v422h96v-416c0 -213 -122 -323 -306 -323z" />
    <glyph glyph-name="uacute" unicode="&#xfa;" horiz-adv-x="650" 
d="M283 619l101 156l92 -42l-121 -114h-72zM285 -12c-128 0 -203 87 -203 214v339h94v-313c0 -96 51 -154 140 -154c86 0 150 63 150 159v308h93v-541h-93v91c-36 -56 -91 -103 -181 -103z" />
    <glyph glyph-name="Ubreve" unicode="&#x16c;" horiz-adv-x="797" 
d="M398 782c-90 0 -155 45 -162 125h71c12 -33 40 -53 91 -53s79 20 91 53h71c-7 -80 -72 -125 -162 -125zM398 -11c-184 0 -306 109 -306 317v422h97v-417c0 -150 79 -234 211 -234c127 0 208 77 208 229v422h96v-416c0 -213 -122 -323 -306 -323z" />
    <glyph glyph-name="ubreve" unicode="&#x16d;" horiz-adv-x="650" 
d="M320 617c-90 0 -154 50 -161 136h67c12 -38 41 -65 94 -65s82 27 94 65h67c-7 -86 -71 -136 -161 -136zM285 -12c-128 0 -203 87 -203 214v339h94v-313c0 -96 51 -154 140 -154c86 0 150 63 150 159v308h93v-541h-93v91c-36 -56 -91 -103 -181 -103z" />
    <glyph glyph-name="Ucircumflex" unicode="&#xdb;" horiz-adv-x="797" 
d="M236 788l118 128h88l118 -128h-85l-78 62l-78 -62h-83zM398 -11c-184 0 -306 109 -306 317v422h97v-417c0 -150 79 -234 211 -234c127 0 208 77 208 229v422h96v-416c0 -213 -122 -323 -306 -323z" />
    <glyph glyph-name="ucircumflex" unicode="&#xfb;" horiz-adv-x="650" 
d="M164 619l114 141h84l114 -141h-78l-79 70l-79 -70h-76zM285 -12c-128 0 -203 87 -203 214v339h94v-313c0 -96 51 -154 140 -154c86 0 150 63 150 159v308h93v-541h-93v91c-36 -56 -91 -103 -181 -103z" />
    <glyph glyph-name="Udieresis" unicode="&#xdc;" horiz-adv-x="797" 
d="M245 788v101h107v-101h-107zM446 788v101h106v-101h-106zM398 -11c-184 0 -306 109 -306 317v422h97v-417c0 -150 79 -234 211 -234c127 0 208 77 208 229v422h96v-416c0 -213 -122 -323 -306 -323z" />
    <glyph glyph-name="udieresis" unicode="&#xfc;" horiz-adv-x="650" 
d="M174 619v106h104v-106h-104zM362 619v106h104v-106h-104zM285 -12c-128 0 -203 87 -203 214v339h94v-313c0 -96 51 -154 140 -154c86 0 150 63 150 159v308h93v-541h-93v91c-36 -56 -91 -103 -181 -103z" />
    <glyph glyph-name="Ugrave" unicode="&#xd9;" horiz-adv-x="797" 
d="M437 788h-76l-124 98l92 41zM398 -11c-184 0 -306 109 -306 317v422h97v-417c0 -150 79 -234 211 -234c127 0 208 77 208 229v422h96v-416c0 -213 -122 -323 -306 -323z" />
    <glyph glyph-name="ugrave" unicode="&#xf9;" horiz-adv-x="650" 
d="M286 619l-121 114l92 42l101 -156h-72zM285 -12c-128 0 -203 87 -203 214v339h94v-313c0 -96 51 -154 140 -154c86 0 150 63 150 159v308h93v-541h-93v91c-36 -56 -91 -103 -181 -103z" />
    <glyph glyph-name="Uhungarumlaut" unicode="&#x170;" horiz-adv-x="797" 
d="M434 788l108 139l89 -41l-123 -98h-74zM267 788l109 139l89 -41l-123 -98h-75zM398 -11c-184 0 -306 109 -306 317v422h97v-417c0 -150 79 -234 211 -234c127 0 208 77 208 229v422h96v-416c0 -213 -122 -323 -306 -323z" />
    <glyph glyph-name="uhungarumlaut" unicode="&#x171;" horiz-adv-x="650" 
d="M195 619l100 156l88 -41l-117 -115h-71zM356 619l102 156l88 -41l-118 -115h-72zM285 -12c-128 0 -203 87 -203 214v339h94v-313c0 -96 51 -154 140 -154c86 0 150 63 150 159v308h93v-541h-93v91c-36 -56 -91 -103 -181 -103z" />
    <glyph glyph-name="Umacron" unicode="&#x16a;" horiz-adv-x="797" 
d="M222 807v75h352v-75h-352zM398 -11c-184 0 -306 109 -306 317v422h97v-417c0 -150 79 -234 211 -234c127 0 208 77 208 229v422h96v-416c0 -213 -122 -323 -306 -323z" />
    <glyph glyph-name="umacron" unicode="&#x16b;" horiz-adv-x="650" 
d="M153 637v73h334v-73h-334zM285 -12c-128 0 -203 87 -203 214v339h94v-313c0 -96 51 -154 140 -154c86 0 150 63 150 159v308h93v-541h-93v91c-36 -56 -91 -103 -181 -103z" />
    <glyph glyph-name="Uogonek" unicode="&#x172;" horiz-adv-x="797" 
d="M471 -120v-51c-6 0 -13 -1 -18 -1c-88 2 -135 37 -135 86c0 29 14 52 38 77c-161 15 -264 123 -264 315v422h97v-417c0 -150 79 -234 211 -234c127 0 208 77 208 229v422h96v-416c0 -201 -108 -310 -275 -321c-24 -24 -34 -43 -34 -64c0 -29 23 -45 76 -47z" />
    <glyph glyph-name="uogonek" unicode="&#x173;" horiz-adv-x="650" 
d="M285 -12c-128 0 -203 87 -203 214v339h94v-313c0 -96 51 -154 140 -154c86 0 150 63 150 159v308h93v-541h-18c-31 -28 -44 -49 -44 -73c0 -29 23 -45 76 -47v-51c-6 0 -13 -1 -18 -1c-88 2 -135 37 -135 86c0 32 17 58 47 86h-1v91c-36 -56 -91 -103 -181 -103z" />
    <glyph glyph-name="Uring" unicode="&#x16e;" horiz-adv-x="797" 
d="M398 769c-64 0 -118 45 -118 105c0 61 54 105 118 105s118 -44 118 -105c0 -60 -54 -105 -118 -105zM398 812c40 0 69 27 69 62c0 36 -29 63 -69 63s-69 -27 -69 -63c0 -35 29 -62 69 -62zM398 -11c-184 0 -306 109 -306 317v422h97v-417c0 -150 79 -234 211 -234
c127 0 208 77 208 229v422h96v-416c0 -213 -122 -323 -306 -323z" />
    <glyph glyph-name="uring" unicode="&#x16f;" horiz-adv-x="650" 
d="M320 605c-63 0 -115 49 -115 111c0 61 52 111 115 111s115 -50 115 -111c0 -62 -52 -111 -115 -111zM320 645c39 0 71 32 71 71c0 38 -32 71 -71 71s-71 -33 -71 -71c0 -39 32 -71 71 -71zM285 -12c-128 0 -203 87 -203 214v339h94v-313c0 -96 51 -154 140 -154
c86 0 150 63 150 159v308h93v-541h-93v91c-36 -56 -91 -103 -181 -103z" />
    <glyph glyph-name="Wacute" unicode="&#x1e82;" horiz-adv-x="1162" 
d="M542 791l109 139l91 -41l-123 -98h-77zM306 -5l-258 733h105l197 -586l193 588h80l193 -588l198 586h101l-258 -733h-82l-194 570l-193 -570h-82z" />
    <glyph glyph-name="wacute" unicode="&#x1e83;" horiz-adv-x="903" 
d="M414 619l101 156l92 -42l-121 -114h-72zM230 -4l-185 545h98l132 -415l138 417h79l138 -417l133 415h96l-186 -545h-83l-138 409l-139 -409h-83z" />
    <glyph glyph-name="Wcircumflex" unicode="&#x174;" horiz-adv-x="1162" 
d="M419 791l118 128h88l118 -128h-85l-78 62l-78 -62h-83zM306 -5l-258 733h105l197 -586l193 588h80l193 -588l198 586h101l-258 -733h-82l-194 570l-193 -570h-82z" />
    <glyph glyph-name="wcircumflex" unicode="&#x175;" horiz-adv-x="903" 
d="M295 619l114 141h84l114 -141h-78l-79 70l-79 -70h-76zM230 -4l-185 545h98l132 -415l138 417h79l138 -417l133 415h96l-186 -545h-83l-138 409l-139 -409h-83z" />
    <glyph glyph-name="Wdieresis" unicode="&#x1e84;" horiz-adv-x="1162" 
d="M428 791v101h107v-101h-107zM629 791v101h106v-101h-106zM306 -5l-258 733h105l197 -586l193 588h80l193 -588l198 586h101l-258 -733h-82l-194 570l-193 -570h-82z" />
    <glyph glyph-name="wdieresis" unicode="&#x1e85;" horiz-adv-x="903" 
d="M305 619v106h104v-106h-104zM493 619v106h104v-106h-104zM230 -4l-185 545h98l132 -415l138 417h79l138 -417l133 415h96l-186 -545h-83l-138 409l-139 -409h-83z" />
    <glyph glyph-name="Wgrave" unicode="&#x1e80;" horiz-adv-x="1162" 
d="M620 791h-76l-124 98l92 41zM306 -5l-258 733h105l197 -586l193 588h80l193 -588l198 586h101l-258 -733h-82l-194 570l-193 -570h-82z" />
    <glyph glyph-name="wgrave" unicode="&#x1e81;" horiz-adv-x="903" 
d="M417 619l-121 114l92 42l101 -156h-72zM230 -4l-185 545h98l132 -415l138 417h79l138 -417l133 415h96l-186 -545h-83l-138 409l-139 -409h-83z" />
    <glyph glyph-name="Yacute" unicode="&#xdd;" horiz-adv-x="753" 
d="M337 788l109 139l91 -41l-123 -98h-77zM328 0v288l-299 440h115l233 -352l235 352h112l-299 -438v-290h-97z" />
    <glyph glyph-name="yacute" unicode="&#xfd;" horiz-adv-x="625" 
d="M277 619l101 156l92 -42l-121 -114h-72zM322 105l164 436h99l-223 -558c-46 -112 -96 -153 -180 -153c-47 0 -81 11 -119 30l32 72c25 -13 49 -20 81 -20c44 0 72 22 101 89l-240 540h102z" />
    <glyph glyph-name="Ycircumflex" unicode="&#x176;" horiz-adv-x="753" 
d="M214 788l118 128h88l118 -128h-85l-78 62l-78 -62h-83zM328 0v288l-299 440h115l233 -352l235 352h112l-299 -438v-290h-97z" />
    <glyph glyph-name="ycircumflex" unicode="&#x177;" horiz-adv-x="625" 
d="M158 619l114 141h84l114 -141h-78l-79 70l-79 -70h-76zM322 105l164 436h99l-223 -558c-46 -112 -96 -153 -180 -153c-47 0 -81 11 -119 30l32 72c25 -13 49 -20 81 -20c44 0 72 22 101 89l-240 540h102z" />
    <glyph glyph-name="Ydieresis" unicode="&#x178;" horiz-adv-x="753" 
d="M223 788v101h107v-101h-107zM424 788v101h106v-101h-106zM328 0v288l-299 440h115l233 -352l235 352h112l-299 -438v-290h-97z" />
    <glyph glyph-name="ydieresis" unicode="&#xff;" horiz-adv-x="625" 
d="M168 619v106h104v-106h-104zM356 619v106h104v-106h-104zM322 105l164 436h99l-223 -558c-46 -112 -96 -153 -180 -153c-47 0 -81 11 -119 30l32 72c25 -13 49 -20 81 -20c44 0 72 22 101 89l-240 540h102z" />
    <glyph glyph-name="Ygrave" unicode="&#x1ef2;" horiz-adv-x="753" 
d="M415 788h-76l-124 98l92 41zM328 0v288l-299 440h115l233 -352l235 352h112l-299 -438v-290h-97z" />
    <glyph glyph-name="ygrave" unicode="&#x1ef3;" horiz-adv-x="625" 
d="M280 619l-121 114l92 42l101 -156h-72zM322 105l164 436h99l-223 -558c-46 -112 -96 -153 -180 -153c-47 0 -81 11 -119 30l32 72c25 -13 49 -20 81 -20c44 0 72 22 101 89l-240 540h102z" />
    <glyph glyph-name="Zacute" unicode="&#x179;" horiz-adv-x="732" 
d="M335 791l109 139l91 -41l-123 -98h-77zM73 0v67l459 576h-444v85h572v-67l-459 -576h459v-85h-587z" />
    <glyph glyph-name="zacute" unicode="&#x17a;" horiz-adv-x="588" 
d="M260 619l101 156l92 -42l-121 -114h-72zM61 0v62l345 401h-333v78h457v-62l-345 -400h345v-79h-469z" />
    <glyph glyph-name="Zcaron" unicode="&#x17d;" horiz-adv-x="732" 
d="M536 919l-118 -128h-88l-118 128h85l78 -61l78 61h83zM73 0v67l459 576h-444v85h572v-67l-459 -576h459v-85h-587z" />
    <glyph glyph-name="zcaron" unicode="&#x17e;" horiz-adv-x="588" 
d="M454 760l-114 -141h-84l-114 141h78l79 -70l79 70h76zM61 0v62l345 401h-333v78h457v-62l-345 -400h345v-79h-469z" />
    <glyph glyph-name="Zdotaccent" unicode="&#x17b;" horiz-adv-x="732" 
d="M319 791v101h110v-101h-110zM73 0v67l459 576h-444v85h572v-67l-459 -576h459v-85h-587z" />
    <glyph glyph-name="zdotaccent" unicode="&#x17c;" horiz-adv-x="588" 
d="M244 619v107h108v-107h-108zM61 0v62l345 401h-333v78h457v-62l-345 -400h345v-79h-469z" />
    <glyph glyph-name="AE" unicode="&#xc6;" horiz-adv-x="1095" 
d="M276 274h238v369h-24zM20 0l422 728h582v-87h-414v-231h367v-87h-367v-236h419v-87h-515v188h-285l-109 -188h-100z" />
    <glyph glyph-name="ae" unicode="&#xe6;" horiz-adv-x="999" 
d="M524 303h326c-8 93 -61 171 -161 171c-89 0 -155 -72 -165 -171zM255 -12c-107 0 -204 59 -204 168v2c0 115 93 175 226 175c63 0 108 -9 154 -23v18c0 90 -53 138 -148 138c-62 0 -108 -15 -157 -38l-27 75c60 28 114 46 195 46c99 0 167 -37 196 -108
c43 68 116 112 202 112c162 0 253 -130 253 -288c0 -10 0 -18 -1 -29h-420c12 -108 89 -169 180 -169c70 0 119 28 163 73l57 -51c-53 -61 -121 -101 -222 -101c-87 0 -165 38 -214 103c-58 -57 -135 -103 -233 -103zM268 62c73 0 135 35 184 88c-11 29 -19 61 -21 96
c-38 11 -86 22 -141 22c-93 0 -146 -41 -146 -105v-2c0 -63 56 -99 124 -99z" />
    <glyph glyph-name="AEacute" unicode="&#x1fc;" horiz-adv-x="1095" 
d="M617 791l109 139l91 -41l-123 -98h-77zM276 274h238v369h-24zM20 0l422 728h582v-87h-414v-231h367v-87h-367v-236h419v-87h-515v188h-285l-109 -188h-100z" />
    <glyph glyph-name="aeacute" unicode="&#x1fd;" horiz-adv-x="999" 
d="M460 619l101 156l92 -42l-121 -114h-72zM524 303h326c-8 93 -61 171 -161 171c-89 0 -155 -72 -165 -171zM255 -12c-107 0 -204 59 -204 168v2c0 115 93 175 226 175c63 0 108 -9 154 -23v18c0 90 -53 138 -148 138c-62 0 -108 -15 -157 -38l-27 75c60 28 114 46 195 46
c99 0 167 -37 196 -108c43 68 116 112 202 112c162 0 253 -130 253 -288c0 -10 0 -18 -1 -29h-420c12 -108 89 -169 180 -169c70 0 119 28 163 73l57 -51c-53 -61 -121 -101 -222 -101c-87 0 -165 38 -214 103c-58 -57 -135 -103 -233 -103zM268 62c73 0 135 35 184 88
c-11 29 -19 61 -21 96c-38 11 -86 22 -141 22c-93 0 -146 -41 -146 -105v-2c0 -63 56 -99 124 -99z" />
    <glyph glyph-name="OE" unicode="&#x152;" horiz-adv-x="1174" 
d="M458 0c-228 0 -386 157 -386 362v2c0 205 158 364 386 364h645v-87h-414v-231h368v-87h-368v-236h420v-87h-651zM458 88h135v552h-135c-174 0 -286 -118 -286 -274v-2c0 -155 112 -276 286 -276z" />
    <glyph glyph-name="oe" unicode="&#x153;" horiz-adv-x="1096" 
d="M336 -12c-156 0 -278 127 -278 280v2c0 153 122 283 282 283c102 0 186 -55 230 -135c43 81 122 135 218 135c163 0 254 -130 254 -288c0 -10 0 -18 -1 -29h-419c11 -108 88 -169 179 -169c70 0 119 28 163 73l58 -51c-54 -61 -122 -101 -222 -101
c-98 0 -185 51 -231 135c-44 -80 -130 -135 -233 -135zM621 303h326c-8 93 -61 171 -161 171c-89 0 -155 -72 -165 -171zM341 71c110 0 185 89 185 197v2c0 110 -80 200 -187 200c-111 0 -186 -91 -186 -198v-2c0 -109 80 -199 188 -199z" />
    <glyph glyph-name="Eth" unicode="&#xd0;" horiz-adv-x="852" 
d="M135 0v329h-78v74h78v325h259c229 0 387 -157 387 -362v-2c0 -205 -158 -364 -387 -364h-259zM439 329h-207v-241h162c174 0 286 118 286 274v2c0 155 -112 276 -286 276h-162v-237h207v-74z" />
    <glyph glyph-name="eth" unicode="&#xf0;" horiz-adv-x="683" 
d="M525 707l-88 -34c107 -105 187 -229 187 -376v-2c0 -176 -112 -307 -286 -307c-159 0 -280 126 -280 285v2c0 156 118 265 252 265c78 0 132 -31 176 -68c-27 54 -76 112 -134 168l-121 -46l-25 56l96 36c-30 25 -61 49 -92 73h131c16 -13 32 -26 47 -40l113 43zM342 71
c111 0 187 86 187 197v2c0 108 -79 192 -194 192c-110 0 -182 -84 -182 -192v-3c0 -107 81 -196 189 -196z" />
    <glyph glyph-name="Thorn" unicode="&#xde;" horiz-adv-x="708" 
d="M104 0v728h96v-122h181c166 0 274 -90 274 -234v-2c0 -159 -132 -242 -288 -242h-167v-128h-96zM200 215h171c113 0 187 62 187 152v2c0 98 -74 150 -185 150h-173v-304z" />
    <glyph glyph-name="thorn" unicode="&#xfe;" horiz-adv-x="701" 
d="M365 71c99 0 180 75 180 198v2c0 121 -83 199 -180 199c-95 0 -184 -80 -184 -198v-2c0 -119 89 -199 184 -199zM90 -166v925h94v-321c43 63 105 115 201 115c128 0 256 -103 256 -281v-2c0 -178 -127 -282 -256 -282c-98 0 -160 52 -201 110v-264h-94z" />
    <glyph glyph-name="uni018F" unicode="&#x18f;" horiz-adv-x="837" 
d="M99 602c75 85 176 138 307 138c210 0 359 -156 359 -374v-3c0 -210 -148 -375 -351 -375c-222 0 -343 174 -343 383v1c0 14 0 23 1 36h591c-16 143 -114 244 -257 244c-95 0 -173 -37 -243 -112zM414 75c140 0 234 104 249 249h-490c10 -146 103 -249 241 -249z" />
    <glyph glyph-name="schwa" unicode="&#x259;" horiz-adv-x="627" 
d="M297 554c151 0 273 -114 273 -282v-2c0 -156 -110 -282 -261 -282c-164 0 -255 131 -255 288c0 11 0 18 1 29h419c-11 108 -88 169 -179 169c-70 0 -119 -28 -163 -73l-57 51c53 61 121 102 222 102zM475 238h-326c8 -92 61 -171 161 -171c89 0 155 72 165 171z" />
    <glyph glyph-name="germandbls" unicode="&#xdf;" horiz-adv-x="653" 
d="M309 -2v74c116 4 187 47 187 130v2c0 78 -75 123 -187 135v68c81 31 142 81 142 160v3c0 68 -51 115 -126 115c-82 0 -141 -63 -141 -161v-524h-94v521c0 149 93 245 240 245c134 0 217 -83 217 -189v-3c0 -96 -66 -154 -136 -186c93 -23 181 -78 181 -185v-2
c0 -130 -110 -206 -283 -203z" />
    <glyph glyph-name="uni0386" unicode="&#x386;" horiz-adv-x="830" 
d="M91 537l16 191h99l-64 -191h-51zM259 274h308l-154 347zM41 0l329 733h90l328 -733h-102l-83 188h-380l-83 -188h-99z" />
    <glyph glyph-name="uni0388" unicode="&#x388;" horiz-adv-x="705" 
d="M104 0v728h530v-87h-434v-231h387v-87h-387v-236h439v-87h-535zM-67 537l16 191h99l-64 -191h-51z" />
    <glyph glyph-name="uni0389" unicode="&#x389;" horiz-adv-x="798" 
d="M-67 537l16 191h99l-64 -191h-51zM104 0v728h96v-317h398v317h97v-728h-97v322h-398v-322h-96z" />
    <glyph glyph-name="uni038A" unicode="&#x38a;" horiz-adv-x="319" 
d="M-65 537l16 191h99l-64 -191h-51zM111 0v728h97v-728h-97z" />
    <glyph glyph-name="uni038C" unicode="&#x38c;" horiz-adv-x="892" 
d="M445 -12c-222 0 -373 172 -373 374v2c0 202 153 376 375 376s373 -172 373 -374v-2c0 -202 -153 -376 -375 -376zM-32 537l16 191h99l-64 -191h-51zM447 76c160 0 273 128 273 286v2c0 158 -116 288 -275 288c-160 0 -273 -128 -273 -286v-2c0 -158 116 -288 275 -288z
" />
    <glyph glyph-name="uni038E" unicode="&#x38e;" horiz-adv-x="753" 
d="M-118 537l16 191h99l-64 -191h-51zM328 0v288l-299 440h115l233 -352l235 352h112l-299 -438v-290h-97z" />
    <glyph glyph-name="uni038F" unicode="&#x38f;" horiz-adv-x="912" 
d="M-30 537l16 191h99l-64 -191h-51zM456 740c223 0 365 -148 365 -344v-1c0 -135 -71 -234 -182 -312l204 1v-84h-313v81c111 74 190 157 190 306v1c0 155 -104 265 -265 264c-159 0 -264 -108 -264 -263v-1c0 -141 77 -230 191 -307v-81h-314v84l205 -1
c-111 80 -182 175 -182 313v1c0 187 141 344 365 343z" />
    <glyph glyph-name="uni0386.calt" horiz-adv-x="830" 
d="M259 274h308l-154 347zM41 0l329 733h90l328 -733h-102l-83 188h-380l-83 -188h-99z" />
    <glyph glyph-name="uni0388.calt" horiz-adv-x="705" 
d="M104 0v728h530v-87h-434v-231h387v-87h-387v-236h439v-87h-535z" />
    <glyph glyph-name="uni0389.calt" horiz-adv-x="798" 
d="M104 0v728h96v-317h398v317h97v-728h-97v322h-398v-322h-96z" />
    <glyph glyph-name="uni038A.calt" horiz-adv-x="319" 
d="M111 0v728h97v-728h-97z" />
    <glyph glyph-name="uni038C.calt" horiz-adv-x="892" 
d="M445 -12c-222 0 -373 172 -373 374v2c0 202 153 376 375 376s373 -172 373 -374v-2c0 -202 -153 -376 -375 -376zM447 76c160 0 273 128 273 286v2c0 158 -116 288 -275 288c-160 0 -273 -128 -273 -286v-2c0 -158 116 -288 275 -288z" />
    <glyph glyph-name="uni038E.calt" horiz-adv-x="753" 
d="M328 0v288l-299 440h115l233 -352l235 352h112l-299 -438v-290h-97z" />
    <glyph glyph-name="uni038F.calt" horiz-adv-x="912" 
d="M456 740c223 0 365 -148 365 -344v-1c0 -135 -71 -234 -182 -312l204 1v-84h-313v81c111 74 190 157 190 306v1c0 155 -104 265 -265 264c-159 0 -264 -108 -264 -263v-1c0 -141 77 -230 191 -307v-81h-314v84l205 -1c-111 80 -182 175 -182 313v1c0 187 141 344 365 343
z" />
    <glyph glyph-name="uni0399.calt" horiz-adv-x="319" 
d="M6 791v101h107v-101h-107zM207 791v101h106v-101h-106zM111 0v728h97v-728h-97z" />
    <glyph glyph-name="uni03A5.calt" horiz-adv-x="753" 
d="M223 788v101h107v-101h-107zM424 788v101h106v-101h-106zM328 0v288l-299 440h115l233 -352l235 352h112l-299 -438v-290h-97z" />
    <glyph glyph-name="uni03AA" unicode="&#x3aa;" horiz-adv-x="319" 
d="M6 791v101h107v-101h-107zM207 791v101h106v-101h-106zM111 0v728h97v-728h-97z" />
    <glyph glyph-name="uni03AB" unicode="&#x3ab;" horiz-adv-x="753" 
d="M223 788v101h107v-101h-107zM424 788v101h106v-101h-106zM328 0v288l-299 440h115l233 -352l235 352h112l-299 -438v-290h-97z" />
    <glyph glyph-name="uni03AC" unicode="&#x3ac;" horiz-adv-x="741" 
d="M328 619l68 165l92 -39l-95 -126h-65zM335 71c96 0 184 80 184 199v2c0 118 -88 198 -184 198c-98 0 -179 -75 -179 -198v-2c0 -120 83 -199 179 -199zM715 77v-77c-16 -4 -34 -7 -61 -7c-76 0 -119 32 -131 102c-44 -59 -110 -107 -204 -107c-132 0 -259 103 -259 281v2
c0 178 126 282 256 282c97 0 159 -52 201 -110v98h93v-402c2 -46 25 -66 68 -66c14 0 27 1 37 4z" />
    <glyph glyph-name="uni03AD" unicode="&#x3ad;" horiz-adv-x="589" 
d="M267 619l68 165l92 -39l-95 -126h-65zM415 236h-120c-97 0 -140 -35 -140 -81v-1c0 -52 53 -87 149 -87c72 0 140 22 200 59l42 -66c-72 -46 -154 -72 -245 -72c-159 0 -240 67 -240 157v1c0 71 53 111 112 128c-55 20 -97 56 -97 123v1c0 84 78 154 229 154
c99 0 171 -28 234 -72l-48 -67c-50 36 -114 61 -184 61c-91 0 -138 -38 -138 -84v-1c0 -52 44 -79 125 -79h121v-74z" />
    <glyph glyph-name="uni03AE" unicode="&#x3ae;" horiz-adv-x="650" 
d="M292 619l68 165l92 -39l-95 -126h-65zM567 -166h-94v479c0 96 -51 154 -139 154c-86 0 -150 -62 -150 -159v-308h-94v541h94v-91c36 56 90 103 180 103c129 0 203 -87 203 -214v-505z" />
    <glyph glyph-name="uni03AF" unicode="&#x3af;" horiz-adv-x="314" 
d="M101 619l68 165l92 -39l-95 -126h-65zM88 143v398h94v-394c0 -51 22 -74 67 -74c15 0 28 1 38 4v-77c-16 -4 -35 -7 -62 -7c-91 0 -137 47 -137 150z" />
    <glyph glyph-name="uni03CC" unicode="&#x3cc;" horiz-adv-x="684" 
d="M305 619l68 165l92 -39l-95 -126h-65zM341 -12c-164 0 -283 127 -283 280v2c0 153 121 283 285 283c163 0 283 -127 283 -281v-2c0 -153 -121 -282 -285 -282zM343 71c112 0 187 89 187 197v2c0 110 -81 200 -189 200c-112 0 -188 -90 -188 -198v-2
c0 -109 81 -199 190 -199z" />
    <glyph glyph-name="uni03CD" unicode="&#x3cd;" horiz-adv-x="652" 
d="M290 619l68 165l92 -39l-95 -126h-65zM325 -12c-146 0 -242 82 -242 241v312h94v-309c0 -108 57 -162 149 -162c93 0 150 53 150 161v310h94v-310c0 -161 -98 -243 -245 -243z" />
    <glyph glyph-name="uni03CE" unicode="&#x3ce;" horiz-adv-x="924" 
d="M425 619l68 165l92 -39l-95 -126h-65zM416 437h92v-165c0 -121 45 -200 132 -200c76 0 125 63 125 177c0 117 -55 207 -130 292h107c63 -72 117 -171 117 -294c0 -160 -81 -259 -210 -259c-105 0 -163 69 -188 150c-25 -80 -82 -150 -189 -150c-128 0 -207 98 -207 259
c0 123 55 222 117 294h105c-75 -84 -128 -175 -128 -292c0 -113 50 -177 123 -177c89 0 134 79 134 200v165z" />
    <glyph glyph-name="uni03CA" unicode="&#x3ca;" horiz-adv-x="314" 
d="M-9 619v106h104v-106h-104zM179 619v106h104v-106h-104zM88 143v398h94v-394c0 -51 22 -74 67 -74c15 0 28 1 38 4v-77c-16 -4 -35 -7 -62 -7c-91 0 -137 47 -137 150z" />
    <glyph glyph-name="uni03CB" unicode="&#x3cb;" horiz-adv-x="652" 
d="M180 619v106h104v-106h-104zM368 619v106h104v-106h-104zM325 -12c-146 0 -242 82 -242 241v312h94v-309c0 -108 57 -162 149 -162c93 0 150 53 150 161v310h94v-310c0 -161 -98 -243 -245 -243z" />
    <glyph glyph-name="uni0390" unicode="&#x390;" horiz-adv-x="314" 
d="M95 619l42 186l90 -21l-74 -165h-58zM-36 619v105h96v-105h-96zM234 619v105h96v-105h-96zM88 143v398h94v-394c0 -51 22 -74 67 -74c15 0 28 1 38 4v-77c-16 -4 -35 -7 -62 -7c-91 0 -137 47 -137 150z" />
    <glyph glyph-name="uni03B0" unicode="&#x3b0;" horiz-adv-x="652" 
d="M274 619l42 186l90 -21l-74 -165h-58zM143 619v105h96v-105h-96zM413 619v105h96v-105h-96zM325 -12c-146 0 -242 82 -242 241v312h94v-309c0 -108 57 -162 149 -162c93 0 150 53 150 161v310h94v-310c0 -161 -98 -243 -245 -243z" />
    <glyph glyph-name="uni0462" unicode="&#x462;" horiz-adv-x="882" 
d="M582 403c155 0 250 -69 250 -197v-1c0 -125 -101 -205 -255 -205h-296v547h-235v82h235v112h96v-112h260v-81h-260v-145h205zM581 318h-204v-232h203c96 0 156 46 156 117v1c0 73 -51 114 -155 114z" />
    <glyph glyph-name="uni0472" unicode="&#x472;" horiz-adv-x="890" 
d="M444 -12c-221 0 -372 172 -372 374v2c0 202 153 376 374 376s372 -172 372 -374v-2c0 -202 -153 -376 -374 -376zM444 655c-148 0 -256 -105 -274 -246h548c-19 140 -128 246 -274 246zM446 73c149 0 257 107 273 250h-549c17 -143 128 -250 276 -250z" />
    <glyph glyph-name="uni0474" unicode="&#x474;" horiz-adv-x="829" 
d="M349 -5l-308 733h107l246 -607l171 426c56 140 119 184 233 184h14v-87h-6c-70 0 -113 -30 -152 -124l-220 -525h-85z" />
    <glyph glyph-name="uni0490" unicode="&#x490;" horiz-adv-x="649" 
d="M104 728h406v144h92v-232h-402v-640h-96v728z" />
    <glyph glyph-name="uni0404" unicode="&#x404;" horiz-adv-x="778" 
d="M436 -12c-210 0 -364 165 -364 374v2c0 206 153 376 369 376c133 0 212 -47 284 -114l-62 -70c-60 58 -127 97 -222 97c-142 0 -251 -104 -268 -244h387v-84h-387c15 -144 124 -250 268 -250c96 0 160 37 226 103l62 -62c-76 -78 -159 -128 -293 -128z" />
    <glyph glyph-name="uni0406" unicode="&#x406;" horiz-adv-x="319" 
d="M111 0v728h97v-728h-97z" />
    <glyph glyph-name="uni0407" unicode="&#x407;" horiz-adv-x="319" 
d="M6 791v101h107v-101h-107zM207 791v101h106v-101h-106zM111 0v728h97v-728h-97z" />
    <glyph glyph-name="uni0402" unicode="&#x402;" horiz-adv-x="881" 
d="M620 728v-89h-246v-209c63 17 126 25 182 25c177 0 273 -85 273 -227c0 -138 -100 -230 -274 -230h-21v86h12c127 0 186 56 186 141c0 87 -54 143 -186 143c-54 0 -106 -6 -172 -23v-345h-97v639h-231v89h574z" />
    <glyph glyph-name="uni0408" unicode="&#x408;" horiz-adv-x="585" 
d="M260 -10c-110 0 -180 53 -227 125l67 62c44 -64 89 -99 161 -99c77 0 134 56 134 165v485h98v-485c0 -85 -26 -150 -68 -191c-41 -41 -98 -62 -165 -62z" />
    <glyph glyph-name="uni0409" unicode="&#x409;" horiz-adv-x="1080" 
d="M490 0v647h-4l-364 -647h-101l411 728h154v-257h167c166 0 277 -82 277 -231v-1c0 -153 -121 -239 -287 -239h-253zM586 88h160c112 0 187 56 187 149v1c0 95 -72 146 -183 146h-164v-296z" />
    <glyph glyph-name="uni040A" unicode="&#x40a;" horiz-adv-x="1178" 
d="M684 88h159c113 0 188 56 188 149v1c0 95 -72 146 -183 146h-164v-296zM588 0v322h-388v-322h-96v728h96v-317h388v317h96v-257h167c165 0 277 -82 277 -231v-1c0 -153 -121 -239 -288 -239h-252z" />
    <glyph glyph-name="uni040B" unicode="&#x40b;" horiz-adv-x="914" 
d="M620 728v-89h-246v-209c61 17 129 26 183 26c170 0 273 -71 273 -246v-210h-97v196c0 124 -60 173 -185 173c-53 0 -114 -8 -174 -25v-344h-97v639h-231v89h574z" />
    <glyph glyph-name="uni040F" unicode="&#x40f;" horiz-adv-x="801" 
d="M353 -151v151h-249v728h96v-640h396v640h96v-728h-248v-151h-91z" />
    <glyph glyph-name="uni040E" unicode="&#x40e;" horiz-adv-x="748" 
d="M386 786c-90 0 -155 45 -162 125h71c12 -33 40 -53 91 -53s79 20 91 53h71c-7 -80 -72 -125 -162 -125zM297 0h-108l149 252l-302 476h110l246 -392l221 392h108z" />
    <glyph glyph-name="uni0403" unicode="&#x403;" horiz-adv-x="649" 
d="M301 791l109 139l91 -41l-123 -98h-77zM104 0v728h498v-88h-402v-640h-96z" />
    <glyph glyph-name="uni0405" unicode="&#x405;" horiz-adv-x="674" 
d="M355 -10c-114 0 -212 38 -299 116l59 70c74 -66 146 -100 243 -100c92 0 153 47 153 114v2c0 62 -34 97 -182 130c-164 36 -244 88 -244 212v2c0 118 102 202 242 202c106 0 184 -30 258 -90l-54 -74c-67 54 -133 78 -206 78c-89 0 -144 -48 -144 -107v-2
c0 -66 36 -100 190 -134c160 -36 236 -93 236 -208v-2c0 -128 -105 -209 -252 -209z" />
    <glyph glyph-name="uni040C" unicode="&#x40c;" horiz-adv-x="762" 
d="M339 788l109 139l91 -41l-123 -98h-77zM104 0v728h96v-314h108l293 314h124l-339 -351l355 -377h-126l-305 328h-110v-328h-96z" />
    <glyph glyph-name="uni0400" unicode="&#x400;" horiz-adv-x="705" 
d="M410 791h-76l-124 98l92 41zM104 0v728h530v-87h-434v-231h387v-87h-387v-236h439v-87h-535z" />
    <glyph glyph-name="uni040D" unicode="&#x40d;" horiz-adv-x="830" 
d="M454 788h-76l-124 98l92 41zM726 0h-97v578l-444 -578h-81v728h96v-564l434 564h92v-728z" />
    <glyph glyph-name="uni0492" unicode="&#x492;" horiz-adv-x="680" 
d="M135 0v316h-78v74h78v338h498v-88h-402v-250h197v-74h-197v-316h-96z" />
    <glyph glyph-name="uni0496" unicode="&#x496;" horiz-adv-x="1129" 
d="M1081 728l-313 -352l250 -288h93v-239h-91v151h-43l-285 329h-86v-329h-95l1 329h-91l-283 -329h-115l327 376l-314 352h117l277 -315h82l-1 315h95v-315h81l278 315h116z" />
    <glyph glyph-name="uni0498" unicode="&#x498;" horiz-adv-x="693" 
d="M116 562l-59 65c69 62 159 113 290 113c158 0 262 -77 262 -194v-1c0 -86 -50 -146 -142 -174c94 -21 159 -79 159 -172v-1c0 -110 -92 -195 -245 -208l3 -141h-94l3 141c-106 9 -185 49 -247 102l57 69c63 -51 136 -87 235 -87c112 0 190 52 190 128v2
c0 80 -75 122 -195 122h-127v82h128c103 0 177 44 177 126v1c0 71 -64 119 -166 119c-96 0 -169 -41 -229 -92z" />
    <glyph glyph-name="uni049A" unicode="&#x49a;" horiz-adv-x="772" 
d="M104 0v728h96v-314h108l293 314h124l-339 -351l272 -289h98v-239h-91v151h-50l-305 328h-110v-328h-96z" />
    <glyph glyph-name="uni049C" unicode="&#x49c;" horiz-adv-x="793" 
d="M749 728l-281 -350l294 -378h-117l-254 329h-1l1 -223h-69l1 220h-123v-326h-96v728h96v-317h123l-1 223h69l-1 -223h1l243 317h115z" />
    <glyph glyph-name="uni04A0" unicode="&#x4a0;" horiz-adv-x="941" 
d="M46 641v87h333v-314h108l293 314h124l-339 -351l355 -377h-126l-305 328h-110v-328h-96v641h-237z" />
    <glyph glyph-name="uni04A2" unicode="&#x4a2;" horiz-adv-x="818" 
d="M104 0v728h96v-317h398v317h97v-640h78v-239h-91v151h-84v322h-398v-322h-96z" />
    <glyph glyph-name="uni04A4" unicode="&#x4a4;" horiz-adv-x="1071" 
d="M561 0v322h-387v-322h-96v728h96v-317h387v317h463v-88h-366v-640h-97z" />
    <glyph glyph-name="uni04AA" unicode="&#x4aa;" horiz-adv-x="779" 
d="M388 -151l3 142c-186 22 -319 178 -319 371v2c0 206 154 376 370 376c133 0 212 -47 284 -114l-63 -71c-61 57 -128 97 -222 97c-154 0 -269 -126 -269 -286v-2c0 -160 115 -288 269 -288c97 0 160 38 227 102l63 -62c-68 -70 -142 -116 -252 -126l3 -141h-94z" />
    <glyph glyph-name="uni04AE" unicode="&#x4ae;" horiz-adv-x="753" 
d="M328 0v288l-299 440h115l233 -352l235 352h112l-299 -438v-290h-97z" />
    <glyph glyph-name="uni04B0" unicode="&#x4b0;" horiz-adv-x="753" 
d="M328 0v223h-187v74h181l-293 431h115l233 -352l235 352h112l-294 -431h181v-74h-186v-223h-97z" />
    <glyph glyph-name="uni04B2" unicode="&#x4b2;" horiz-adv-x="778" 
d="M593 728h111l-264 -356l209 -284h97v-239h-91v151h-54l-221 303l-220 -303h-111l274 371l-264 357h114l210 -289z" />
    <glyph glyph-name="uni04B6" unicode="&#x4b6;" horiz-adv-x="765" 
d="M546 0v276c-61 -17 -133 -26 -188 -26c-169 0 -273 71 -273 245v233h97v-218c0 -124 60 -172 185 -172c55 0 120 9 179 26v364h96v-640h78v-239h-91v151h-83z" />
    <glyph glyph-name="uni04B8" unicode="&#x4b8;" horiz-adv-x="742" 
d="M542 0v276c-46 -13 -98 -21 -145 -25l1 -169h-70l1 168c-155 7 -248 79 -248 245v233h97v-218c0 -112 49 -162 151 -171l-1 223h70l-1 -223c46 3 97 11 145 25v364h97v-728h-97z" />
    <glyph glyph-name="uni04BA" unicode="&#x4ba;" horiz-adv-x="742" 
d="M193 728v-277c60 17 132 27 188 27c169 0 273 -71 273 -245v-233h-97v218c0 124 -60 172 -185 172c-55 0 -120 -9 -179 -27v-363h-97v728h97z" />
    <glyph glyph-name="uni04C0" unicode="&#x4c0;" horiz-adv-x="319" 
d="M111 0v728h97v-728h-97z" />
    <glyph glyph-name="uni04C1" unicode="&#x4c1;" horiz-adv-x="1117" 
d="M559 789c-90 0 -155 45 -162 125h71c12 -33 40 -53 91 -53s79 20 91 53h71c-7 -80 -72 -125 -162 -125zM36 728h117l277 -315h82l-1 315h95v-315h81l278 315h116l-313 -352l326 -376h-117l-285 329h-86v-329h-95l1 329h-91l-283 -329h-115l327 376z" />
    <glyph glyph-name="uni04D0" unicode="&#x4d0;" horiz-adv-x="830" 
d="M415 799c-90 0 -155 45 -162 125h71c12 -33 40 -53 91 -53s79 20 91 53h71c-7 -80 -72 -125 -162 -125zM259 274h308l-154 347zM41 0l329 733h90l328 -733h-102l-83 188h-380l-83 -188h-99z" />
    <glyph glyph-name="uni04D2" unicode="&#x4d2;" horiz-adv-x="830" 
d="M261 801v101h107v-101h-107zM462 801v101h106v-101h-106zM259 274h308l-154 347zM41 0l329 733h90l328 -733h-102l-83 188h-380l-83 -188h-99z" />
    <glyph glyph-name="uni04D4" unicode="&#x4d4;" horiz-adv-x="1095" 
d="M276 274h238v369h-24zM20 0l422 728h582v-87h-414v-231h367v-87h-367v-236h419v-87h-515v188h-285l-109 -188h-100z" />
    <glyph glyph-name="uni04D6" unicode="&#x4d6;" horiz-adv-x="705" 
d="M371 789c-90 0 -155 45 -162 125h71c12 -33 40 -53 91 -53s79 20 91 53h71c-7 -80 -72 -125 -162 -125zM104 0v728h530v-87h-434v-231h387v-87h-387v-236h439v-87h-535z" />
    <glyph glyph-name="uni04D8" unicode="&#x4d8;" horiz-adv-x="837" 
d="M99 602c75 85 176 138 307 138c210 0 359 -156 359 -374v-3c0 -210 -148 -375 -351 -375c-222 0 -343 174 -343 383v1c0 14 0 23 1 36h591c-16 143 -114 244 -257 244c-95 0 -173 -37 -243 -112zM414 75c140 0 234 104 249 249h-490c10 -146 103 -249 241 -249z" />
    <glyph glyph-name="uni04DC" unicode="&#x4dc;" horiz-adv-x="1117" 
d="M405 791v101h107v-101h-107zM606 791v101h106v-101h-106zM36 728h117l277 -315h82l-1 315h95v-315h81l278 315h116l-313 -352l326 -376h-117l-285 329h-86v-329h-95l1 329h-91l-283 -329h-115l327 376z" />
    <glyph glyph-name="uni04DE" unicode="&#x4de;" horiz-adv-x="693" 
d="M187 797v101h107v-101h-107zM388 797v101h106v-101h-106zM116 562l-59 65c69 62 159 113 290 113c158 0 262 -77 262 -194v-1c0 -86 -50 -146 -142 -174c94 -21 159 -79 159 -172v-1c0 -120 -110 -210 -290 -210c-127 0 -220 44 -290 104l57 69c63 -51 136 -87 235 -87
c112 0 190 52 190 128v2c0 80 -75 122 -195 122h-127v82h128c103 0 177 44 177 126v1c0 71 -64 119 -166 119c-96 0 -169 -41 -229 -92z" />
    <glyph glyph-name="uni04E2" unicode="&#x4e2;" horiz-adv-x="830" 
d="M239 807v75h352v-75h-352zM726 0h-97v578l-444 -578h-81v728h96v-564l434 564h92v-728z" />
    <glyph glyph-name="uni04E4" unicode="&#x4e4;" horiz-adv-x="830" 
d="M261 788v101h107v-101h-107zM462 788v101h106v-101h-106zM726 0h-97v578l-444 -578h-81v728h96v-564l434 564h92v-728z" />
    <glyph glyph-name="uni04E6" unicode="&#x4e6;" horiz-adv-x="892" 
d="M293 801v101h107v-101h-107zM494 801v101h106v-101h-106zM445 -12c-222 0 -373 172 -373 374v2c0 202 153 376 375 376s373 -172 373 -374v-2c0 -202 -153 -376 -375 -376zM447 76c160 0 273 128 273 286v2c0 158 -116 288 -275 288c-160 0 -273 -128 -273 -286v-2
c0 -158 116 -288 275 -288z" />
    <glyph glyph-name="uni04E8" unicode="&#x4e8;" horiz-adv-x="890" 
d="M444 -12c-221 0 -372 172 -372 374v2c0 202 153 376 374 376s372 -172 372 -374v-2c0 -202 -153 -376 -374 -376zM444 655c-148 0 -256 -105 -274 -246h548c-19 140 -128 246 -274 246zM446 73c149 0 257 107 273 250h-549c17 -143 128 -250 276 -250z" />
    <glyph glyph-name="uni04EE" unicode="&#x4ee;" horiz-adv-x="748" 
d="M210 807v75h352v-75h-352zM297 0h-108l149 252l-302 476h110l246 -392l221 392h108z" />
    <glyph glyph-name="uni04F0" unicode="&#x4f0;" horiz-adv-x="748" 
d="M233 788v101h107v-101h-107zM434 788v101h106v-101h-106zM297 0h-108l149 252l-302 476h110l246 -392l221 392h108z" />
    <glyph glyph-name="uni04F2" unicode="&#x4f2;" horiz-adv-x="748" 
d="M422 788l108 139l89 -41l-123 -98h-74zM255 788l109 139l89 -41l-123 -98h-75zM297 0h-108l149 252l-302 476h110l246 -392l221 392h108z" />
    <glyph glyph-name="uni04F4" unicode="&#x4f4;" horiz-adv-x="746" 
d="M210 788v101h107v-101h-107zM411 788v101h106v-101h-106zM546 0v276c-61 -17 -133 -26 -188 -26c-169 0 -273 71 -273 245v233h97v-218c0 -124 60 -172 185 -172c55 0 120 9 179 26v364h96v-728h-96z" />
    <glyph glyph-name="uni04F8" unicode="&#x4f8;" horiz-adv-x="989" 
d="M340 788v101h107v-101h-107zM541 788v101h106v-101h-106zM789 0v728h96v-728h-96zM104 0v728h96v-257h178c165 0 277 -82 277 -231v-1c0 -153 -121 -239 -288 -239h-263zM200 88h170c113 0 188 56 188 149v1c0 95 -72 146 -183 146h-175v-296z" />
    <glyph glyph-name="uni0431.srb" horiz-adv-x="670" 
d="M552 759v-82l-288 1c-35 0 -52 -14 -52 -34s14 -32 52 -53l177 -96c102 -53 171 -126 171 -243v-1c0 -142 -110 -264 -280 -263c-162 0 -276 113 -276 259v1c0 130 91 234 238 247l-69 40c-74 41 -104 70 -104 125c0 54 43 99 143 99h288zM334 69c110 0 184 78 184 183v1
c0 104 -79 181 -182 180c-111 0 -185 -83 -185 -185v-1c0 -101 77 -179 183 -178z" />
    <glyph glyph-name="uni0463" unicode="&#x463;" horiz-adv-x="710" 
d="M299 343h160c128 0 207 -63 207 -169v-2c0 -104 -78 -172 -212 -172h-248v460h-176v81h176v218h93v-218h219v-80h-219v-118zM299 267v-190h154c79 0 119 36 119 95v1c0 58 -40 94 -119 94h-154z" />
    <glyph glyph-name="uni0473" unicode="&#x473;" horiz-adv-x="681" 
d="M340 -12c-163 0 -282 127 -282 280v2c0 153 121 283 284 283c162 0 281 -127 281 -281v-2c0 -153 -120 -282 -283 -282zM340 474c-101 0 -175 -70 -190 -164h380c-17 95 -94 164 -190 164zM342 67c101 0 176 71 189 167h-381c15 -97 93 -167 192 -167z" />
    <glyph glyph-name="uni0475" unicode="&#x475;" horiz-adv-x="634" 
d="M260 -4l-222 545h102l163 -433l107 272c48 125 98 165 193 165h13v-81h-2c-52 0 -83 -22 -119 -107l-152 -361h-83z" />
    <glyph glyph-name="uni0491" unicode="&#x491;" horiz-adv-x="523" 
d="M90 0v541h310v136h87v-221h-303v-456h-94z" />
    <glyph glyph-name="uni0454" unicode="&#x454;" horiz-adv-x="605" 
d="M555 467l-53 -67c-45 42 -93 72 -163 72c-96 0 -173 -66 -186 -160h278v-78l-279 1c11 -98 88 -167 190 -167c67 0 121 29 165 73l53 -60c-57 -57 -124 -93 -224 -93c-161 0 -278 125 -278 280v2c0 156 118 283 280 283c100 0 164 -36 217 -86z" />
    <glyph glyph-name="uni0456" unicode="&#x456;" horiz-adv-x="289" 
d="M92 649v98h105v-98h-105zM98 0v541h93v-541h-93z" />
    <glyph glyph-name="uni0457" unicode="&#x457;" horiz-adv-x="289" 
d="M-2 619v106h104v-106h-104zM186 619v106h104v-106h-104zM98 0v541h93v-541h-93z" />
    <glyph glyph-name="uni0452" unicode="&#x452;" horiz-adv-x="630" 
d="M372 591h-187v-153c41 11 97 21 147 21c138 0 220 -60 220 -202v-221c0 -137 -60 -206 -184 -206c-25 0 -44 3 -66 8v78c17 -4 35 -7 53 -7c65 0 102 32 104 127v214c0 89 -45 123 -139 123c-48 0 -91 -8 -135 -21v-352h-93v591h-113v77h113v91h93v-91h187v-77z" />
    <glyph glyph-name="uni0458" unicode="&#x458;" horiz-adv-x="289" 
d="M92 649v98h105v-98h-105zM52 -170c-21 0 -35 2 -53 5v77c12 -2 27 -3 38 -3c36 0 61 21 61 70v562h93v-565c0 -99 -51 -146 -139 -146z" />
    <glyph glyph-name="uni0459" unicode="&#x459;" horiz-adv-x="879" 
d="M385 0v466h-2l-270 -466h-100l312 541h154v-180h143c132 0 213 -68 213 -179v-1c0 -109 -79 -181 -218 -181h-232zM478 79h137c84 0 126 38 126 102v1c0 59 -41 101 -125 100h-138v-203z" />
    <glyph glyph-name="uni045A" unicode="&#x45a;" horiz-adv-x="971" 
d="M570 282v-203h137c84 0 125 38 125 102v1c0 59 -41 101 -124 100h-138zM570 541v-180h143c132 0 214 -68 214 -179v-1c0 -109 -80 -181 -219 -181h-231v230h-293v-230h-94v541h94v-225h293v225h93z" />
    <glyph glyph-name="uni045B" unicode="&#x45b;" horiz-adv-x="630" 
d="M185 759v-91h187v-77h-187v-153c41 11 97 21 147 21c138 0 220 -60 220 -202v-257h-93v250c0 89 -45 123 -139 123c-48 0 -91 -8 -135 -21v-352h-93v591h-113v77h113v91h93z" />
    <glyph glyph-name="uni045F" unicode="&#x45f;" horiz-adv-x="668" 
d="M90 0v541h94v-456h299v456h94v-541h-200v-140h-86v140h-201z" />
    <glyph glyph-name="uni045E" unicode="&#x45e;" horiz-adv-x="625" 
d="M314 617c-90 0 -154 50 -161 136h67c12 -38 41 -65 94 -65s82 27 94 65h67c-7 -86 -71 -136 -161 -136zM322 105l164 436h99l-223 -558c-46 -112 -96 -153 -180 -153c-47 0 -81 11 -119 30l32 72c25 -13 49 -20 81 -20c44 0 72 22 101 89l-240 540h102z" />
    <glyph glyph-name="uni0453" unicode="&#x453;" horiz-adv-x="523" 
d="M238 619l101 156l92 -42l-121 -114h-72zM90 0v541h397v-85h-303v-456h-94z" />
    <glyph glyph-name="uni0455" unicode="&#x455;" horiz-adv-x="527" 
d="M271 -10c-77 0 -162 29 -226 79l46 66c59 -44 123 -68 184 -68s103 30 103 77v2c0 51 -61 70 -130 90c-83 24 -176 54 -176 154v2c0 97 80 159 187 159c66 0 140 -24 196 -61l-41 -69c-51 32 -108 52 -158 52c-59 0 -96 -30 -96 -71v-2c0 -48 65 -67 134 -88
c83 -25 173 -58 173 -155v-2c0 -107 -86 -165 -196 -165z" />
    <glyph glyph-name="uni045C" unicode="&#x45c;" horiz-adv-x="609" 
d="M273 619l101 156l92 -42l-121 -114h-72zM184 541v-227h87l194 227h116l-235 -264l241 -277h-116l-198 232h-89v-232h-94v541h94z" />
    <glyph glyph-name="uni0450" unicode="&#x450;" horiz-adv-x="627" 
d="M284 619l-121 114l92 42l101 -156h-72zM330 -12c-150 0 -272 113 -272 281v2c0 156 110 282 261 282c164 0 255 -130 255 -288c0 -10 -1 -18 -2 -29h-419c12 -108 89 -169 179 -169c71 0 120 28 164 73l57 -51c-53 -61 -121 -101 -223 -101zM152 303h327
c-8 93 -62 171 -161 171c-90 0 -155 -72 -166 -171z" />
    <glyph glyph-name="uni045D" unicode="&#x45d;" horiz-adv-x="671" 
d="M301 619l-121 114l92 42l101 -156h-72zM90 0v541h94v-397l307 397h90v-541h-93v401l-311 -401h-87z" />
    <glyph glyph-name="uni0493" unicode="&#x493;" horiz-adv-x="543" 
d="M110 0v224h-72v63h72v254h397v-85h-303v-169h144v-63h-144v-224h-94z" />
    <glyph glyph-name="uni0497" unicode="&#x497;" horiz-adv-x="928" 
d="M887 541l-229 -265l164 -191h93v-225h-86v140h-47l-195 232h-83l1 -232h-92l1 232h-85l-194 -232h-112l237 272l-229 269h114l188 -227h81l-1 227h92l-1 -227h82l189 227h112z" />
    <glyph glyph-name="uni0499" unicode="&#x499;" horiz-adv-x="587" 
d="M45 62l48 67c53 -37 120 -62 193 -62c93 0 148 35 148 88v1c0 50 -54 81 -140 80h-121v74h119c82 0 127 32 127 82v1c0 49 -47 81 -130 81c-65 0 -129 -22 -189 -65l-49 63c66 49 144 81 242 81c136 0 220 -62 220 -151v-1c0 -69 -50 -106 -105 -125
c65 -14 119 -56 119 -128v-1c0 -79 -71 -146 -200 -157l3 -130h-88l3 130c-80 7 -147 33 -200 72z" />
    <glyph glyph-name="uni049B" unicode="&#x49b;" horiz-adv-x="613" 
d="M184 541v-227h87l194 227h116l-235 -264l167 -192h86v-225h-86v140h-42l-198 232h-89v-232h-94v541h94z" />
    <glyph glyph-name="uni049D" unicode="&#x49d;" horiz-adv-x="657" 
d="M622 541l-210 -258l211 -283h-109l-174 240h-19v-161h-59l1 161h-79v-240h-94v541h94v-225h79l-1 158h59v-158h19l174 225h108z" />
    <glyph glyph-name="uni04A1" unicode="&#x4a1;" horiz-adv-x="724" 
d="M299 541v-227h87l194 227h116l-235 -264l241 -277h-116l-198 232h-89v-232h-94v458h-175v83h269z" />
    <glyph glyph-name="uni04A3" unicode="&#x4a3;" horiz-adv-x="686" 
d="M89 0v541h94v-225h301v225h93v-456h68v-225h-86v140h-75v230h-301v-230h-94z" />
    <glyph glyph-name="uni04A5" unicode="&#x4a5;" horiz-adv-x="899" 
d="M477 0v230h-293v-230h-94v541h94v-225h293v225h386v-85h-293v-456h-93z" />
    <glyph glyph-name="uni04AB" unicode="&#x4ab;" horiz-adv-x="602" 
d="M287 -140l3 132c-136 21 -232 138 -232 276v2c0 153 119 283 279 283c102 0 165 -42 216 -96l-60 -64c-42 43 -87 77 -157 77c-104 0 -183 -89 -183 -198v-2c0 -111 80 -199 188 -199c66 0 115 32 158 76l58 -56c-48 -53 -103 -92 -185 -101l3 -130h-88z" />
    <glyph glyph-name="uni04AF" unicode="&#x4af;" horiz-adv-x="621" 
d="M583 541l-226 -529v-178h-94v180l-225 527h103l170 -428l171 428h101z" />
    <glyph glyph-name="uni04B1" unicode="&#x4b1;" horiz-adv-x="621" 
d="M523 63v-63h-166v-166h-94v166h-165v63h144l-204 478h103l170 -428l171 428h101l-205 -478h145z" />
    <glyph glyph-name="uni04B3" unicode="&#x4b3;" horiz-adv-x="613" 
d="M155 541l149 -203l150 203h103l-201 -264l145 -192h89v-225h-86v140h-45l-157 214l-157 -214h-103l207 275l-199 266h105z" />
    <glyph glyph-name="uni04B7" unicode="&#x4b7;" horiz-adv-x="639" 
d="M437 0v185c-40 -10 -96 -21 -147 -21c-138 0 -219 60 -219 202v175h93v-167c0 -90 45 -124 138 -124c49 0 92 8 135 21v270h94v-456h66v-225h-86v140h-74z" />
    <glyph glyph-name="uni04B9" unicode="&#x4b9;" horiz-adv-x="621" 
d="M437 0v185c-30 -8 -68 -16 -107 -20v-112h-59v111c-115 5 -200 58 -200 200v177h93v-164c0 -86 37 -119 108 -126l-1 156h59v-157c38 3 72 10 107 21v270h94v-541h-94z" />
    <glyph glyph-name="uni04BB" unicode="&#x4bb;" horiz-adv-x="650" 
d="M90 0v759h94v-309c36 56 90 103 180 103c129 0 203 -87 203 -214v-339h-94v313c0 96 -51 154 -139 154c-86 0 -150 -62 -150 -159v-308h-94z" />
    <glyph glyph-name="uni04CF" unicode="&#x4cf;" horiz-adv-x="289" 
d="M98 0v759h93v-759h-93z" />
    <glyph glyph-name="uni04C2" unicode="&#x4c2;" horiz-adv-x="918" 
d="M459 617c-90 0 -154 50 -161 136h67c12 -38 41 -65 94 -65s82 27 94 65h67c-7 -86 -71 -136 -161 -136zM505 541l-1 -227h82l189 227h112l-229 -265l237 -276h-113l-195 232h-83l1 -232h-92l1 232h-85l-194 -232h-112l237 272l-229 269h114l188 -227h81l-1 227h92z" />
    <glyph glyph-name="uni04D1" unicode="&#x4d1;" horiz-adv-x="612" 
d="M307 617c-90 0 -154 50 -161 136h67c12 -38 41 -65 94 -65s82 27 94 65h67c-7 -86 -71 -136 -161 -136zM271 61c95 0 170 56 170 137v47c-37 12 -87 23 -148 23c-95 0 -149 -41 -149 -105v-2c0 -63 58 -100 127 -100zM250 -12c-101 0 -199 58 -199 168v2
c0 115 94 175 229 175c67 0 113 -9 160 -23v18c0 90 -56 138 -153 138c-63 0 -112 -15 -161 -38l-27 75c59 27 118 46 199 46c78 0 137 -21 176 -60c38 -38 56 -92 56 -161v-328h-91v77c-37 -47 -97 -89 -189 -89z" />
    <glyph glyph-name="uni04D3" unicode="&#x4d3;" horiz-adv-x="612" 
d="M161 619v106h104v-106h-104zM349 619v106h104v-106h-104zM271 61c95 0 170 56 170 137v47c-37 12 -87 23 -148 23c-95 0 -149 -41 -149 -105v-2c0 -63 58 -100 127 -100zM250 -12c-101 0 -199 58 -199 168v2c0 115 94 175 229 175c67 0 113 -9 160 -23v18
c0 90 -56 138 -153 138c-63 0 -112 -15 -161 -38l-27 75c59 27 118 46 199 46c78 0 137 -21 176 -60c38 -38 56 -92 56 -161v-328h-91v77c-37 -47 -97 -89 -189 -89z" />
    <glyph glyph-name="uni04D5" unicode="&#x4d5;" horiz-adv-x="999" 
d="M524 303h326c-8 93 -61 171 -161 171c-89 0 -155 -72 -165 -171zM255 -12c-107 0 -204 59 -204 168v2c0 115 93 175 226 175c63 0 108 -9 154 -23v18c0 90 -53 138 -148 138c-62 0 -108 -15 -157 -38l-27 75c60 28 114 46 195 46c99 0 167 -37 196 -108
c43 68 116 112 202 112c162 0 253 -130 253 -288c0 -10 0 -18 -1 -29h-420c12 -108 89 -169 180 -169c70 0 119 28 163 73l57 -51c-53 -61 -121 -101 -222 -101c-87 0 -165 38 -214 103c-58 -57 -135 -103 -233 -103zM268 62c73 0 135 35 184 88c-11 29 -19 61 -21 96
c-38 11 -86 22 -141 22c-93 0 -146 -41 -146 -105v-2c0 -63 56 -99 124 -99z" />
    <glyph glyph-name="uni04D7" unicode="&#x4d7;" horiz-adv-x="627" 
d="M318 617c-90 0 -154 50 -161 136h67c12 -38 41 -65 94 -65s82 27 94 65h67c-7 -86 -71 -136 -161 -136zM330 -12c-150 0 -272 113 -272 281v2c0 156 110 282 261 282c164 0 255 -130 255 -288c0 -10 -1 -18 -2 -29h-419c12 -108 89 -169 179 -169c71 0 120 28 164 73
l57 -51c-53 -61 -121 -101 -223 -101zM152 303h327c-8 93 -62 171 -161 171c-90 0 -155 -72 -166 -171z" />
    <glyph glyph-name="uni04D9" unicode="&#x4d9;" horiz-adv-x="627" 
d="M297 554c151 0 273 -114 273 -282v-2c0 -156 -110 -282 -261 -282c-164 0 -255 131 -255 288c0 11 0 18 1 29h419c-11 108 -88 169 -179 169c-70 0 -119 -28 -163 -73l-57 51c53 61 121 102 222 102zM475 238h-326c8 -92 61 -171 161 -171c89 0 155 72 165 171z" />
    <glyph glyph-name="uni04DD" unicode="&#x4dd;" horiz-adv-x="918" 
d="M313 619v106h104v-106h-104zM501 619v106h104v-106h-104zM505 541l-1 -227h82l189 227h112l-229 -265l237 -276h-113l-195 232h-83l1 -232h-92l1 232h-85l-194 -232h-112l237 272l-229 269h114l188 -227h81l-1 227h92z" />
    <glyph glyph-name="uni04DF" unicode="&#x4df;" horiz-adv-x="587" 
d="M144 619v106h104v-106h-104zM332 619v106h104v-106h-104zM45 62l48 67c53 -37 120 -62 193 -62c93 0 148 35 148 88v1c0 50 -54 81 -140 80h-121v74h119c82 0 127 32 127 82v1c0 49 -47 81 -130 81c-65 0 -129 -22 -189 -65l-49 63c66 49 144 81 242 81
c136 0 220 -62 220 -151v-1c0 -69 -50 -106 -105 -125c65 -14 119 -56 119 -128v-1c0 -87 -85 -159 -240 -159c-99 0 -180 29 -242 74z" />
    <glyph glyph-name="uni04E3" unicode="&#x4e3;" horiz-adv-x="671" 
d="M168 637v73h334v-73h-334zM90 0v541h94v-397l307 397h90v-541h-93v401l-311 -401h-87z" />
    <glyph glyph-name="uni04E5" unicode="&#x4e5;" horiz-adv-x="671" 
d="M189 619v106h104v-106h-104zM377 619v106h104v-106h-104zM90 0v541h94v-397l307 397h90v-541h-93v401l-311 -401h-87z" />
    <glyph glyph-name="uni04E7" unicode="&#x4e7;" horiz-adv-x="684" 
d="M196 619v106h104v-106h-104zM384 619v106h104v-106h-104zM341 -12c-164 0 -283 127 -283 280v2c0 153 121 283 285 283c163 0 283 -127 283 -281v-2c0 -153 -121 -282 -285 -282zM343 71c112 0 187 89 187 197v2c0 110 -81 200 -189 200c-112 0 -188 -90 -188 -198v-2
c0 -109 81 -199 190 -199z" />
    <glyph glyph-name="uni04E9" unicode="&#x4e9;" horiz-adv-x="681" 
d="M340 -12c-163 0 -282 127 -282 280v2c0 153 121 283 284 283c162 0 281 -127 281 -281v-2c0 -153 -120 -282 -283 -282zM340 474c-101 0 -175 -70 -190 -164h380c-17 95 -94 164 -190 164zM342 67c101 0 176 71 189 167h-381c15 -97 93 -167 192 -167z" />
    <glyph glyph-name="uni04EF" unicode="&#x4ef;" horiz-adv-x="625" 
d="M147 637v73h334v-73h-334zM322 105l164 436h99l-223 -558c-46 -112 -96 -153 -180 -153c-47 0 -81 11 -119 30l32 72c25 -13 49 -20 81 -20c44 0 72 22 101 89l-240 540h102z" />
    <glyph glyph-name="uni04F1" unicode="&#x4f1;" horiz-adv-x="625" 
d="M168 619v106h104v-106h-104zM356 619v106h104v-106h-104zM322 105l164 436h99l-223 -558c-46 -112 -96 -153 -180 -153c-47 0 -81 11 -119 30l32 72c25 -13 49 -20 81 -20c44 0 72 22 101 89l-240 540h102z" />
    <glyph glyph-name="uni04F3" unicode="&#x4f3;" horiz-adv-x="625" 
d="M189 619l100 156l88 -41l-117 -115h-71zM350 619l102 156l88 -41l-118 -115h-72zM322 105l164 436h99l-223 -558c-46 -112 -96 -153 -180 -153c-47 0 -81 11 -119 30l32 72c25 -13 49 -20 81 -20c44 0 72 22 101 89l-240 540h102z" />
    <glyph glyph-name="uni04F5" unicode="&#x4f5;" horiz-adv-x="621" 
d="M155 619v106h104v-106h-104zM343 619v106h104v-106h-104zM437 0v185c-40 -10 -96 -21 -147 -21c-138 0 -219 60 -219 202v175h93v-167c0 -90 45 -124 138 -124c49 0 92 8 135 21v270h94v-541h-94z" />
    <glyph glyph-name="uni04F9" unicode="&#x4f9;" horiz-adv-x="830" 
d="M269 619v106h104v-106h-104zM457 619v106h104v-106h-104zM646 0v541h94v-541h-94zM184 541v-180h153c132 0 214 -68 214 -179v-1c0 -109 -80 -181 -219 -181h-242v541h94zM183 282v-203h148c84 0 125 38 125 102v1c0 59 -41 101 -124 100h-149z" />
    <glyph glyph-name="zero" unicode="0" horiz-adv-x="755" 
d="M376 -12c-189 0 -309 169 -309 374v2c0 205 123 376 311 376s310 -169 310 -374v-2c0 -205 -123 -376 -312 -376zM378 75c130 0 210 133 210 287v2c0 155 -83 289 -212 289c-128 0 -210 -132 -210 -287v-2c0 -154 83 -289 212 -289z" />
    <glyph glyph-name="one" unicode="1" horiz-adv-x="393" 
d="M190 0v635l-135 -42l-22 78l183 62h69v-733h-95z" />
    <glyph glyph-name="two" unicode="2" horiz-adv-x="635" 
d="M54 0v75l260 227c108 95 147 149 147 219c0 81 -62 131 -138 131c-78 0 -129 -41 -187 -120l-69 52c67 98 135 154 264 154c134 0 230 -87 230 -209v-2c0 -109 -58 -173 -186 -283l-181 -157h374v-87h-514z" />
    <glyph glyph-name="three" unicode="3" horiz-adv-x="647" 
d="M327 -12c-123 0 -213 53 -273 128l69 63c54 -67 119 -105 206 -105c83 0 149 53 149 132v2c0 85 -79 132 -193 132h-50l-18 59l219 244h-343v85h470v-71l-221 -240c122 -11 233 -71 233 -205v-2c0 -131 -107 -222 -248 -222z" />
    <glyph glyph-name="three.alt" horiz-adv-x="638" 
d="M324 -12c-118 0 -214 53 -277 130l70 60c52 -63 119 -104 209 -104c91 0 154 50 154 127v2c0 78 -68 123 -184 123h-76v82h78c96 0 162 48 162 125v2c0 68 -57 119 -147 119c-77 0 -132 -38 -181 -101l-69 53c59 81 135 134 252 134c143 0 241 -82 241 -194v-2
c0 -95 -58 -145 -121 -171c80 -27 141 -79 141 -170v-2c0 -119 -99 -213 -252 -213z" />
    <glyph glyph-name="four" unicode="4" horiz-adv-x="709" 
d="M447 0v170h-379l-21 69l409 494h84v-483h110v-80h-110v-170h-93zM161 250h286v349z" />
    <glyph glyph-name="five" unicode="5" horiz-adv-x="648" 
d="M319 -12c-106 0 -195 48 -262 114l62 69c62 -59 129 -96 201 -96c99 0 166 63 166 150v2c0 86 -71 143 -172 143c-59 0 -106 -17 -147 -38l-62 41l21 355h424v-87h-340l-14 -214c39 16 78 29 135 29c140 0 251 -82 251 -225v-2c0 -144 -108 -241 -263 -241z" />
    <glyph glyph-name="six" unicode="6" horiz-adv-x="684" 
d="M352 -12c-83 0 -149 28 -196 74c-57 58 -90 133 -90 281v2c0 222 110 395 306 395c89 0 153 -31 217 -82l-54 -75c-53 45 -101 70 -168 70c-137 0 -202 -145 -202 -291v-5c46 64 108 102 198 102c137 0 253 -86 253 -225v-2c0 -142 -115 -244 -264 -244zM352 72
c102 0 166 69 166 156v2c0 84 -68 147 -169 147c-104 0 -172 -72 -172 -150v-2c0 -87 72 -153 175 -153z" />
    <glyph glyph-name="seven" unicode="7" horiz-adv-x="632" 
d="M136 0l329 641h-390v87h499v-72l-330 -656h-108z" />
    <glyph glyph-name="eight" unicode="8" horiz-adv-x="663" 
d="M332 -10c-157 0 -275 83 -275 207v2c0 86 58 146 144 178c-66 31 -119 82 -119 165v2c0 113 113 194 250 194s249 -81 249 -194v-2c0 -83 -53 -134 -119 -165c85 -34 144 -91 144 -177v-2c0 -126 -118 -208 -274 -208zM332 410c87 0 155 51 155 125v2
c0 67 -66 119 -155 119c-90 0 -156 -51 -156 -118v-2c0 -74 68 -126 156 -126zM332 72c112 0 178 59 178 128v2c0 77 -78 130 -178 130c-101 0 -179 -53 -179 -130v-2c0 -69 66 -128 179 -128z" />
    <glyph glyph-name="nine" unicode="9" horiz-adv-x="684" 
d="M335 344c106 0 172 75 172 155v2c0 87 -71 155 -176 155c-103 0 -165 -74 -165 -160v-2c0 -87 68 -150 169 -150zM315 75c137 0 204 144 204 282v10c-44 -64 -108 -105 -196 -105c-151 0 -255 94 -255 228v2c0 139 108 248 265 248c86 0 147 -27 195 -75
c55 -55 90 -136 90 -281v-2c0 -231 -121 -394 -306 -394c-96 0 -166 37 -227 88l54 74c58 -50 111 -75 176 -75z" />
    <glyph glyph-name="period" unicode="." horiz-adv-x="270" 
d="M81 0v120h109v-120h-109z" />
    <glyph glyph-name="comma" unicode="," horiz-adv-x="270" 
d="M61 -134l-13 42c55 16 80 45 76 92h-43v120h109v-103c0 -93 -42 -136 -129 -151z" />
    <glyph glyph-name="colon" unicode=":" horiz-adv-x="281" 
d="M86 422v119h109v-119h-109zM86 0v120h109v-120h-109z" />
    <glyph glyph-name="semicolon" unicode=";" horiz-adv-x="281" 
d="M86 422v119h109v-119h-109zM66 -134l-13 42c56 16 80 45 76 92h-43v120h109v-103c0 -93 -42 -136 -129 -151z" />
    <glyph glyph-name="ellipsis" unicode="&#x2026;" horiz-adv-x="782" 
d="M81 0v117h106v-117h-106zM338 0v117h106v-117h-106zM595 0v117h106v-117h-106z" />
    <glyph glyph-name="periodcentered" unicode="&#xb7;" horiz-adv-x="270" 
d="M81 255v119h109v-119h-109z" />
    <glyph glyph-name="ampersand" unicode="&#x26;" horiz-adv-x="732" 
d="M623 -15l-109 113c-65 -68 -141 -108 -233 -108c-133 0 -232 82 -232 205v2c0 95 61 165 169 208c-47 56 -69 101 -69 158v2c0 96 78 175 198 175c106 0 182 -74 182 -168v-2c0 -93 -66 -152 -168 -189l153 -156c31 45 59 98 85 156l76 -38c-31 -65 -64 -126 -103 -178
l124 -125zM308 435c88 29 133 71 133 130v2c0 56 -41 96 -97 96c-61 0 -104 -43 -104 -100v-2c0 -40 17 -71 68 -126zM289 70c63 0 119 33 168 85l-184 190c-89 -33 -127 -88 -127 -144v-3c0 -73 59 -128 143 -128z" />
    <glyph glyph-name="exclam" unicode="!" horiz-adv-x="300" 
d="M124 213l-29 463v52h110v-52l-29 -463h-52zM96 0v120h108v-120h-108z" />
    <glyph glyph-name="exclamdown" unicode="&#xa1;" horiz-adv-x="300" 
d="M96 608v120h108v-120h-108zM95 0v52l29 463h52l29 -463v-52h-110z" />
    <glyph glyph-name="question" unicode="?" horiz-adv-x="568" 
d="M229 213l-18 169l5 5c135 4 203 56 203 138v2c0 70 -54 123 -142 123c-73 0 -131 -33 -183 -93l-60 61c59 71 134 119 246 119c142 0 236 -85 236 -207v-3c0 -130 -97 -193 -215 -210l-10 -104h-62zM205 0v120h108v-120h-108z" />
    <glyph glyph-name="questiondown" unicode="&#xbf;" horiz-adv-x="568" 
d="M254 608v120h109v-120h-109zM288 -9c-142 0 -236 85 -236 207v3c0 130 96 193 214 210l10 104h63l17 -169l-5 -5c-135 -4 -202 -56 -202 -138v-2c0 -70 54 -123 141 -123c74 0 132 33 183 93l61 -61c-60 -71 -135 -119 -246 -119z" />
    <glyph glyph-name="quotedblleft" unicode="&#x201c;" horiz-adv-x="488" 
d="M76 479v103c0 93 42 136 129 151l12 -42c-55 -16 -79 -45 -75 -92h42v-120h-108zM294 479v103c0 93 42 136 128 151l13 -42c-55 -16 -79 -45 -75 -92h42v-120h-108z" />
    <glyph glyph-name="quotedblright" unicode="&#x201d;" horiz-adv-x="488" 
d="M66 474l-13 42c56 17 80 45 76 92h-43v120h109v-102c0 -94 -42 -137 -129 -152zM284 474l-13 42c56 17 80 45 76 92h-43v120h109v-102c0 -94 -42 -137 -129 -152z" />
    <glyph glyph-name="quoteleft" unicode="&#x2018;" horiz-adv-x="270" 
d="M76 479v103c0 93 42 136 129 151l12 -42c-55 -16 -79 -45 -75 -92h42v-120h-108z" />
    <glyph glyph-name="quoteright" unicode="&#x2019;" horiz-adv-x="270" 
d="M66 474l-13 42c56 17 80 45 76 92h-43v120h109v-102c0 -94 -42 -137 -129 -152z" />
    <glyph glyph-name="quotedblbase" unicode="&#x201e;" horiz-adv-x="488" 
d="M61 -134l-13 42c55 16 80 45 76 92h-43v120h109v-103c0 -93 -42 -136 -129 -151zM279 -134l-13 42c55 16 80 45 76 92h-43v120h109v-103c0 -93 -42 -136 -129 -151z" />
    <glyph glyph-name="quotesinglbase" unicode="&#x201a;" horiz-adv-x="270" 
d="M61 -134l-13 42c55 16 80 45 76 92h-43v120h109v-103c0 -93 -42 -136 -129 -151z" />
    <glyph glyph-name="guillemotleft" unicode="&#xab;" horiz-adv-x="598" 
d="M227 44l-174 222v9l174 223l67 -37l-135 -189l135 -191zM467 44l-174 222v9l174 223l67 -37l-135 -189l135 -191z" />
    <glyph glyph-name="guillemotright" unicode="&#xbb;" horiz-adv-x="598" 
d="M130 44l-67 36l136 190l-136 190l67 38l174 -223v-9zM371 44l-67 36l135 190l-135 190l67 38l174 -223v-9z" />
    <glyph glyph-name="guilsinglleft" unicode="&#x2039;" horiz-adv-x="357" 
d="M227 44l-174 222v9l174 223l67 -37l-135 -189l135 -191z" />
    <glyph glyph-name="guilsinglright" unicode="&#x203a;" horiz-adv-x="357" 
d="M130 44l-67 36l136 190l-136 190l67 38l174 -223v-9z" />
    <glyph glyph-name="hyphen" unicode="-" horiz-adv-x="432" 
d="M68 266v96h296v-96h-296z" />
    <glyph glyph-name="endash" unicode="&#x2013;" horiz-adv-x="557" 
d="M68 269v91h421v-91h-421z" />
    <glyph glyph-name="emdash" unicode="&#x2014;" horiz-adv-x="942" 
d="M68 269v91h805v-91h-805z" />
    <glyph glyph-name="underscore" unicode="_" horiz-adv-x="632" 
d="M2 -166v75h628v-75h-628z" />
    <glyph glyph-name="slash" unicode="/" horiz-adv-x="540" 
d="M-19 -133l479 963h84l-479 -963h-84z" />
    <glyph glyph-name="backslash" unicode="\" horiz-adv-x="540" 
d="M475 -133l-479 963h85l478 -963h-84z" />
    <glyph glyph-name="bar" unicode="|" horiz-adv-x="332" 
d="M127 -133v963h78v-963h-78z" />
    <glyph glyph-name="parenleft" unicode="(" horiz-adv-x="461" 
d="M361 -147c-186 104 -288 253 -288 445v1c0 191 102 342 288 445l41 -63c-155 -100 -234 -220 -234 -383v-1c0 -160 79 -282 234 -381z" />
    <glyph glyph-name="parenright" unicode=")" horiz-adv-x="461" 
d="M101 -147l-41 63c154 100 233 220 233 382v1c0 161 -79 283 -233 382l41 63c186 -104 288 -253 288 -446v-1c0 -190 -102 -341 -288 -444z" />
    <glyph glyph-name="bracketleft" unicode="[" horiz-adv-x="470" 
d="M100 -135v863h304v-73h-215v-717h215v-73h-304z" />
    <glyph glyph-name="bracketright" unicode="]" horiz-adv-x="470" 
d="M65 -135v73h216v717h-216v73h305v-863h-305z" />
    <glyph glyph-name="braceleft" unicode="{" horiz-adv-x="511" 
d="M437 -147c-188 35 -229 102 -229 209c0 16 1 61 1 78c0 82 -30 122 -121 122h-27v72h27c91 0 121 41 121 123c0 17 -1 62 -1 78c0 107 41 174 229 209l15 -62c-139 -37 -156 -72 -156 -160c0 -21 1 -56 1 -78c0 -86 -41 -125 -108 -146c70 -22 108 -59 108 -145
c0 -22 -1 -57 -1 -78c0 -88 17 -123 156 -160z" />
    <glyph glyph-name="braceright" unicode="}" horiz-adv-x="511" 
d="M75 -147l-16 62c140 37 156 72 156 160c0 21 -1 56 -1 78c0 86 41 124 108 145c-69 23 -108 60 -108 146c0 22 1 57 1 78c0 88 -16 123 -156 160l16 62c188 -35 229 -102 229 -209c0 -16 -2 -61 -2 -78c0 -82 30 -123 121 -123h27v-72h-27c-91 0 -121 -40 -121 -122
c0 -17 2 -62 2 -78c0 -107 -41 -174 -229 -209z" />
    <glyph glyph-name="at" unicode="@" horiz-adv-x="1027" 
d="M523 -168c-266 0 -464 204 -464 453s201 455 456 455c254 0 453 -194 453 -411c0 -177 -97 -256 -196 -256c-78 0 -128 35 -149 83c-40 -45 -92 -83 -168 -83c-103 0 -187 75 -187 191c0 148 120 260 239 260c79 0 124 -41 150 -84l14 69l79 -12l-43 -243
c-5 -26 -7 -47 -7 -58c0 -51 32 -81 87 -81c73 0 142 68 142 214c0 191 -177 375 -414 375c-239 0 -417 -189 -417 -419c0 -231 176 -417 425 -417c104 0 179 24 258 70l18 -28c-81 -49 -168 -78 -276 -78zM474 145c40 0 78 18 106 47c34 33 56 82 56 133
c0 73 -51 126 -121 126c-39 0 -78 -18 -108 -48c-33 -33 -55 -80 -55 -134c0 -78 51 -124 122 -124z" />
    <glyph glyph-name="copyright" unicode="&#xa9;" horiz-adv-x="871" 
d="M435 -12c-212 0 -376 169 -376 374v2c0 205 167 376 378 376s375 -169 375 -374v-2c0 -205 -166 -376 -377 -376zM435 22c194 0 341 154 341 342v2c0 188 -146 340 -339 340c-195 0 -342 -154 -342 -342v-2c0 -188 146 -340 340 -340zM440 168c-112 0 -196 90 -196 200v2
c0 109 84 201 198 201c71 0 113 -27 151 -63l-42 -46c-30 28 -65 50 -110 50c-76 0 -132 -64 -132 -141v-2c0 -77 58 -142 133 -142c48 0 78 19 113 51l40 -41c-41 -41 -84 -69 -155 -69z" />
    <glyph glyph-name="published" unicode="&#x2117;" horiz-adv-x="871" 
d="M435 -12c-212 0 -376 169 -376 374v2c0 205 167 376 378 376s375 -169 375 -374v-2c0 -205 -166 -376 -377 -376zM435 22c194 0 341 154 341 342v2c0 188 -146 340 -339 340c-195 0 -342 -154 -342 -342v-2c0 -188 146 -340 340 -340zM306 177v389h154
c92 0 151 -48 151 -127v-2c0 -88 -74 -131 -159 -131h-83v-129h-63zM369 362h84c57 0 93 28 93 73v2c0 48 -35 72 -91 72h-86v-147z" />
    <glyph glyph-name="registered.alt" horiz-adv-x="871" 
d="M435 -12c-212 0 -376 169 -376 374v2c0 205 167 376 378 376s375 -169 375 -374v-2c0 -205 -166 -376 -377 -376zM435 22c194 0 341 154 341 342v2c0 188 -146 340 -339 340c-195 0 -342 -154 -342 -342v-2c0 -188 146 -340 340 -340zM349 379h107c52 0 88 25 88 67v2
c0 40 -33 64 -86 64h-109v-133zM287 180v389h173c50 0 91 -15 117 -41c18 -18 30 -45 30 -77v-2c0 -63 -39 -101 -97 -115l116 -154h-76l-107 144h-94v-144h-62z" />
    <glyph glyph-name="registered" unicode="&#xae;" horiz-adv-x="421" 
d="M210 374c-102 0 -181 83 -181 181v1c0 99 80 182 181 182c102 0 181 -82 181 -181v-1c0 -98 -80 -182 -181 -182zM210 394c91 0 160 74 160 162v1c0 89 -68 162 -160 162c-90 0 -160 -74 -160 -163v-1c0 -88 69 -161 160 -161zM177 561h43c23 0 36 12 36 29v1
c0 17 -13 29 -36 28h-43v-58zM138 467v186h85c42 0 73 -20 73 -60v-1c0 -28 -18 -49 -43 -56l49 -69h-47l-42 63h-36v-63h-39z" />
    <glyph glyph-name="servicemark" unicode="&#x2120;" horiz-adv-x="742" 
d="M372 408v320h54l108 -168l109 168h52v-320h-49v240l-110 -168h-5l-110 168v-240h-49zM177 402c-51 0 -102 19 -140 52l29 36c33 -28 70 -45 113 -45c42 0 68 20 68 48c0 26 -18 39 -81 54c-72 16 -114 37 -114 93c0 55 47 94 116 94c46 0 87 -15 120 -42l-28 -36
c-29 22 -59 34 -94 34c-40 0 -64 -20 -64 -45c0 -26 18 -40 82 -54c71 -16 113 -41 113 -93c0 -59 -52 -96 -120 -96z" />
    <glyph glyph-name="trademark" unicode="&#x2122;" horiz-adv-x="726" 
d="M132 408v273h-101v47h254v-47h-102v-273h-51zM355 408v320h54l109 -168l108 168h53v-320h-50v240l-109 -168h-6l-109 168v-240h-50z" />
    <glyph glyph-name="asterisk" unicode="*" horiz-adv-x="455" 
d="M197 408l13 129l-107 -75l-31 53l120 54l-120 55l31 53l107 -76l-13 129h61l-13 -129l107 76l31 -53l-120 -55l120 -54l-31 -53l-107 75l13 -129h-61z" />
    <glyph glyph-name="dagger" unicode="&#x2020;" horiz-adv-x="434" 
d="M186 248l7 290l-128 -8v62l127 -8l-10 144h70l-10 -144l127 8v-62l-128 8l7 -290h-62z" />
    <glyph glyph-name="daggerdbl" unicode="&#x2021;" horiz-adv-x="455" 
d="M193 0l10 144l-127 -8v62l127 -8l-7 174l7 174l-127 -8v62l127 -8l-10 144h69l-9 -144l126 8v-62l-127 8l7 -174l-7 -174l127 8v-62l-126 8l9 -144h-69z" />
    <glyph glyph-name="bullet" unicode="&#x2022;" horiz-adv-x="509" 
d="M255 227c-77 0 -140 61 -140 138v2c0 77 65 138 140 138c74 0 139 -61 139 -138v-2c0 -77 -63 -138 -139 -138z" />
    <glyph glyph-name="dollar" unicode="$" horiz-adv-x="671" 
d="M180 539c0 -55 25 -89 129 -119v228c-82 -5 -129 -51 -129 -108v-1zM508 193c0 57 -28 91 -132 118v-231c82 6 133 49 132 112v1zM577 644l-49 -73c-49 39 -100 63 -152 72v-239c156 -37 226 -98 225 -205v-1c0 -113 -91 -188 -222 -197v-103h-73v104
c-93 9 -174 46 -246 106l53 72c61 -54 121 -87 196 -97v244c-152 37 -223 94 -222 206v1c0 109 90 187 219 194v60h73v-62c78 -8 138 -37 198 -82z" />
    <glyph glyph-name="sterling" unicode="&#xa3;" horiz-adv-x="678" 
d="M73 0v58l85 22v221h-85v83h85v108c0 76 23 141 65 184c41 40 98 62 168 62c112 0 176 -49 224 -114l-73 -58c-40 50 -81 84 -151 84c-40 0 -71 -13 -94 -36c-28 -28 -42 -70 -42 -124v-106h280v-83h-280v-216h359v-85h-541z" />
    <glyph glyph-name="Euro" unicode="&#x20ac;" horiz-adv-x="757" 
d="M699 600l-73 -54c-49 70 -98 109 -181 109c-89 0 -157 -65 -188 -163h255v-72h-270c-2 -18 -3 -37 -3 -55v-1c0 -16 0 -33 2 -49h271v-72h-257c30 -103 103 -171 200 -170c78 0 128 44 177 114l69 -49c-58 -86 -131 -150 -248 -150c-151 0 -260 103 -297 255h-95v72h83
c-2 16 -2 32 -2 48v1c0 18 1 37 3 56h-84v72h97c40 143 146 249 289 248c125 0 197 -59 252 -140z" />
    <glyph glyph-name="yen" unicode="&#xa5;" horiz-adv-x="721" 
d="M105 276v73h180l-255 379h113l219 -340l221 340h109l-257 -379h182v-73h-210v-87h210v-73h-210v-116h-93v116h-209v73h209v87h-209z" />
    <glyph glyph-name="cent" unicode="&#xa2;" horiz-adv-x="612" 
d="M156 369c0 -82 43 -151 109 -182l75 382h-2c-103 0 -182 -88 -182 -198v-2zM443 734l-19 -93c50 -14 94 -42 134 -85l-60 -63c-31 31 -60 53 -93 65l-76 -388h14c66 0 118 32 160 76l57 -54c-54 -62 -121 -105 -222 -105c-7 0 -14 0 -21 1l-18 -94h-75l21 109
c-107 38 -183 142 -183 264v2c0 153 120 283 279 283h12l16 82h74z" />
    <glyph glyph-name="numbersign" unicode="#" horiz-adv-x="736" 
d="M290 472l-36 -212h192l36 212h-192zM647 262v-83h-132l-30 -179h-85l30 179h-189l-31 -179h-85l30 179h-106v83h121l35 208h-116v83h131l30 175h85l-30 -175h189l31 175h84l-30 -175h107v-83h-121l-36 -208h118z" />
    <glyph glyph-name="paragraph" unicode="&#xb6;" horiz-adv-x="553" 
d="M358 0v269h-14c-165 0 -292 79 -292 228v2c0 143 114 229 276 229h127v-728h-97z" />
    <glyph glyph-name="section" unicode="&#xa7;" horiz-adv-x="665" 
d="M407 278c61 0 103 30 103 67v2c0 33 -33 59 -140 85c-52 13 -85 18 -111 18c-62 0 -104 -30 -104 -67v-2c0 -33 33 -59 140 -85c51 -13 85 -18 112 -18zM468 238c44 -24 72 -61 72 -104v-2c0 -86 -75 -142 -196 -142c-97 0 -180 38 -238 98l58 57c48 -47 109 -79 182 -79
c68 0 100 28 100 63v2c0 37 -38 61 -160 89c-159 38 -219 77 -219 149v2c0 65 54 105 130 119c-45 24 -71 61 -71 104v2c0 86 75 142 195 142c98 0 181 -38 238 -98l-57 -57c-48 47 -110 79 -183 79c-66 0 -100 -27 -100 -63v-2c0 -36 35 -60 160 -89
c159 -38 219 -77 219 -149v-2c0 -65 -53 -105 -130 -119z" />
    <glyph glyph-name="ordfeminine" unicode="&#xaa;" horiz-adv-x="414" 
d="M188 469c48 0 87 29 87 70v23c-20 7 -43 11 -75 11c-47 0 -75 -21 -75 -52v-2c0 -32 28 -50 63 -50zM176 422c-56 0 -110 32 -110 94v2c0 64 52 97 127 97c35 0 59 -5 82 -12v6c0 46 -29 70 -79 70c-32 0 -58 -9 -88 -22l-17 48c35 16 67 26 112 26c42 0 75 -11 97 -34
c21 -20 31 -51 31 -89v-179h-57v39c-22 -28 -55 -46 -98 -46zM63 298v52h273v-52h-273z" />
    <glyph glyph-name="ordmasculine" unicode="&#xba;" horiz-adv-x="414" 
d="M206 422c-89 0 -153 70 -153 154v2c0 84 66 155 155 155c88 0 153 -69 153 -154v-2c0 -84 -66 -155 -155 -155zM208 476c55 0 92 46 92 100v2c0 55 -40 101 -94 101c-55 0 -92 -45 -92 -100v-2c0 -55 39 -101 94 -101zM57 298v52h300v-52h-300z" />
    <glyph glyph-name="degree" unicode="&#xb0;" horiz-adv-x="488" 
d="M244 410c-87 0 -166 75 -166 161v2c0 87 79 161 166 161s166 -74 166 -161v-2c0 -86 -79 -161 -166 -161zM244 469c58 0 102 48 102 102v2c0 54 -44 103 -102 103s-101 -49 -101 -103v-2c0 -54 43 -102 101 -102z" />
    <glyph glyph-name="percent" unicode="%" horiz-adv-x="880" 
d="M223 364c-100 0 -166 85 -166 184v2c0 100 67 186 168 186c99 0 166 -86 166 -184v-2c0 -99 -68 -186 -168 -186zM414 381l251 347h83l-283 -383l-250 -345h-83zM223 672c-54 0 -90 -55 -90 -120v-2c0 -69 40 -121 92 -121c54 0 90 54 90 119v2c0 68 -41 122 -92 122z
M655 -8c-99 0 -166 85 -166 184v2c0 100 68 186 168 186s166 -86 166 -184v-2c0 -100 -67 -186 -168 -186zM657 56c54 0 90 54 90 120v2c0 68 -40 121 -92 121c-54 0 -90 -54 -90 -119v-2c0 -69 41 -122 92 -122z" />
    <glyph glyph-name="perthousand" unicode="&#x2030;" horiz-adv-x="1273" 
d="M223 364c-100 0 -166 85 -166 184v2c0 100 67 186 168 186c99 0 166 -86 166 -184v-2c0 -99 -68 -186 -168 -186zM748 728l-283 -383l-250 -345h-83l282 381l251 347h83zM225 429c54 0 90 54 90 119v2c0 68 -41 122 -92 122c-54 0 -90 -55 -90 -120v-2
c0 -69 40 -121 92 -121zM1048 -8c-100 0 -166 85 -166 184v2c0 100 67 186 168 186c99 0 166 -86 166 -184v-2c0 -100 -68 -186 -168 -186zM655 -8c-99 0 -166 85 -166 184v2c0 100 68 186 168 186s166 -86 166 -184v-2c0 -100 -67 -186 -168 -186zM1050 56
c54 0 89 54 89 120v2c0 68 -40 121 -91 121c-55 0 -90 -54 -90 -119v-2c0 -69 40 -122 92 -122zM657 56c54 0 90 54 90 120v2c0 68 -40 121 -92 121c-54 0 -90 -54 -90 -119v-2c0 -69 41 -122 92 -122z" />
    <glyph glyph-name="quotedbl" unicode="&#x22;" horiz-adv-x="480" 
d="M70 437l29 291h111v-5l-90 -286h-50zM281 437l29 291h110v-5l-89 -286h-50z" />
    <glyph glyph-name="quotesingle" unicode="'" horiz-adv-x="270" 
d="M70 437l29 291h112v-5l-90 -286h-51z" />
    <glyph glyph-name="plus" unicode="+" horiz-adv-x="661" 
d="M285 113v209h-210v88h210v209h91v-209h210v-88h-210v-209h-91z" />
    <glyph glyph-name="minus" unicode="&#x2212;" horiz-adv-x="661" 
d="M586 321h-511v90h511v-90z" />
    <glyph glyph-name="divide" unicode="&#xf7;" horiz-adv-x="661" 
d="M273 518v115h115v-115h-115zM586 324h-511v84h511v-84zM273 99v115h115v-115h-115z" />
    <glyph glyph-name="equal" unicode="=" horiz-adv-x="661" 
d="M86 446v89h489v-89h-489zM86 197v89h489v-89h-489z" />
    <glyph glyph-name="multiply" unicode="&#xd7;" horiz-adv-x="661" 
d="M507 128l-177 180l-178 -180l-60 60l181 177l-181 177l62 62l178 -180l177 180l60 -59l-180 -178l180 -177z" />
    <glyph glyph-name="less" unicode="&#x3c;" horiz-adv-x="661" 
d="M562 86l-490 239v82l490 239v-93l-392 -186l392 -187v-94z" />
    <glyph glyph-name="greater" unicode="&#x3e;" horiz-adv-x="661" 
d="M99 86v93l392 186l-392 188v93l491 -239v-82z" />
    <glyph glyph-name="plusminus" unicode="&#xb1;" horiz-adv-x="661" 
d="M578 381h-204v-200h-87v200h-204v85h204v200h87v-200h204v-85zM578 0h-495v82h495v-82z" />
    <glyph glyph-name="zero.sup" unicode="&#x2070;" 
d="M209 431c-92 0 -155 85 -155 209v3c0 125 64 212 156 212s156 -86 156 -210v-3c0 -124 -66 -211 -157 -211zM209 799c-57 0 -93 -62 -93 -154v-5c0 -91 37 -153 94 -153s94 61 94 153v5c0 92 -38 154 -95 154z" />
    <glyph glyph-name="one.sup" unicode="&#xb9;" horiz-adv-x="342" 
d="M225 441h-60v346l-87 -33l-17 52l117 45h47v-410z" />
    <glyph glyph-name="one.sup_alt" 
d="M366 441h-287v53h118v293l-103 -38l-16 52l132 50h47v-357h109v-53z" />
    <glyph glyph-name="two.sup" unicode="&#xb2;" 
d="M62 441v52l148 127c54 46 78 75 78 113c0 39 -32 66 -73 66s-74 -23 -104 -67l-45 32c37 55 80 91 153 91c76 0 132 -50 132 -117c0 -57 -29 -93 -93 -147l-113 -95h209v-55h-292z" />
    <glyph glyph-name="three.sup" unicode="&#xb3;" 
d="M207 431c-68 0 -117 29 -154 71l39 42c32 -37 71 -59 116 -59c44 0 80 29 80 71c0 45 -42 70 -100 70h-37l-10 38l126 125h-190v55h267v-48l-126 -123c73 -6 132 -42 132 -116c0 -75 -62 -126 -143 -126z" />
    <glyph glyph-name="four.sup" unicode="&#x2074;" 
d="M317 530v-91h-57v91h-196l-11 54l199 266h65v-270h56v-50h-56zM261 579v199l-150 -199h150z" />
    <glyph glyph-name="five.sup" unicode="&#x2075;" 
d="M206 431c-61 0 -111 27 -151 65l39 44c35 -35 72 -54 114 -54c53 0 89 33 89 78s-37 73 -90 73c-32 0 -62 -8 -86 -19l-40 23l15 203h243v-57h-193l-8 -110c22 9 50 14 79 14c78 0 142 -45 142 -124c0 -81 -65 -136 -153 -136z" />
    <glyph glyph-name="six.sup" unicode="&#x2076;" 
d="M210 431c-42 0 -79 16 -103 40c-29 29 -51 71 -51 157v2c0 134 65 225 169 225c53 0 85 -17 117 -46l-33 -46c-25 22 -51 37 -86 37c-56 0 -102 -60 -105 -144c24 25 53 44 103 44c71 0 132 -47 132 -130c0 -80 -62 -139 -143 -139zM208 484c50 0 86 34 86 83
c0 50 -33 82 -83 82c-52 0 -88 -33 -88 -82v-1c0 -47 39 -83 85 -82z" />
    <glyph glyph-name="seven.sup" unicode="&#x2077;" 
d="M174 439h-69l179 347h-212v58h282v-46z" />
    <glyph glyph-name="eight.sup" unicode="&#x2078;" 
d="M210 431c-88 0 -150 47 -150 118c0 49 30 81 72 101c-34 17 -61 47 -61 92c0 66 62 113 140 113s138 -48 138 -113c0 -45 -26 -74 -61 -92c43 -19 73 -52 73 -99c0 -73 -64 -120 -151 -120zM211 804c-48 0 -82 -27 -82 -65c0 -40 34 -68 82 -68c46 0 81 28 81 68
c0 38 -34 65 -81 65zM211 623c-55 0 -93 -30 -93 -72c0 -41 36 -70 93 -70c55 0 92 28 92 70s-38 72 -92 72z" />
    <glyph glyph-name="nine.sup" unicode="&#x2079;" 
d="M209 632c52 0 88 33 88 84v1c0 49 -39 85 -85 84c-50 0 -86 -34 -86 -85c0 -52 33 -84 83 -84zM210 854c42 0 79 -16 103 -40c29 -29 51 -71 51 -157v-2c0 -136 -65 -224 -169 -224c-53 0 -90 18 -123 48l33 46c26 -24 54 -40 92 -40c56 0 102 56 104 139
c-23 -24 -51 -43 -101 -43c-71 0 -133 48 -133 132c0 81 62 141 143 141z" />
    <glyph glyph-name="zero.inf" unicode="&#x2080;" 
d="M209 -147c-92 0 -155 85 -155 209v3c0 125 64 212 156 212s156 -86 156 -210v-3c0 -124 -66 -211 -157 -211zM209 221c-57 0 -93 -62 -93 -154v-5c0 -91 37 -153 94 -153s94 61 94 153v5c0 92 -38 154 -95 154z" />
    <glyph glyph-name="one.inf" unicode="&#x2081;" horiz-adv-x="342" 
d="M225 -137h-60v346l-87 -33l-17 52l117 45h47v-410z" />
    <glyph glyph-name="one.inf_alt" 
d="M366 -137h-287v53h118v293l-103 -38l-16 52l132 50h47v-357h109v-53z" />
    <glyph glyph-name="two.inf" unicode="&#x2082;" 
d="M62 -137v52l148 127c54 46 78 75 78 113c0 39 -32 66 -73 66s-74 -23 -104 -67l-45 32c37 55 80 91 153 91c76 0 132 -50 132 -117c0 -57 -29 -93 -93 -147l-113 -95h209v-55h-292z" />
    <glyph glyph-name="three.inf" unicode="&#x2083;" 
d="M207 -147c-68 0 -117 29 -154 71l39 42c32 -37 71 -59 116 -59c44 0 80 29 80 71c0 45 -42 70 -100 70h-37l-10 38l126 125h-190v55h267v-48l-126 -123c73 -6 132 -42 132 -116c0 -75 -62 -126 -143 -126z" />
    <glyph glyph-name="four.inf" unicode="&#x2084;" 
d="M317 -48v-91h-57v91h-196l-11 54l199 266h65v-270h56v-50h-56zM261 1v199l-150 -199h150z" />
    <glyph glyph-name="five.inf" unicode="&#x2085;" 
d="M206 -147c-61 0 -111 27 -151 65l39 44c35 -35 72 -54 114 -54c53 0 89 33 89 78s-37 73 -90 73c-32 0 -62 -8 -86 -19l-40 23l15 203h243v-57h-193l-8 -110c22 9 50 14 79 14c78 0 142 -45 142 -124c0 -81 -65 -136 -153 -136z" />
    <glyph glyph-name="six.inf" unicode="&#x2086;" 
d="M210 -147c-42 0 -79 16 -103 40c-29 29 -51 71 -51 157v2c0 134 65 225 169 225c53 0 85 -17 117 -46l-33 -46c-25 22 -51 37 -86 37c-56 0 -102 -60 -105 -144c24 25 53 44 103 44c71 0 132 -47 132 -130c0 -80 -62 -139 -143 -139zM208 -94c50 0 86 34 86 83
c0 50 -33 82 -83 82c-52 0 -88 -33 -88 -82v-1c0 -47 39 -83 85 -82z" />
    <glyph glyph-name="seven.inf" unicode="&#x2087;" 
d="M174 -139h-69l179 347h-212v58h282v-46z" />
    <glyph glyph-name="eight.inf" unicode="&#x2088;" 
d="M210 -147c-88 0 -150 47 -150 118c0 49 30 81 72 101c-34 17 -61 47 -61 92c0 66 62 113 140 113s138 -48 138 -113c0 -45 -26 -74 -61 -92c43 -19 73 -52 73 -99c0 -73 -64 -120 -151 -120zM211 226c-48 0 -82 -27 -82 -65c0 -40 34 -68 82 -68c46 0 81 28 81 68
c0 38 -34 65 -81 65zM211 45c-55 0 -93 -30 -93 -72c0 -41 36 -70 93 -70c55 0 92 28 92 70s-38 72 -92 72z" />
    <glyph glyph-name="nine.inf" unicode="&#x2089;" 
d="M209 54c52 0 88 33 88 84v1c0 49 -39 85 -85 84c-50 0 -86 -34 -86 -85c0 -52 33 -84 83 -84zM210 276c42 0 79 -16 103 -40c29 -29 51 -71 51 -157v-2c0 -136 -65 -224 -169 -224c-53 0 -90 18 -123 48l33 46c26 -24 54 -40 92 -40c56 0 102 56 104 139
c-23 -24 -51 -43 -101 -43c-71 0 -133 48 -133 132c0 81 62 141 143 141z" />
    <glyph glyph-name="zero.num" 
d="M209 314c-92 0 -155 86 -155 210v3c0 124 64 211 156 211s156 -85 156 -209v-3c0 -125 -66 -212 -157 -212zM209 682c-57 0 -93 -61 -93 -153v-5c0 -92 37 -154 94 -154s94 62 94 154v5c0 91 -38 153 -95 153z" />
    <glyph glyph-name="one.num" horiz-adv-x="342" 
d="M225 325h-60v346l-87 -33l-17 52l117 44h47v-409z" />
    <glyph glyph-name="one.num_alt" 
d="M366 325h-287v53h118v293l-103 -38l-16 52l132 49h47v-356h109v-53z" />
    <glyph glyph-name="two.num" 
d="M62 325v52l148 127c54 46 78 74 78 113s-32 66 -73 66s-74 -23 -104 -67l-45 32c37 55 80 90 153 90c76 0 132 -50 132 -116c0 -57 -29 -93 -93 -147l-113 -95h209v-55h-292z" />
    <glyph glyph-name="three.num" 
d="M207 314c-68 0 -117 30 -154 72l39 42c32 -37 71 -59 116 -59c44 0 80 29 80 71c0 45 -42 70 -100 70h-37l-10 37l126 125h-190v56h267v-48l-126 -123c73 -6 132 -42 132 -116c0 -75 -62 -127 -143 -127z" />
    <glyph glyph-name="four.num" 
d="M317 414v-91h-57v91h-196l-11 54l199 265h65v-269h56v-50h-56zM261 463v199l-150 -199h150z" />
    <glyph glyph-name="five.num" 
d="M206 314c-61 0 -111 28 -151 66l39 44c35 -35 72 -54 114 -54c53 0 89 33 89 78s-37 73 -90 73c-32 0 -62 -8 -86 -20l-40 24l15 203h243v-57h-193l-8 -110c22 9 50 13 79 13c78 0 142 -44 142 -123c0 -82 -65 -137 -153 -137z" />
    <glyph glyph-name="six.num" 
d="M210 315c-42 0 -79 16 -103 40c-29 29 -51 71 -51 157v2c0 134 65 224 169 224c53 0 85 -16 117 -45l-33 -46c-25 22 -51 37 -86 37c-56 0 -102 -60 -105 -144c24 25 53 43 103 43c71 0 132 -47 132 -129c0 -80 -62 -139 -143 -139zM208 368c50 0 86 33 86 83
s-33 82 -83 82c-52 0 -88 -33 -88 -82v-1c0 -47 39 -83 85 -82z" />
    <glyph glyph-name="seven.num" 
d="M174 323h-69l179 347h-212v58h282v-46z" />
    <glyph glyph-name="eight.num" 
d="M210 314c-88 0 -150 48 -150 119c0 49 30 81 72 101c-34 17 -61 47 -61 92c0 66 62 112 140 112s138 -47 138 -112c0 -45 -26 -74 -61 -92c43 -19 73 -52 73 -99c0 -73 -64 -121 -151 -121zM211 688c-48 0 -82 -27 -82 -65c0 -40 34 -68 82 -68c46 0 81 27 81 68
c0 38 -34 65 -81 65zM211 507c-55 0 -93 -30 -93 -72c0 -41 36 -70 93 -70c55 0 92 28 92 70s-38 72 -92 72z" />
    <glyph glyph-name="nine.num" 
d="M209 516c52 0 88 33 88 84v1c0 48 -39 85 -85 84c-50 0 -86 -34 -86 -85c0 -52 33 -84 83 -84zM210 738c42 0 79 -16 103 -40c29 -29 51 -71 51 -157v-2c0 -137 -65 -225 -169 -225c-53 0 -90 19 -123 49l33 46c26 -24 54 -40 92 -40c56 0 102 56 104 139
c-23 -24 -51 -43 -101 -43c-71 0 -133 48 -133 132c0 81 62 141 143 141z" />
    <glyph glyph-name="zero.den" 
d="M209 -10c-92 0 -155 85 -155 209v3c0 125 64 212 156 212s156 -86 156 -210v-3c0 -124 -66 -211 -157 -211zM209 358c-57 0 -93 -62 -93 -154v-5c0 -91 37 -153 94 -153s94 61 94 153v5c0 92 -38 154 -95 154z" />
    <glyph glyph-name="one.den" horiz-adv-x="342" 
d="M225 0h-60v346l-87 -33l-17 52l117 45h47v-410z" />
    <glyph glyph-name="one.den_alt" 
d="M366 0h-287v53h118v293l-103 -38l-16 52l132 50h47v-357h109v-53z" />
    <glyph glyph-name="two.den" 
d="M62 0v52l148 127c54 46 78 75 78 113c0 39 -32 66 -73 66s-74 -23 -104 -67l-45 32c37 55 80 91 153 91c76 0 132 -50 132 -117c0 -57 -29 -93 -93 -147l-113 -95h209v-55h-292z" />
    <glyph glyph-name="three.den" 
d="M207 -10c-68 0 -117 29 -154 71l39 42c32 -37 71 -59 116 -59c44 0 80 29 80 71c0 45 -42 70 -100 70h-37l-10 38l126 125h-190v55h267v-48l-126 -123c73 -6 132 -42 132 -116c0 -75 -62 -126 -143 -126z" />
    <glyph glyph-name="four.den" 
d="M317 89v-91h-57v91h-196l-11 54l199 266h65v-270h56v-50h-56zM261 138v199l-150 -199h150z" />
    <glyph glyph-name="five.den" 
d="M206 -10c-61 0 -111 27 -151 65l39 44c35 -35 72 -54 114 -54c53 0 89 33 89 78s-37 73 -90 73c-32 0 -62 -8 -86 -19l-40 23l15 203h243v-57h-193l-8 -110c22 9 50 14 79 14c78 0 142 -45 142 -124c0 -81 -65 -136 -153 -136z" />
    <glyph glyph-name="six.den" 
d="M210 -10c-42 0 -79 16 -103 40c-29 29 -51 71 -51 157v2c0 134 65 225 169 225c53 0 85 -17 117 -46l-33 -46c-25 22 -51 37 -86 37c-56 0 -102 -60 -105 -144c24 25 53 44 103 44c71 0 132 -47 132 -130c0 -80 -62 -139 -143 -139zM208 43c50 0 86 34 86 83
c0 50 -33 82 -83 82c-52 0 -88 -33 -88 -82v-1c0 -47 39 -83 85 -82z" />
    <glyph glyph-name="seven.den" 
d="M174 -2h-69l179 347h-212v58h282v-46z" />
    <glyph glyph-name="eight.den" 
d="M210 -10c-88 0 -150 47 -150 118c0 49 30 81 72 101c-34 17 -61 47 -61 92c0 66 62 113 140 113s138 -48 138 -113c0 -45 -26 -74 -61 -92c43 -19 73 -52 73 -99c0 -73 -64 -120 -151 -120zM211 363c-48 0 -82 -27 -82 -65c0 -40 34 -68 82 -68c46 0 81 28 81 68
c0 38 -34 65 -81 65zM211 182c-55 0 -93 -30 -93 -72c0 -41 36 -70 93 -70c55 0 92 28 92 70s-38 72 -92 72z" />
    <glyph glyph-name="nine.den" 
d="M209 191c52 0 88 33 88 84v1c0 49 -39 85 -85 84c-50 0 -86 -34 -86 -85c0 -52 33 -84 83 -84zM210 413c42 0 79 -16 103 -40c29 -29 51 -71 51 -157v-2c0 -136 -65 -224 -169 -224c-53 0 -90 18 -123 48l33 46c26 -24 54 -40 92 -40c56 0 102 56 104 139
c-23 -24 -51 -43 -101 -43c-71 0 -133 48 -133 132c0 81 62 141 143 141z" />
    <glyph glyph-name="fraction" unicode="&#x2044;" horiz-adv-x="112" 
d="M-222 0l259 375l236 353h61l-259 -375l-236 -353h-61z" />
    <glyph glyph-name="onehalf" unicode="&#xbd;" horiz-adv-x="867" 
d="M224 325h-60v346l-87 -33l-17 52l117 44h47v-409zM132 0l259 375l236 353h61l-259 -375l-236 -353h-61zM516 0v52l148 127c54 46 78 75 78 113c0 39 -32 66 -73 66s-74 -23 -104 -67l-45 32c37 55 80 91 153 91c76 0 132 -50 132 -117c0 -57 -29 -93 -93 -147l-113 -95
h209v-55h-292z" />
    <glyph glyph-name="onehalf.alt" horiz-adv-x="945" 
d="M363 325h-287v53h118v293l-103 -38l-16 52l132 49h47v-356h109v-53zM215 0l259 375l236 353h61l-259 -375l-236 -353h-61zM594 0v52l148 127c54 46 78 75 78 113c0 39 -32 66 -73 66s-74 -23 -104 -67l-45 32c37 55 80 91 153 91c76 0 132 -50 132 -117
c0 -57 -29 -93 -93 -147l-113 -95h209v-55h-292z" />
    <glyph glyph-name="onethird" unicode="&#x2153;" horiz-adv-x="867" 
d="M224 325h-60v346l-87 -33l-17 52l117 44h47v-409zM119 0l259 375l236 353h61l-259 -375l-236 -353h-61zM661 -10c-68 0 -117 29 -154 71l39 42c32 -37 71 -59 116 -59c44 0 80 29 80 71c0 45 -42 70 -100 70h-37l-10 38l126 125h-190v55h267v-48l-126 -123
c73 -6 132 -42 132 -116c0 -75 -62 -126 -143 -126z" />
    <glyph glyph-name="onethird.alt" horiz-adv-x="945" 
d="M363 325h-287v53h118v293l-103 -38l-16 52l132 49h47v-356h109v-53zM204 0l259 375l236 353h61l-259 -375l-236 -353h-61zM739 -10c-68 0 -117 29 -154 71l39 42c32 -37 71 -59 116 -59c44 0 80 29 80 71c0 45 -42 70 -100 70h-37l-10 38l126 125h-190v55h267v-48
l-126 -123c73 -6 132 -42 132 -116c0 -75 -62 -126 -143 -126z" />
    <glyph glyph-name="twothirds" unicode="&#x2154;" horiz-adv-x="945" 
d="M54 325v52l148 127c54 46 78 74 78 113s-32 66 -73 66s-74 -23 -104 -67l-45 32c37 55 80 90 153 90c76 0 132 -50 132 -116c0 -57 -29 -93 -93 -147l-113 -95h209v-55h-292zM194 0l259 375l236 353h61l-259 -375l-236 -353h-61zM739 -10c-68 0 -117 29 -154 71l39 42
c32 -37 71 -59 116 -59c44 0 80 29 80 71c0 45 -42 70 -100 70h-37l-10 38l126 125h-190v55h267v-48l-126 -123c73 -6 132 -42 132 -116c0 -75 -62 -126 -143 -126z" />
    <glyph glyph-name="onequarter" unicode="&#xbc;" horiz-adv-x="867" 
d="M224 325h-60v346l-87 -33l-17 52l117 44h47v-409zM142 0l259 375l236 353h61l-259 -375l-236 -353h-61zM761 89v-91h-57v91h-196l-11 54l199 266h65v-270h56v-50h-56zM705 138v199l-150 -199h150z" />
    <glyph glyph-name="onequarter.alt" horiz-adv-x="945" 
d="M363 325h-287v53h118v293l-103 -38l-16 52l132 49h47v-356h109v-53zM220 0l259 375l236 353h61l-259 -375l-236 -353h-61zM839 89v-91h-57v91h-196l-11 54l199 266h65v-270h56v-50h-56zM783 138v199l-150 -199h150z" />
    <glyph glyph-name="threequarters" unicode="&#xbe;" horiz-adv-x="945" 
d="M215 0l259 375l236 353h61l-259 -375l-236 -353h-61zM209 314c-68 0 -117 30 -154 72l39 42c32 -37 71 -59 116 -59c44 0 80 29 80 71c0 45 -42 70 -100 70h-37l-10 37l126 125h-190v56h267v-48l-126 -123c73 -6 132 -42 132 -116c0 -75 -62 -127 -143 -127zM839 89v-91
h-57v91h-196l-11 54l199 266h65v-270h56v-50h-56zM783 138v199l-150 -199h150z" />
    <glyph glyph-name="onefifth" unicode="&#x2155;" horiz-adv-x="867" 
d="M224 325h-60v346l-87 -33l-17 52l117 44h47v-409zM125 0l259 375l236 353h61l-259 -375l-236 -353h-61zM660 -10c-61 0 -111 27 -151 65l39 44c35 -35 72 -54 114 -54c53 0 89 33 89 78s-37 73 -90 73c-32 0 -62 -8 -86 -19l-40 23l15 203h243v-57h-193l-8 -110
c22 9 50 14 79 14c78 0 142 -45 142 -124c0 -81 -65 -136 -153 -136z" />
    <glyph glyph-name="onefifth.alt" horiz-adv-x="945" 
d="M363 325h-287v53h118v293l-103 -38l-16 52l132 49h47v-356h109v-53zM210 0l259 375l236 353h61l-259 -375l-236 -353h-61zM738 -10c-61 0 -111 27 -151 65l39 44c35 -35 72 -54 114 -54c53 0 89 33 89 78s-37 73 -90 73c-32 0 -62 -8 -86 -19l-40 23l15 203h243v-57h-193
l-8 -110c22 9 50 14 79 14c78 0 142 -45 142 -124c0 -81 -65 -136 -153 -136z" />
    <glyph glyph-name="twofifths" unicode="&#x2156;" horiz-adv-x="945" 
d="M54 325v52l148 127c54 46 78 74 78 113s-32 66 -73 66s-74 -23 -104 -67l-45 32c37 55 80 90 153 90c76 0 132 -50 132 -116c0 -57 -29 -93 -93 -147l-113 -95h209v-55h-292zM204 0l259 375l236 353h61l-259 -375l-236 -353h-61zM738 -10c-61 0 -111 27 -151 65l39 44
c35 -35 72 -54 114 -54c53 0 89 33 89 78s-37 73 -90 73c-32 0 -62 -8 -86 -19l-40 23l15 203h243v-57h-193l-8 -110c22 9 50 14 79 14c78 0 142 -45 142 -124c0 -81 -65 -136 -153 -136z" />
    <glyph glyph-name="threefifths" unicode="&#x2157;" horiz-adv-x="945" 
d="M189 0l259 375l236 353h61l-259 -375l-236 -353h-61zM199 314c-68 0 -117 30 -154 72l39 42c32 -37 71 -59 116 -59c44 0 80 29 80 71c0 45 -42 70 -100 70h-37l-10 37l126 125h-190v56h267v-48l-126 -123c73 -6 132 -42 132 -116c0 -75 -62 -127 -143 -127zM738 -10
c-61 0 -111 27 -151 65l39 44c35 -35 72 -54 114 -54c53 0 89 33 89 78s-37 73 -90 73c-32 0 -62 -8 -86 -19l-40 23l15 203h243v-57h-193l-8 -110c22 9 50 14 79 14c78 0 142 -45 142 -124c0 -81 -65 -136 -153 -136z" />
    <glyph glyph-name="fourfifths" unicode="&#x2158;" horiz-adv-x="945" 
d="M309 414v-91h-57v91h-196l-11 54l199 265h65v-269h56v-50h-56zM204 0l259 375l236 353h61l-259 -375l-236 -353h-61zM253 463v199l-150 -199h150zM738 -10c-61 0 -111 27 -151 65l39 44c35 -35 72 -54 114 -54c53 0 89 33 89 78s-37 73 -90 73c-32 0 -62 -8 -86 -19
l-40 23l15 203h243v-57h-193l-8 -110c22 9 50 14 79 14c78 0 142 -45 142 -124c0 -81 -65 -136 -153 -136z" />
    <glyph glyph-name="onesixth" unicode="&#x2159;" horiz-adv-x="867" 
d="M224 325h-60v346l-87 -33l-17 52l117 44h47v-409zM132 0l259 375l236 353h61l-259 -375l-236 -353h-61zM664 -10c-42 0 -79 16 -103 40c-29 29 -51 71 -51 157v2c0 134 65 225 169 225c53 0 85 -17 117 -46l-33 -46c-25 22 -51 37 -86 37c-56 0 -102 -60 -105 -144
c24 25 53 44 103 44c71 0 132 -47 132 -130c0 -80 -62 -139 -143 -139zM662 43c50 0 86 34 86 83c0 50 -33 82 -83 82c-52 0 -88 -33 -88 -82v-1c0 -47 39 -83 85 -82z" />
    <glyph glyph-name="onesixth.alt" horiz-adv-x="945" 
d="M363 325h-287v53h118v293l-103 -38l-16 52l132 49h47v-356h109v-53zM210 0l259 375l236 353h61l-259 -375l-236 -353h-61zM742 -10c-42 0 -79 16 -103 40c-29 29 -51 71 -51 157v2c0 134 65 225 169 225c53 0 85 -17 117 -46l-33 -46c-25 22 -51 37 -86 37
c-56 0 -102 -60 -105 -144c24 25 53 44 103 44c71 0 132 -47 132 -130c0 -80 -62 -139 -143 -139zM740 43c50 0 86 34 86 83c0 50 -33 82 -83 82c-52 0 -88 -33 -88 -82v-1c0 -47 39 -83 85 -82z" />
    <glyph glyph-name="fivesixths" unicode="&#x215a;" horiz-adv-x="945" 
d="M194 0l259 375l236 353h61l-259 -375l-236 -353h-61zM198 314c-61 0 -111 28 -151 66l39 44c35 -35 72 -54 114 -54c53 0 89 33 89 78s-37 73 -90 73c-32 0 -62 -8 -86 -20l-40 24l15 203h243v-57h-193l-8 -110c22 9 50 13 79 13c78 0 142 -44 142 -123
c0 -82 -65 -137 -153 -137zM742 -10c-42 0 -79 16 -103 40c-29 29 -51 71 -51 157v2c0 134 65 225 169 225c53 0 85 -17 117 -46l-33 -46c-25 22 -51 37 -86 37c-56 0 -102 -60 -105 -144c24 25 53 44 103 44c71 0 132 -47 132 -130c0 -80 -62 -139 -143 -139zM740 43
c50 0 86 34 86 83c0 50 -33 82 -83 82c-52 0 -88 -33 -88 -82v-1c0 -47 39 -83 85 -82z" />
    <glyph glyph-name="oneeighth" unicode="&#x215b;" horiz-adv-x="867" 
d="M224 325h-60v346l-87 -33l-17 52l117 44h47v-409zM130 0l259 375l236 353h61l-259 -375l-236 -353h-61zM664 -10c-88 0 -150 47 -150 118c0 49 30 81 72 101c-34 17 -61 47 -61 92c0 66 62 113 140 113s138 -48 138 -113c0 -45 -26 -74 -61 -92c43 -19 73 -52 73 -99
c0 -73 -64 -120 -151 -120zM665 363c-48 0 -82 -27 -82 -65c0 -40 34 -68 82 -68c46 0 81 28 81 68c0 38 -34 65 -81 65zM665 182c-55 0 -93 -30 -93 -72c0 -41 36 -70 93 -70c55 0 92 28 92 70s-38 72 -92 72z" />
    <glyph glyph-name="oneeighth.alt" horiz-adv-x="945" 
d="M363 325h-287v53h118v293l-103 -38l-16 52l132 49h47v-356h109v-53zM210 0l259 375l236 353h61l-259 -375l-236 -353h-61zM742 -10c-88 0 -150 47 -150 118c0 49 30 81 72 101c-34 17 -61 47 -61 92c0 66 62 113 140 113s138 -48 138 -113c0 -45 -26 -74 -61 -92
c43 -19 73 -52 73 -99c0 -73 -64 -120 -151 -120zM743 363c-48 0 -82 -27 -82 -65c0 -40 34 -68 82 -68c46 0 81 28 81 68c0 38 -34 65 -81 65zM743 182c-55 0 -93 -30 -93 -72c0 -41 36 -70 93 -70c55 0 92 28 92 70s-38 72 -92 72z" />
    <glyph glyph-name="threeeighths" unicode="&#x215c;" horiz-adv-x="945" 
d="M194 0l259 375l236 353h61l-259 -375l-236 -353h-61zM199 314c-68 0 -117 30 -154 72l39 42c32 -37 71 -59 116 -59c44 0 80 29 80 71c0 45 -42 70 -100 70h-37l-10 37l126 125h-190v56h267v-48l-126 -123c73 -6 132 -42 132 -116c0 -75 -62 -127 -143 -127zM742 -10
c-88 0 -150 47 -150 118c0 49 30 81 72 101c-34 17 -61 47 -61 92c0 66 62 113 140 113s138 -48 138 -113c0 -45 -26 -74 -61 -92c43 -19 73 -52 73 -99c0 -73 -64 -120 -151 -120zM743 363c-48 0 -82 -27 -82 -65c0 -40 34 -68 82 -68c46 0 81 28 81 68c0 38 -34 65 -81 65
zM743 182c-55 0 -93 -30 -93 -72c0 -41 36 -70 93 -70c55 0 92 28 92 70s-38 72 -92 72z" />
    <glyph glyph-name="fiveeighths" unicode="&#x215d;" horiz-adv-x="945" 
d="M194 0l259 375l236 353h61l-259 -375l-236 -353h-61zM198 314c-61 0 -111 28 -151 66l39 44c35 -35 72 -54 114 -54c53 0 89 33 89 78s-37 73 -90 73c-32 0 -62 -8 -86 -20l-40 24l15 203h243v-57h-193l-8 -110c22 9 50 13 79 13c78 0 142 -44 142 -123
c0 -82 -65 -137 -153 -137zM742 -10c-88 0 -150 47 -150 118c0 49 30 81 72 101c-34 17 -61 47 -61 92c0 66 62 113 140 113s138 -48 138 -113c0 -45 -26 -74 -61 -92c43 -19 73 -52 73 -99c0 -73 -64 -120 -151 -120zM743 363c-48 0 -82 -27 -82 -65c0 -40 34 -68 82 -68
c46 0 81 28 81 68c0 38 -34 65 -81 65zM743 182c-55 0 -93 -30 -93 -72c0 -41 36 -70 93 -70c55 0 92 28 92 70s-38 72 -92 72z" />
    <glyph glyph-name="seveneighths" unicode="&#x215e;" horiz-adv-x="945" 
d="M163 0l259 375l236 353h61l-259 -375l-236 -353h-61zM176 323h-69l179 347h-212v58h282v-46zM742 -10c-88 0 -150 47 -150 118c0 49 30 81 72 101c-34 17 -61 47 -61 92c0 66 62 113 140 113s138 -48 138 -113c0 -45 -26 -74 -61 -92c43 -19 73 -52 73 -99
c0 -73 -64 -120 -151 -120zM743 363c-48 0 -82 -27 -82 -65c0 -40 34 -68 82 -68c46 0 81 28 81 68c0 38 -34 65 -81 65zM743 182c-55 0 -93 -30 -93 -72c0 -41 36 -70 93 -70c55 0 92 28 92 70s-38 72 -92 72z" />
    <glyph glyph-name="zero.tab" horiz-adv-x="630" 
d="M314 -12c-152 0 -259 139 -259 370v10c0 231 109 372 261 372c150 0 259 -139 259 -370v-10c0 -231 -110 -372 -261 -372zM315 657c-96 0 -166 -100 -166 -287v-10c0 -187 70 -289 166 -289s166 101 166 287v10c0 187 -70 289 -166 289z" />
    <glyph glyph-name="one.tab" horiz-adv-x="630" 
d="M587 0h-497v82h212v551l-188 -66l-24 79l237 87h67v-651h193v-82z" />
    <glyph glyph-name="two.tab" horiz-adv-x="630" 
d="M561 0h-505v74l256 230c106 96 145 149 145 218c0 81 -63 131 -139 131c-79 0 -132 -43 -187 -124l-67 53c66 98 135 156 260 156c137 0 231 -86 231 -208v-2c0 -101 -54 -165 -162 -262l-201 -180h369v-86z" />
    <glyph glyph-name="three.tab" horiz-adv-x="630" 
d="M310 -12c-118 0 -201 48 -261 119l63 67c55 -62 114 -100 200 -100c81 0 154 52 154 136v2c0 82 -69 126 -178 126h-63l-23 60l230 245h-349v85h468v-78l-228 -239c129 -4 239 -63 239 -195v-2c0 -135 -113 -226 -252 -226z" />
    <glyph glyph-name="three.tab_alt" horiz-adv-x="630" 
d="M312 -12c-111 0 -205 51 -265 127l66 59c50 -63 117 -102 203 -102c94 0 159 51 159 130c0 80 -68 125 -185 125h-73v81h81c96 0 163 47 163 127c0 72 -57 121 -147 121c-83 0 -139 -38 -188 -100l-65 52c56 78 138 132 255 132c144 0 240 -80 240 -197
c0 -92 -61 -145 -125 -171c79 -28 138 -77 138 -174c0 -121 -104 -210 -257 -210z" />
    <glyph glyph-name="four.tab" horiz-adv-x="630" 
d="M408 0v166h-352l-20 85l350 481h110v-489h100v-77h-100v-166h-88zM409 242v387l-282 -387h282z" />
    <glyph glyph-name="five.tab" horiz-adv-x="630" 
d="M308 -12c-111 0 -193 47 -257 109l58 69c61 -58 124 -94 201 -94c98 0 166 61 166 150v2c0 86 -66 144 -168 144c-63 0 -112 -18 -152 -38l-62 40l25 358h419v-87h-340l-16 -219c40 17 83 29 139 29c138 0 250 -81 250 -223v-2c0 -143 -113 -238 -263 -238z" />
    <glyph glyph-name="six.tab" horiz-adv-x="630" 
d="M341 463c125 0 232 -83 232 -227v-2c0 -144 -109 -246 -248 -246c-74 0 -137 27 -177 68c-56 55 -87 128 -87 283v5c0 233 103 396 292 396c79 0 140 -28 193 -73l-48 -74c-42 36 -88 62 -148 62c-137 0 -196 -147 -196 -283v-4c41 61 105 95 187 95zM322 68
c97 0 158 71 158 162v1c0 92 -64 155 -154 154c-102 0 -163 -71 -163 -157v-1c0 -92 70 -160 159 -159z" />
    <glyph glyph-name="seven.tab" horiz-adv-x="630" 
d="M462 640h-387v88h495v-73l-323 -655h-107z" />
    <glyph glyph-name="eight.tab" horiz-adv-x="630" 
d="M315 -11c-150 0 -261 84 -261 206v3c0 87 55 147 137 179c-64 32 -115 84 -115 166v3c0 113 108 193 239 193s239 -80 239 -193v-3c0 -82 -52 -134 -116 -166c81 -32 138 -91 138 -177v-3c0 -126 -112 -208 -261 -208zM315 410c82 0 147 52 147 127v2
c0 69 -62 121 -147 121s-147 -51 -147 -121v-2c0 -74 65 -127 147 -127zM315 68c105 0 167 59 167 132v2c0 78 -73 131 -167 131s-168 -53 -168 -131v-2c0 -73 62 -132 168 -132z" />
    <glyph glyph-name="nine.tab" horiz-adv-x="630" 
d="M308 660c-97 0 -158 -72 -158 -165v-1c0 -94 63 -158 153 -157c103 0 164 72 164 160v1c0 94 -70 163 -159 162zM288 258c-125 0 -231 84 -231 231v2c0 147 109 249 248 249c74 0 137 -27 177 -68c56 -55 87 -128 87 -283v-5c0 -233 -103 -396 -292 -396
c-81 0 -148 31 -203 78l48 74c50 -42 98 -67 158 -67c135 0 195 147 197 279h-1c-42 -59 -107 -95 -188 -94z" />
    <glyph glyph-name="dollar.tab" horiz-adv-x="630" 
d="M167 537c0 -52 28 -94 133 -122l29 237c-7 1 -14 1 -20 1c-87 0 -143 -47 -142 -115v-1zM485 194c0 58 -32 97 -135 123l-30 -242h11c94 0 155 49 154 118v1zM414 811l-11 -91c56 -12 106 -36 152 -70l-42 -71c-40 30 -80 52 -123 63l-29 -241c143 -36 210 -97 210 -201
v-1c0 -118 -101 -201 -244 -200h-12l-15 -122h-70l16 130c-76 14 -142 48 -196 93l46 69c49 -43 102 -73 164 -87l29 249c-143 37 -208 96 -208 201v1c0 117 98 197 233 196c7 0 13 0 20 -1l11 83h69z" />
    <glyph glyph-name="sterling.tab" horiz-adv-x="630" 
d="M146 385v110c0 76 21 137 65 182c38 37 91 61 162 61c94 0 157 -43 202 -98l-65 -62c-36 44 -79 73 -136 73c-42 0 -70 -13 -94 -36c-26 -26 -40 -67 -40 -120v-110h260v-79h-260v-223h335v-83h-509v56l80 23v227h-81v79h81z" />
    <glyph glyph-name="Euro.tab" horiz-adv-x="630" 
d="M41 421v67h85c33 148 129 252 266 252c91 0 151 -42 196 -98l-59 -62c-38 49 -81 79 -139 79c-86 0 -146 -68 -172 -171h223v-67h-234c-2 -17 -2 -35 -2 -53v-6c0 -17 1 -33 2 -49h234v-67h-224c24 -106 85 -177 171 -177c65 0 105 31 146 82l57 -55
c-48 -62 -111 -108 -207 -108c-132 0 -230 100 -261 258h-82v67h75c-2 15 -2 31 -2 47v8c0 17 1 35 3 53h-76z" />
    <glyph glyph-name="yen.tab" horiz-adv-x="630" 
d="M92 179h178v99h-178v67h159l-230 383h105l190 -334l191 334h102l-232 -383h161v-67h-178v-99h178v-67h-178v-112h-90v112h-178v67z" />
    <glyph glyph-name="cent.tab" horiz-adv-x="630" 
d="M153 363c0 -88 46 -155 116 -183l77 391h-1c-111 0 -192 -88 -192 -206v-2zM450 734l-20 -97c57 -15 100 -47 136 -87l-55 -59c-31 33 -61 58 -100 70l-79 -394h10c73 0 129 36 173 83l54 -51c-55 -62 -131 -109 -232 -109h-17l-19 -96h-74l22 109
c-108 36 -184 136 -184 261v2c0 153 119 282 280 282h14l17 86h74z" />
    <glyph glyph-name="numbersign.tab" horiz-adv-x="630" 
d="M244 474l-30 -216h171l31 216h-172zM36 260h104l30 212h-100v79h112l25 177h75l-26 -177h170l25 177h76l-25 -177h92v-79h-104l-30 -212h100v-79h-111l-26 -181h-76l26 181h-169l-26 -181h-75l26 181h-93v79z" />
    <glyph glyph-name="paragraph.tab" horiz-adv-x="630" 
d="M417 0v269h-61c-166 0 -288 80 -288 227v1c0 144 116 232 287 231h159v-728h-97z" />
    <glyph glyph-name="section.tab" horiz-adv-x="630" 
d="M240 451c-59 2 -96 -27 -96 -64v-1c0 -37 32 -62 124 -86c72 -19 92 -23 122 -23c59 -2 96 27 96 64v1c0 37 -32 62 -124 86c-72 19 -94 23 -122 23zM325 -10c-90 0 -170 34 -224 87l51 61c47 -44 106 -74 175 -74c60 0 91 27 91 62v1c0 38 -35 64 -140 92
c-163 45 -219 84 -219 156v1c0 61 52 106 133 116c-43 26 -70 59 -70 108v1c0 77 75 138 183 137c90 0 170 -34 224 -87l-51 -61c-47 44 -106 74 -175 74c-60 0 -91 -27 -91 -62v-1c0 -38 35 -64 140 -92c163 -45 219 -84 219 -156v-1c0 -61 -52 -106 -133 -116
c43 -26 70 -59 70 -108v-1c0 -77 -75 -138 -183 -137z" />
    <glyph glyph-name="degree.tab" horiz-adv-x="630" 
d="M314 319c-115 0 -212 94 -212 209v1c0 113 99 209 214 208c115 0 212 -94 212 -209v-1c0 -113 -99 -209 -214 -208zM316 381c84 0 144 64 144 147v1c0 80 -62 147 -146 146c-84 0 -144 -65 -144 -147v-1c0 -81 62 -147 146 -146z" />
    <glyph glyph-name="percent.tab" horiz-adv-x="630" 
d="M160 735c74 0 123 -73 123 -178v-7c0 -105 -49 -180 -123 -180s-123 74 -123 179v6c0 105 49 180 123 180zM475 728h58l-199 -374l-179 -354h-58l199 374zM160 679c-40 0 -63 -49 -63 -120v-13c0 -71 23 -120 63 -120s63 49 63 120v13c0 71 -23 120 -63 120zM470 358
c74 0 123 -74 123 -179v-6c0 -105 -49 -180 -123 -180s-123 73 -123 178v7c0 105 49 180 123 180zM470 302c-40 0 -63 -49 -63 -120v-13c0 -71 23 -120 63 -120s63 49 63 120v13c0 71 -23 120 -63 120z" />
    <glyph glyph-name="quotedbl.tab" horiz-adv-x="630" 
d="M126 437l57 291h111v-5l-117 -286h-51zM360 437l56 291h111v-5l-117 -286h-50z" />
    <glyph glyph-name="quotesingle.tab" horiz-adv-x="315" 
d="M85 437l57 291h112v-5l-117 -286h-52z" />
    <glyph glyph-name="period.tab" horiz-adv-x="315" 
d="M98 0v128h120v-128h-120z" />
    <glyph glyph-name="comma.tab" horiz-adv-x="315" 
d="M84 -134l-13 42c55 16 79 45 75 92h-48v128h120v-111c0 -93 -48 -136 -134 -151z" />
    <glyph glyph-name="colon.tab" horiz-adv-x="315" 
d="M99 415v126h118v-126h-118zM99 0v126h118v-126h-118z" />
    <glyph glyph-name="semicolon.tab" horiz-adv-x="315" 
d="M99 415v126h118v-126h-118zM84 -134l-13 42c55 16 79 45 75 92h-47v126h118v-109c0 -93 -47 -136 -133 -151z" />
    <glyph glyph-name="twodotleader.tab" horiz-adv-x="630" 
d="M102 0v120h114v-120h-114zM414 0v120h114v-120h-114z" />
    <glyph glyph-name="periodcentered.tab" horiz-adv-x="315" 
d="M98 251v127h120v-127h-120z" />
    <glyph glyph-name="slash.tab" horiz-adv-x="630" 
d="M610 830l-520 -963h-85l520 963h85z" />
    <glyph glyph-name="bar.tab" horiz-adv-x="315" 
d="M119 -133v963h78v-963h-78z" />
    <glyph glyph-name="underscore.tab" horiz-adv-x="630" 
d="M1 -166v75h628v-75h-628z" />
    <glyph glyph-name="plus.tab" horiz-adv-x="630" 
d="M560 324h-202l1 -206h-88l1 206h-202v85l202 -1l-1 207h88l-1 -207l202 1v-85z" />
    <glyph glyph-name="minus.tab" horiz-adv-x="630" 
d="M560 321h-490v90h490v-90z" />
    <glyph glyph-name="divide.tab" horiz-adv-x="630" 
d="M258 518v115h114v-115h-114zM560 324h-490v84h490v-84zM258 99v115h114v-115h-114z" />
    <glyph glyph-name="equal.tab" horiz-adv-x="630" 
d="M543 445h-456v86h456v-86zM543 202h-456v85h456v-85z" />
    <glyph glyph-name="multiply.tab" horiz-adv-x="630" 
d="M487 132l-173 176l-173 -176l-60 60l176 173l-176 173l62 62l173 -176l173 176l60 -60l-176 -173l176 -173z" />
    <glyph glyph-name="less.tab" horiz-adv-x="630" 
d="M534 90l-463 236v81l463 235v-91l-370 -184l370 -185v-92z" />
    <glyph glyph-name="greater.tab" horiz-adv-x="630" 
d="M559 326l-463 -236v91l370 184l-370 185v92l463 -235v-81z" />
    <glyph glyph-name="plusminus.tab" horiz-adv-x="630" 
d="M560 381h-202l1 -198h-88l1 198h-202v85h202l-1 198h88l-1 -198h202v-85zM560 0h-490v82h490v-82z" />
    <glyph glyph-name="baht" unicode="&#xe3f;" horiz-adv-x="672" 
d="M291 -123h-68l16 123h-146v728h250l12 83h69l-13 -86c109 -15 181 -81 181 -180v-1c0 -97 -61 -145 -123 -169c85 -27 148 -76 148 -175v-1c0 -126 -102 -200 -255 -199h-54zM181 403h120l35 245h-155v-245zM503 531c0 61 -40 104 -109 114l-34 -242c88 3 143 47 143 127
v1zM181 80h74l35 251h-109v-251zM358 331h-8l-35 -251h49c102 0 164 46 164 126v1c0 78 -59 125 -170 124z" />
    <glyph glyph-name="colonmonetary" unicode="&#x20a1;" horiz-adv-x="640" 
d="M281 96c29 -13 60 -19 94 -19l87 555c-27 12 -56 19 -89 19h-5zM144 358c0 -107 35 -186 91 -232l80 517c-100 -27 -171 -127 -171 -277v-8zM487 811h56l-18 -116c24 -13 46 -28 66 -45l-40 -77c-14 12 -29 24 -43 34l-82 -525c46 11 82 36 122 73l48 -62
c-51 -48 -105 -82 -179 -92l-19 -124h-56l18 122c-31 1 -61 5 -89 15l-21 -137h-56l24 160c-98 56 -163 170 -163 322v9c0 199 115 335 271 358l13 85h56l-12 -81c33 -1 62 -6 89 -14z" />
    <glyph glyph-name="florin" unicode="&#x192;" horiz-adv-x="547" 
d="M102 -5c-24 0 -40 1 -55 4v79c14 -3 27 -4 44 -4c44 0 70 24 80 77l42 232h-96v80h110l22 115c20 105 68 155 168 155c37 0 63 -3 88 -11v-80c-25 6 -50 10 -72 10c-52 0 -79 -26 -90 -90l-19 -99h145v-80h-159l-45 -244c-18 -101 -69 -144 -163 -144z" />
    <glyph glyph-name="naira" unicode="&#x20a6;" horiz-adv-x="869" 
d="M240 605v-311h195l-193 311h-2zM627 135h2v303h-190zM822 231h-104v-231h-105l-143 231h-229v-231h-90v231h-104v64h104v142h-104v64h104v227h114l139 -227h224v227h90v-227h104v-64h-104v-142h104v-64z" />
    <glyph glyph-name="peso" unicode="&#x20b1;" horiz-adv-x="768" 
d="M143 0v453h-104v63h104v212h223c155 0 259 -84 271 -212h102v-63h-102c-14 -141 -139 -217 -286 -217h-112v-236h-96zM237 644v-130h305c-12 85 -83 130 -186 130h-119zM354 319c107 0 178 54 189 137h-306v-137h117z" />
    <glyph glyph-name="R_p" horiz-adv-x="1248" 
d="M179 354h157c99 0 166 54 166 145v3c0 93 -63 142 -166 142h-157v-290zM958 68c83 0 152 74 152 199v9c0 124 -71 200 -152 200c-80 0 -157 -78 -157 -199v-10c0 -122 77 -199 157 -199zM88 0v728h254c154 0 252 -86 252 -222v-3c0 -113 -70 -185 -164 -213l188 -290
h-108l-175 273h-156v-273h-91zM715 -166v710h89v-100c36 60 91 111 175 111c112 0 221 -97 221 -277v-11c0 -180 -109 -278 -221 -278c-85 0 -140 51 -175 106v-261h-89z" />
    <glyph glyph-name="rupee" unicode="&#x20a8;" horiz-adv-x="1137" 
d="M179 354h157c99 0 166 54 166 145v3c0 93 -63 142 -166 142h-157v-290zM88 0v728h254c154 0 252 -86 252 -222v-3c0 -113 -70 -185 -164 -213l188 -290h-108l-175 273h-156v-273h-91zM891 -10c-80 0 -156 29 -217 75l43 65c57 -42 113 -65 177 -65c58 0 103 30 103 76v3
c0 38 -24 59 -122 91c-119 39 -175 78 -175 160v2c0 93 80 154 182 154c67 0 133 -23 187 -58l-37 -69c-49 31 -99 52 -152 52c-58 0 -96 -32 -96 -72v-2c0 -39 28 -62 128 -93c117 -38 170 -78 170 -159v-2c0 -101 -87 -158 -191 -158z" />
    <glyph glyph-name="won" unicode="&#x20a9;" horiz-adv-x="1160" 
d="M578 622l-91 -325h186l-90 325h-5zM811 99h5l82 334h-179zM349 99h5l90 334h-179zM1071 728l-64 -231h110v-66h-129l-36 -132h165v-66h-184l-65 -236h-110l-68 236h-220l-67 -236h-110l-66 236h-183v66h165l-37 132h-128v66h109l-64 231h104l58 -231h210l65 233h113
l64 -233h210l59 231h99z" />
    <glyph glyph-name="hryvnia" unicode="&#x20b4;" horiz-adv-x="670" 
d="M63 447l7 52l317 -38c55 45 75 73 74 110c0 53 -44 86 -114 86c-57 0 -119 -24 -177 -73l-52 67c61 52 142 89 236 89c134 0 210 -73 210 -166c0 -49 -22 -86 -64 -127l131 -15l-7 -52l-180 21l-98 -81l265 -31l-7 -52l-315 37c-64 -53 -82 -81 -81 -117
c0 -57 50 -86 120 -86c63 0 128 24 193 74l51 -68c-68 -52 -151 -89 -250 -89c-147 0 -218 75 -218 164c0 46 22 89 71 136l-132 16l7 52l181 -22l99 81z" />
    <glyph glyph-name="numero" unicode="&#x2116;" horiz-adv-x="1178" 
d="M924 295c-111 0 -187 93 -187 215v6c0 122 78 216 189 216c112 0 188 -94 188 -216v-6c0 -122 -78 -215 -190 -215zM925 359c69 0 116 67 116 150v6c0 85 -47 152 -116 152c-68 0 -115 -67 -115 -150v-6c0 -85 47 -152 115 -152zM89 0v728h85l363 -546v546h89v-728h-77
l-371 561v-561h-89zM742 146v61h366v-61h-366z" />
    <glyph glyph-name="sheqel" unicode="&#x20aa;" horiz-adv-x="657" 
d="M366 364c0 68 -34 98 -102 98h-112v-462h-76v541h198c99 0 151 -46 151 -146v-199h-59v168zM249 145l-32 207h59l29 -176c10 -66 43 -97 108 -97h92v462h76v-541h-169c-98 0 -149 47 -163 145z" />
    <glyph glyph-name="Delta" unicode="&#x2206;" horiz-adv-x="828" 
d="M62 0l-8 71l311 662h98l311 -662l-8 -71h-704zM413 626l-251 -539h499z" />
    <glyph glyph-name="Omega" unicode="&#x2126;" horiz-adv-x="912" 
d="M456 740c223 0 365 -148 365 -344v-1c0 -135 -71 -234 -182 -312l204 1v-84h-313v81c111 74 190 157 190 306v1c0 155 -104 265 -265 264c-159 0 -264 -108 -264 -263v-1c0 -141 77 -230 191 -307v-81h-314v84l205 -1c-111 80 -182 175 -182 313v1c0 187 141 344 365 343
z" />
    <glyph glyph-name="mu" unicode="&#xb5;" horiz-adv-x="700" 
d="M675 77v-77c-16 -4 -34 -7 -61 -7c-70 0 -113 28 -128 88c-36 -58 -91 -91 -154 -91c-68 0 -128 34 -159 100h-2c8 -53 12 -85 12 -131v-125h-93v707h94v-310c0 -93 60 -159 146 -159c85 0 146 66 146 159v310h94v-402c2 -46 24 -66 67 -66c15 0 28 1 38 4z" />
    <glyph glyph-name="asciicircum" unicode="^" horiz-adv-x="528" 
d="M68 513l161 217h70l161 -217h-79l-118 153l-118 -153h-77z" />
    <glyph glyph-name="asciitilde" unicode="~" horiz-adv-x="507" 
d="M328 254c-26 0 -53 11 -79 22c-23 10 -46 20 -64 20c-27 0 -39 -15 -55 -52l-54 16c21 80 49 116 104 116c26 0 52 -11 78 -22c23 -10 47 -20 64 -20c28 0 40 14 55 51l55 -16c-22 -79 -50 -115 -104 -115z" />
    <glyph glyph-name="hcoslug" horiz-adv-x="694" 
d="M644 700v-800h-594v800h594zM247 428c0 17 11 29 27 29c17 0 29 -15 29 -38c0 -17 -7 -33 -18 -50c-23 22 -38 36 -38 59zM312 342c19 13 33 24 42 34c23 -23 18 -47 -1 -80c-13 15 -25 30 -41 46zM261 219c-30 0 -52 23 -52 54c0 15 5 29 16 40c18 -17 46 -47 74 -82
c-11 -9 -23 -12 -38 -12zM382 264c15 20 31 33 46 42c9 -15 25 -25 43 -25c28 0 50 23 50 54s-22 52 -50 52c-25 0 -44 -14 -60 -38c-2 27 -22 38 -49 37c6 10 9 21 9 34c0 35 -33 74 -95 74c-67 0 -109 -42 -109 -85c0 -29 10 -47 31 -69c-53 -18 -82 -49 -82 -91
c0 -53 49 -93 109 -93c42 0 76 14 104 45c33 -34 55 -45 85 -45c43 0 78 36 80 94l-7 2c-10 -17 -22 -29 -43 -29c-20 0 -37 12 -62 41zM286 124l-12 -2v-9h-7v-7h7v-20c0 -8 4 -13 12 -13s12 4 14 13l-5 2c-1 -5 -3 -7 -5 -7c-3 0 -4 2 -4 5v20h13v7h-13v11zM174 94
c0 -13 9 -21 21 -21s21 9 21 21s-9 20 -21 20s-21 -8 -21 -20zM203 94c0 -12 -3 -16 -8 -16s-8 4 -8 16c0 11 3 15 8 15s8 -4 8 -15zM219 81v-7h22v7h-4v15c0 6 3 10 7 10s6 -3 6 -7v-18h-4v-7h22v7h-6v19c0 8 -3 14 -12 14c-7 0 -11 -4 -14 -11v10h-17v-7h6v-25h-6zM379 93
c0 -8 -2 -13 -7 -13c-6 0 -8 5 -8 13c0 7 2 13 8 13c5 0 7 -5 7 -13zM125 81v-7h30v7h-10v16h4c5 0 5 -1 6 -8h7v23h-7c-1 -7 -1 -8 -6 -8h-4v18h12c7 0 9 -2 11 -13h8v20h-51v-7h7v-41h-7zM302 88v-14h7l1 4c3 -2 6 -5 13 -5c9 0 14 6 14 13c0 16 -24 10 -24 18
c0 2 2 4 5 4c4 0 7 -3 10 -7h7v13h-6l-2 -5c-2 3 -6 5 -11 5c-9 0 -14 -6 -14 -12c0 -16 24 -11 24 -19c0 -2 -2 -4 -5 -4c-5 0 -8 3 -12 9h-7zM352 125v-52h6l4 8c3 -5 7 -8 14 -8c12 0 16 12 16 21c0 12 -6 20 -15 20c-6 0 -11 -3 -13 -9v27h-18v-7h6zM405 65
c3 3 2 10 -5 10c-4 0 -7 -3 -7 -7c0 -5 4 -9 11 -9c9 0 14 6 18 16l13 31h5v7h-17v-7h5l-8 -20l-9 20h6v7h-25v-7h5s12 -23 16 -33c-1 -5 -4 -8 -8 -8zM294 39v3c0 10 3 12 6 12c2 0 3 -1 3 -1s-1 -1 -1 -3c0 -4 3 -6 6 -6v-5h-14zM464 33h-18v-7h6c-1 -3 -4 -7 -6 -9
c-4 4 -7 8 -12 13c7 3 11 6 11 12s-5 12 -14 12c-10 0 -17 -7 -17 -14c0 -5 2 -8 6 -12c-7 -2 -13 -7 -13 -15s6 -14 18 -14c6 0 11 2 15 6c4 -5 7 -6 12 -6c8 0 11 5 13 12l-5 1c-1 -4 -2 -5 -4 -5s-4 2 -6 5c3 4 6 8 9 14h5v7zM469 27c0 -17 11 -28 29 -28
c15 0 23 9 24 23h-8c-1 -9 -6 -16 -14 -16c-10 0 -16 7 -16 22c0 16 6 22 14 22s11 -4 15 -16h8v22h-8l-1 -6c-4 4 -9 7 -16 7c-14 0 -27 -12 -27 -30zM431 33c-4 4 -6 7 -6 10s2 5 5 5c4 0 6 -3 6 -6c0 -4 -2 -7 -5 -9zM340 18h26c1 13 -5 22 -19 22c-11 0 -20 -9 -20 -21
s8 -20 21 -20c11 0 16 6 18 14h-7c-1 -5 -4 -7 -9 -7c-7 0 -10 3 -10 12zM525 20c0 -13 9 -21 21 -21s21 9 21 21s-9 20 -21 20s-21 -8 -21 -20zM189 20c0 -13 9 -21 21 -21s21 9 21 21s-9 20 -21 20s-21 -8 -21 -20zM247 18h26c1 13 -5 22 -19 22c-11 0 -20 -9 -20 -21
s8 -20 21 -20c11 0 16 6 18 14h-7c-1 -5 -4 -7 -9 -7c-7 0 -10 3 -10 12zM340 23c0 9 3 12 7 12c5 0 7 -4 7 -12h-14zM554 20c0 -12 -3 -16 -8 -16s-8 4 -8 16c0 11 3 15 8 15s8 -4 8 -15zM218 20c0 -12 -3 -16 -8 -16s-8 4 -8 16c0 11 3 15 8 15s8 -4 8 -15zM247 23
c0 9 3 12 7 12c5 0 7 -4 7 -12h-14zM368 7v-7h26v7h-8v16c2 5 5 9 7 9v-1c0 -4 3 -6 6 -6c4 0 7 3 7 7c0 5 -3 8 -8 8s-9 -3 -12 -11v10h-18v-7h6v-25h-6zM276 7v-7h23v7h-5v25h14v-25h-5v-7h23v7h-6v52l-10 -2c-2 1 -6 2 -9 2c-10 0 -19 -6 -19 -19v-1h-7v-7h7v-25h-6z
M124 7v-7h29v7h-8v18h22v-18h-8v-7h29v7h-8v41h8v7h-29v-7h8v-16h-22v16h8v7h-29v-7h8v-41h-8zM437 9c-3 -2 -6 -3 -8 -3c-6 0 -10 4 -10 10c0 4 2 7 4 9c5 -5 9 -10 14 -16zM583 6c0 4 -3 7 -7 7s-7 -3 -7 -7s3 -7 7 -7s7 3 7 7z" />
    <glyph glyph-name="space" unicode=" " horiz-adv-x="320" 
 />
    <glyph glyph-name="uni00A0" unicode="&#xa0;" horiz-adv-x="320" 
 />
    <glyph glyph-name="emspace" unicode="&#x2003;" horiz-adv-x="1000" 
 />
    <glyph glyph-name="enspace" unicode="&#x2002;" horiz-adv-x="500" 
 />
    <glyph glyph-name="threeperemspace" unicode="&#x2004;" horiz-adv-x="333" 
 />
    <glyph glyph-name="fourperemspace" unicode="&#x2005;" horiz-adv-x="250" 
 />
    <glyph glyph-name="thinspace" unicode="&#x2009;" horiz-adv-x="133" 
 />
    <glyph glyph-name="hairspace" unicode="&#x200a;" horiz-adv-x="75" 
 />
    <glyph glyph-name="space.tab" horiz-adv-x="315" 
 />
    <glyph glyph-name="figurespace" unicode="&#x2007;" horiz-adv-x="630" 
 />
    <glyph glyph-name="NUL" horiz-adv-x="0" 
 />
    <glyph glyph-name="acute" unicode="&#xb4;" horiz-adv-x="528" 
d="M187 619l101 156l92 -42l-121 -114h-72z" />
    <glyph glyph-name="hungarumlaut" unicode="&#x2dd;" horiz-adv-x="528" 
d="M91 619l100 156l88 -41l-117 -115h-71zM252 619l102 156l88 -41l-118 -115h-72z" />
    <glyph glyph-name="grave" unicode="`" horiz-adv-x="528" 
d="M269 619l-121 114l92 42l101 -156h-72z" />
    <glyph glyph-name="caron.alt" horiz-adv-x="528" 
d="M218 609l15 179h84v-3l-55 -176h-44z" />
    <glyph glyph-name="circumflex" unicode="&#x2c6;" horiz-adv-x="528" 
d="M108 619l114 141h84l114 -141h-78l-79 70l-79 -70h-76z" />
    <glyph glyph-name="caron" unicode="&#x2c7;" horiz-adv-x="528" 
d="M420 760l-114 -141h-84l-114 141h78l79 -70l79 70h76z" />
    <glyph glyph-name="breve" unicode="&#x2d8;" horiz-adv-x="528" 
d="M264 617c-90 0 -154 50 -161 136h67c12 -38 41 -65 94 -65s82 27 94 65h67c-7 -86 -71 -136 -161 -136z" />
    <glyph glyph-name="tilde" unicode="&#x2dc;" horiz-adv-x="528" 
d="M338 619c-26 0 -52 10 -78 21c-24 10 -47 21 -64 21c-28 0 -40 -15 -55 -52l-55 16c21 80 50 115 104 115c26 0 52 -10 78 -21c24 -10 47 -20 64 -20c28 0 40 14 55 51l55 -16c-21 -80 -50 -115 -104 -115z" />
    <glyph glyph-name="macron" unicode="&#xaf;" horiz-adv-x="528" 
d="M97 637v73h334v-73h-334z" />
    <glyph glyph-name="dieresis" unicode="&#xa8;" horiz-adv-x="528" 
d="M118 619v106h104v-106h-104zM306 619v106h104v-106h-104z" />
    <glyph glyph-name="dotaccent" unicode="&#x2d9;" horiz-adv-x="528" 
d="M210 619v107h108v-107h-108z" />
    <glyph glyph-name="ring" unicode="&#x2da;" horiz-adv-x="528" 
d="M264 617c-63 0 -115 49 -115 111c0 61 52 111 115 111s115 -50 115 -111c0 -62 -52 -111 -115 -111zM264 657c39 0 71 32 71 71c0 38 -32 71 -71 71s-71 -33 -71 -71c0 -39 32 -71 71 -71z" />
    <glyph glyph-name="commaaccent" unicode="&#x326;" horiz-adv-x="528" 
d="M200 -262l-7 34c47 8 69 28 66 65h-46v92h102v-79c0 -71 -39 -105 -115 -112z" />
    <glyph glyph-name="cedilla" unicode="&#xb8;" horiz-adv-x="528" 
d="M241 -164l-87 38l96 141h72z" />
    <glyph glyph-name="ogonek" unicode="&#x2db;" horiz-adv-x="528" 
d="M352 -120v-51c-6 0 -13 -1 -18 -1c-88 2 -135 37 -135 86c0 37 24 66 63 101l64 -10c-35 -31 -50 -53 -50 -78c0 -29 23 -45 76 -47z" />
    <glyph glyph-name="uni0384" unicode="&#x384;" horiz-adv-x="528" 
d="M199 619l68 165l92 -39l-95 -126h-65z" />
    <glyph glyph-name="uni0385" unicode="&#x385;" horiz-adv-x="528" 
d="M212 619l42 186l90 -21l-74 -165h-58zM81 619v105h96v-105h-96zM351 619v105h96v-105h-96z" />
    <glyph glyph-name="uni0387" unicode="&#x387;" horiz-adv-x="281" 
d="M86 422v119h109v-119h-109z" />
    <glyph glyph-name="descendercyrillic" horiz-adv-x="528" 
d="M202 13h73c42 -31 64 -61 64 -96c0 -53 -47 -89 -130 -89c-14 0 -29 1 -40 3v50c8 -1 12 -1 17 -1c47 0 76 17 76 48c0 24 -13 45 -60 85z" />
    <glyph glyph-name="acute.cap" horiz-adv-x="528" 
d="M182 791l109 139l91 -41l-123 -98h-77z" />
    <glyph glyph-name="hungarumlaut.cap" horiz-adv-x="528" 
d="M251 791l108 139l89 -41l-123 -98h-74zM84 791l109 139l89 -41l-123 -98h-75z" />
    <glyph glyph-name="grave.cap" horiz-adv-x="528" 
d="M345 791h-76l-124 98l92 41z" />
    <glyph glyph-name="circumflex.cap" horiz-adv-x="528" 
d="M102 791l118 128h88l118 -128h-85l-78 62l-78 -62h-83z" />
    <glyph glyph-name="caron.cap" horiz-adv-x="528" 
d="M426 919l-118 -128h-88l-118 128h85l78 -61l78 61h83z" />
    <glyph glyph-name="breve.cap" horiz-adv-x="528" 
d="M264 789c-90 0 -155 45 -162 125h71c12 -33 40 -53 91 -53s79 20 91 53h71c-7 -80 -72 -125 -162 -125z" />
    <glyph glyph-name="tilde.cap" horiz-adv-x="528" 
d="M340 791c-27 0 -56 12 -84 23c-22 9 -44 17 -60 17c-27 0 -40 -14 -55 -49l-57 16c22 75 51 113 103 113c27 0 56 -12 84 -23c22 -9 44 -17 60 -17c28 0 40 14 55 49l57 -17c-21 -75 -50 -112 -103 -112z" />
    <glyph glyph-name="macron.cap" horiz-adv-x="528" 
d="M88 810v75h352v-75h-352z" />
    <glyph glyph-name="dieresis.cap" horiz-adv-x="528" 
d="M110 791v101h107v-101h-107zM311 791v101h106v-101h-106z" />
    <glyph glyph-name="dotaccent.cap" horiz-adv-x="528" 
d="M209 791v101h110v-101h-110z" />
    <glyph glyph-name="ring.cap" horiz-adv-x="528" 
d="M264 789c-64 0 -118 45 -118 105c0 61 54 105 118 105s118 -44 118 -105c0 -60 -54 -105 -118 -105zM264 832c40 0 69 27 69 62c0 36 -29 63 -69 63s-69 -27 -69 -63c0 -35 29 -62 69 -62z" />
    <glyph glyph-name="uni0384.cap" horiz-adv-x="528" 
d="M133 537l16 191h99l-64 -191h-51z" />
    <glyph glyph-name="commaaccent.rot" horiz-adv-x="528" 
d="M328 810l7 -34c-48 -8 -69 -28 -66 -65h46v-92h-103v79c0 71 39 106 116 112z" />
    <glyph glyph-name="acute.altlc" horiz-adv-x="528" 
d="M186 870l105 135l90 -43l-121 -92h-74z" />
    <glyph glyph-name="acute.altuc" horiz-adv-x="528" 
d="M183 914l110 124l90 -41l-124 -83h-76z" />
    <glyph glyph-name="caron.alt.cap" horiz-adv-x="528" 
d="M218 609l15 179h84v-3l-55 -176h-44z" />
    <glyph glyph-name="cedilla.cap" horiz-adv-x="528" 
d="M241 -164l-87 38l96 141h72z" />
    <glyph glyph-name="commaaccent.cap" horiz-adv-x="528" 
d="M200 -262l-7 34c47 8 69 28 66 65h-46v92h102v-79c0 -71 -39 -105 -115 -112z" />
    <glyph glyph-name="ogonek.cap" horiz-adv-x="528" 
d="M352 -120v-51c-6 0 -13 -1 -18 -1c-88 2 -135 37 -135 86c0 37 24 66 63 101l64 -10c-35 -31 -50 -53 -50 -78c0 -29 23 -45 76 -47z" />
    <glyph glyph-name="uni0385.cap" horiz-adv-x="528" 
d="M212 619l42 186l90 -21l-74 -165h-58zM81 619v105h96v-105h-96zM351 619v105h96v-105h-96z" />
    </font>
</defs>
</svg>
