<?xml version="1.0" standalone="no"?>
<!DOCTYPE svg PUBLIC "-//W3C//DTD SVG 1.1//EN" "http://www.w3.org/Graphics/SVG/1.1/DTD/svg11.dtd" >
<svg xmlns="http://www.w3.org/2000/svg" xmlns:xlink="http://www.w3.org/1999/xlink" version="1.1">
<metadata>
Created by FontForge 20190801 at Tue Apr 21 18:02:58 2015
 By Jimmy Wärting
Copyright C 2010, 2014 Hoefler &#38; Co. http:www.typography.com
</metadata>
<defs>
<font id="GothamSSm-Bold" horiz-adv-x="420" >
  <font-face 
    font-family="Gotham SSm"
    font-weight="400"
    font-stretch="normal"
    units-per-em="1000"
    panose-1="0 0 0 0 0 0 0 0 0 0"
    ascent="800"
    descent="-200"
    x-height="556"
    cap-height="728"
    bbox="-233 -304 1244 1056"
    underline-thickness="50"
    underline-position="-100"
    stemh="136"
    stemv="156"
    unicode-range="U+0020-FB04"
  />
<missing-glyph horiz-adv-x="500" 
d="M0 -200v1000h500v-1000h-500zM71 750l179 -390l179 390h-358zM450 676l-172 -376l172 -376v752zM50 -76l172 376l-172 376v-752zM250 240l-179 -390h358z" />
    <glyph glyph-name="f_f" unicode="ff" horiz-adv-x="800" 
d="M500 0v426h-67v125h67v36c0 62 15 106 44 136c29 29 72 43 127 43c49 0 82 -6 111 -15v-126c-24 8 -45 13 -73 13c-38 0 -60 -20 -60 -64v-24h132v-124h-130v-426h-151zM104 0v426h-67v125h67v36c0 62 15 106 44 136c29 29 72 43 127 43c49 0 82 -6 111 -15v-126
c-24 8 -45 13 -73 13c-38 0 -60 -20 -60 -64v-24h132v-124h-130v-426h-151z" />
    <glyph glyph-name="fi" unicode="fi" horiz-adv-x="715" 
d="M475 622v136h160v-136h-160zM104 0v426h-67v125h67v36c0 62 15 106 44 136c29 29 72 43 127 43c49 0 82 -6 111 -15v-126c-24 8 -45 13 -73 13c-38 0 -60 -20 -60 -64v-24h132v-124h-130v-426h-151zM480 0v556h151v-556h-151z" />
    <glyph glyph-name="fl" unicode="fl" horiz-adv-x="715" 
d="M480 0v759h151v-759h-151zM104 0v426h-67v125h67v36c0 62 15 106 44 136c29 29 72 43 127 43c49 0 82 -6 111 -15v-126c-24 8 -45 13 -73 13c-38 0 -60 -20 -60 -64v-24h132v-124h-130v-426h-151z" />
    <glyph glyph-name="f_f_i" unicode="ffi" horiz-adv-x="1111" 
d="M871 622v136h160v-136h-160zM500 0v426h-67v125h67v36c0 62 15 106 44 136c29 29 72 43 127 43c49 0 82 -6 111 -15v-126c-24 8 -45 13 -73 13c-38 0 -60 -20 -60 -64v-24h132v-124h-130v-426h-151zM104 0v426h-67v125h67v36c0 62 15 106 44 136c29 29 72 43 127 43
c49 0 82 -6 111 -15v-126c-24 8 -45 13 -73 13c-38 0 -60 -20 -60 -64v-24h132v-124h-130v-426h-151zM876 0v556h151v-556h-151z" />
    <glyph glyph-name="f_f_l" unicode="ffl" horiz-adv-x="1111" 
d="M876 0v759h151v-759h-151zM500 0v426h-67v125h67v36c0 62 15 106 44 136c29 29 72 43 127 43c49 0 82 -6 111 -15v-126c-24 8 -45 13 -73 13c-38 0 -60 -20 -60 -64v-24h132v-124h-130v-426h-151zM104 0v426h-67v125h67v36c0 62 15 106 44 136c29 29 72 43 127 43
c49 0 82 -6 111 -15v-126c-24 8 -45 13 -73 13c-38 0 -60 -20 -60 -64v-24h132v-124h-130v-426h-151z" />
    <glyph glyph-name=".notdef" horiz-adv-x="500" 
d="M0 -200v1000h500v-1000h-500zM71 750l179 -390l179 390h-358zM450 676l-172 -376l172 -376v752zM50 -76l172 376l-172 376v-752zM250 240l-179 -390h358z" />
    <glyph glyph-name="A" unicode="A" horiz-adv-x="830" 
d="M310 302h205l-102 247zM30 0l314 733h142l313 -733h-161l-68 166h-315l-68 -166h-157z" />
    <glyph glyph-name="B" unicode="B" horiz-adv-x="759" 
d="M93 0v728h335c83 0 149 -23 191 -64c33 -34 49 -74 49 -124v-2c0 -83 -45 -129 -97 -158c84 -31 138 -80 138 -178v-2c0 -133 -108 -200 -272 -200h-344zM515 513v2c0 49 -39 78 -109 78h-164v-162h154c73 0 119 25 119 82zM556 220c0 52 -39 83 -125 83h-189v-168h195
c74 0 119 27 119 83v2z" />
    <glyph glyph-name="C" unicode="C" horiz-adv-x="776" 
d="M433 -12c-214 0 -373 165 -373 374v2c0 207 156 376 379 376c137 0 219 -45 287 -112l-98 -113c-57 52 -115 84 -190 84c-126 0 -217 -105 -217 -233v-2c0 -128 89 -235 217 -235c85 0 137 34 195 87l98 -99c-75 -79 -158 -129 -298 -129z" />
    <glyph glyph-name="D" unicode="D" horiz-adv-x="821" 
d="M93 0v728h281c229 0 387 -157 387 -362v-2c0 -205 -158 -364 -387 -364h-281zM374 589h-128v-450h128c135 0 226 91 226 223v2c0 132 -91 225 -226 225z" />
    <glyph glyph-name="E" unicode="E" horiz-adv-x="705" 
d="M93 0v728h547v-137h-395v-156h348v-137h-348v-161h400v-137h-552z" />
    <glyph glyph-name="F" unicode="F" horiz-adv-x="690" 
d="M93 0v728h551v-140h-398v-163h352v-140h-352v-285h-153z" />
    <glyph glyph-name="G" unicode="G" horiz-adv-x="823" 
d="M442 -12c-227 0 -382 159 -382 374v2c0 206 160 376 381 376c130 0 209 -35 285 -99l-97 -117c-57 47 -108 75 -193 75c-120 0 -215 -106 -215 -233v-2c0 -136 93 -237 226 -237c60 0 114 16 156 46v111h-166v133h315v-314c-75 -64 -178 -115 -310 -115z" />
    <glyph glyph-name="H" unicode="H" horiz-adv-x="798" 
d="M93 0v728h153v-291h306v291h154v-728h-154v295h-306v-295h-153z" />
    <glyph glyph-name="I" unicode="I" horiz-adv-x="354" 
d="M100 0v728h154v-728h-154z" />
    <glyph glyph-name="J" unicode="J" horiz-adv-x="594" 
d="M257 -10c-113 0 -187 50 -237 110l98 108c41 -48 82 -76 135 -76c62 0 102 39 102 125v471h157v-477c0 -86 -25 -151 -68 -194c-44 -45 -109 -67 -187 -67z" />
    <glyph glyph-name="K" unicode="K" horiz-adv-x="766" 
d="M93 0v728h153v-328l304 328h189l-299 -310l312 -418h-185l-231 313l-90 -93v-220h-153z" />
    <glyph glyph-name="L" unicode="L" horiz-adv-x="651" 
d="M93 0v728h153v-588h367v-140h-520z" />
    <glyph glyph-name="M" unicode="M" horiz-adv-x="911" 
d="M93 0v728h165l197 -315l198 315h165v-728h-153v485l-210 -318h-4l-208 315v-482h-150z" />
    <glyph glyph-name="N" unicode="N" horiz-adv-x="830" 
d="M93 0v728h141l351 -459v459h152v-728h-131l-362 474v-474h-151z" />
    <glyph glyph-name="O" unicode="O" horiz-adv-x="892" 
d="M445 -12c-224 0 -385 167 -385 374v2c0 206 163 376 387 376s385 -167 385 -374v-2c0 -206 -163 -376 -387 -376zM447 129c132 0 224 105 224 233v2c0 128 -94 235 -226 235s-224 -105 -224 -233v-2c0 -128 94 -235 226 -235z" />
    <glyph glyph-name="P" unicode="P" horiz-adv-x="703" 
d="M93 0v728h295c173 0 278 -102 278 -250v-2c0 -168 -131 -254 -293 -254h-127v-222h-153zM246 359h132c83 0 133 49 133 114v2c0 74 -53 114 -136 114h-129v-230z" />
    <glyph glyph-name="Q" unicode="Q" horiz-adv-x="892" 
d="M842 87l-98 -109l-82 74c-61 -40 -135 -64 -217 -64c-224 0 -385 167 -385 374v2c0 206 163 376 387 376s385 -167 385 -374v-2c0 -78 -24 -151 -66 -212zM447 129c38 0 72 8 102 22l-120 103l98 110l121 -110c15 32 23 69 23 108v2c0 128 -94 235 -226 235
s-224 -105 -224 -233v-2c0 -128 94 -235 226 -235z" />
    <glyph glyph-name="Q.alt" horiz-adv-x="892" 
d="M671 -105l-112 109c-36 -10 -74 -16 -114 -16c-224 0 -385 167 -385 374v2c0 206 163 376 387 376s385 -167 385 -374v-2c0 -108 -45 -206 -120 -275l189 -189v-5h-230zM447 129c132 0 224 105 224 233v2c0 128 -94 235 -226 235s-224 -105 -224 -233v-2
c0 -128 94 -235 226 -235z" />
    <glyph glyph-name="R" unicode="R" horiz-adv-x="760" 
d="M246 373h168c80 0 128 43 128 107v2c0 70 -50 107 -131 107h-165v-216zM93 0v728h331c92 0 164 -26 212 -74c40 -40 61 -97 61 -164v-2c0 -118 -65 -192 -159 -225l182 -263h-180l-161 237h-133v-237h-153z" />
    <glyph glyph-name="S" unicode="S" horiz-adv-x="674" 
d="M351 -10c-111 0 -221 38 -308 116l91 109c66 -55 135 -90 220 -90c68 0 110 29 110 74v2c0 43 -26 65 -150 96c-149 37 -242 79 -242 222v2c0 130 106 217 254 217c106 0 195 -33 269 -92l-81 -116c-64 46 -128 73 -191 73c-64 0 -98 -31 -98 -68v-2
c0 -50 32 -67 160 -100c149 -38 232 -92 232 -217v-2c0 -143 -110 -224 -266 -224z" />
    <glyph glyph-name="T" unicode="T" horiz-adv-x="681" 
d="M264 0v586h-224v142h601v-142h-223v-586h-154z" />
    <glyph glyph-name="U" unicode="U" horiz-adv-x="794" 
d="M395 -11c-194 0 -314 109 -314 322v417h154v-412c0 -122 61 -186 162 -186s163 61 163 180v418h153v-411c0 -220 -123 -328 -318 -328z" />
    <glyph glyph-name="V" unicode="V" horiz-adv-x="788" 
d="M326 -5l-296 733h170l196 -522l196 522h166l-296 -733h-136z" />
    <glyph glyph-name="W" unicode="W" horiz-adv-x="1174" 
d="M286 -5l-250 733h165l156 -502l166 504h132l166 -504l155 502h161l-249 -733h-134l-167 485l-167 -485h-134z" />
    <glyph glyph-name="X" unicode="X" horiz-adv-x="769" 
d="M546 728h175l-245 -355l255 -373h-180l-169 256l-170 -256h-175l256 370l-245 358h180l158 -242z" />
    <glyph glyph-name="Y" unicode="Y" horiz-adv-x="753" 
d="M299 0v287l-281 441h180l179 -298l183 298h175l-282 -438v-290h-154z" />
    <glyph glyph-name="Z" unicode="Z" horiz-adv-x="743" 
d="M70 0v116l406 477h-393v135h591v-116l-406 -477h406v-135h-604z" />
    <glyph glyph-name="a" unicode="a" horiz-adv-x="623" 
d="M280 95c76 0 128 42 128 102v30c-28 12 -65 21 -106 21c-70 0 -113 -29 -113 -80v-2c0 -45 38 -71 91 -71zM235 -11c-105 0 -193 61 -193 171v2c0 121 93 177 225 177c58 0 99 -9 139 -22v10c0 68 -42 105 -123 105c-60 0 -104 -12 -155 -31l-38 116c61 27 122 45 215 45
c85 0 147 -23 187 -62c41 -41 60 -102 60 -176v-324h-147v62c-38 -43 -92 -73 -170 -73z" />
    <glyph glyph-name="a.alt" horiz-adv-x="709" 
d="M343 119c76 0 140 63 140 158v2c0 95 -64 158 -140 158s-140 -61 -140 -158v-2c0 -95 64 -158 140 -158zM305 -11c-130 0 -254 102 -254 288v2c0 185 122 287 254 287c85 0 138 -39 176 -85v75h152v-556h-152v82c-39 -53 -93 -93 -176 -93z" />
    <glyph glyph-name="b" unicode="b" horiz-adv-x="709" 
d="M404 -11c-85 0 -138 40 -176 86v-75h-152v759h152v-286c39 53 93 93 176 93c130 0 254 -102 254 -287v-2c0 -185 -122 -288 -254 -288zM366 119c76 0 140 61 140 158v2c0 95 -64 158 -140 158s-140 -63 -140 -158v-2c0 -95 64 -158 140 -158z" />
    <glyph glyph-name="c" unicode="c" horiz-adv-x="602" 
d="M338 -12c-167 0 -289 128 -289 287v2c0 158 121 289 291 289c104 0 170 -36 222 -94l-94 -100c-36 38 -72 63 -129 63c-82 0 -140 -71 -140 -156v-2c0 -88 57 -159 146 -159c54 0 92 24 131 61l89 -89c-54 -60 -117 -102 -227 -102z" />
    <glyph glyph-name="d" unicode="d" horiz-adv-x="709" 
d="M343 119c76 0 140 63 140 158v2c0 95 -64 158 -140 158s-140 -61 -140 -158v-2c0 -95 64 -158 140 -158zM305 -11c-130 0 -254 102 -254 288v2c0 185 122 287 254 287c85 0 138 -39 176 -85v278h152v-759h-152v82c-39 -53 -93 -93 -176 -93z" />
    <glyph glyph-name="e" unicode="e" horiz-adv-x="644" 
d="M338 -12c-166 0 -289 117 -289 287v2c0 159 113 289 274 289c184 0 270 -143 270 -301c0 -12 -1 -26 -2 -40h-391c15 -76 67 -115 140 -115c55 0 94 17 138 58l87 -77c-52 -64 -126 -103 -227 -103zM198 320h247c-10 73 -52 124 -122 124c-68 0 -113 -49 -125 -124z" />
    <glyph glyph-name="f" unicode="f" horiz-adv-x="404" 
d="M104 0v426h-67v125h67v36c0 62 15 106 44 136c29 29 72 43 127 43c49 0 82 -6 111 -15v-126c-24 8 -45 13 -73 13c-38 0 -60 -20 -60 -64v-24h132v-124h-130v-426h-151z" />
    <glyph glyph-name="g" unicode="g" horiz-adv-x="709" 
d="M342 171c79 0 141 55 141 134v2c0 79 -62 133 -141 133s-139 -54 -139 -133v-2c0 -80 60 -134 139 -134zM325 -168c-90 0 -176 21 -246 59l52 114c58 -33 116 -52 190 -52c109 0 162 53 162 155v30c-47 -57 -99 -93 -184 -93c-130 0 -248 95 -248 260v2
c0 165 120 259 248 259c87 0 139 -37 182 -85v75h152v-433c0 -98 -24 -170 -71 -217c-51 -51 -131 -74 -237 -74z" />
    <glyph glyph-name="h" unicode="h" horiz-adv-x="655" 
d="M76 0v759h152v-283c36 47 84 90 165 90c120 0 191 -79 191 -207v-359h-152v311c0 77 -37 118 -100 118s-104 -41 -104 -118v-311h-152z" />
    <glyph glyph-name="i" unicode="i" horiz-adv-x="319" 
d="M79 622v136h160v-136h-160zM84 0v556h151v-556h-151z" />
    <glyph glyph-name="j" unicode="j" horiz-adv-x="319" 
d="M79 622v136h160v-136h-160zM60 -170c-28 0 -45 2 -67 7v119c13 -2 23 -4 34 -4c33 0 57 19 57 66v538h151v-550c0 -120 -61 -176 -175 -176z" />
    <glyph glyph-name="k" unicode="k" horiz-adv-x="622" 
d="M76 0v759h152v-414l194 211h182l-214 -221l221 -335h-176l-147 231l-60 -64v-167h-152z" />
    <glyph glyph-name="l" unicode="l" horiz-adv-x="319" 
d="M84 0v759h151v-759h-151z" />
    <glyph glyph-name="m" unicode="m" horiz-adv-x="996" 
d="M76 0v556h152v-80c36 47 84 90 165 90c74 0 129 -33 158 -90c48 58 107 90 184 90c118 0 189 -71 189 -206v-360h-152v311c0 77 -34 118 -96 118c-61 0 -100 -41 -100 -118v-311h-152v311c0 77 -35 118 -96 118s-100 -42 -100 -118v-311h-152z" />
    <glyph glyph-name="n" unicode="n" horiz-adv-x="655" 
d="M76 0v556h152v-80c36 47 84 90 165 90c120 0 191 -79 191 -207v-359h-152v311c0 77 -37 118 -100 118s-104 -41 -104 -118v-311h-152z" />
    <glyph glyph-name="o" unicode="o" horiz-adv-x="697" 
d="M347 -12c-171 0 -298 127 -298 287v2c0 159 128 289 301 289c171 0 298 -128 298 -287v-2c0 -160 -128 -289 -301 -289zM350 118c92 0 148 72 148 157v2c0 85 -61 158 -151 158c-92 0 -148 -71 -148 -156v-2c0 -85 61 -159 151 -159z" />
    <glyph glyph-name="p" unicode="p" horiz-adv-x="709" 
d="M366 119c76 0 140 61 140 158v2c0 95 -64 158 -140 158s-140 -63 -140 -158v-2c0 -95 64 -158 140 -158zM76 -166v722h152v-83c39 53 93 93 176 93c130 0 254 -102 254 -287v-2c0 -185 -122 -288 -254 -288c-85 0 -138 40 -176 86v-241h-152z" />
    <glyph glyph-name="q" unicode="q" horiz-adv-x="709" 
d="M481 -166v248c-39 -53 -93 -93 -176 -93c-130 0 -254 102 -254 288v2c0 185 122 287 254 287c85 0 138 -39 176 -85v75h152v-722h-152zM343 119c76 0 140 63 140 158v2c0 95 -64 158 -140 158s-140 -61 -140 -158v-2c0 -95 64 -158 140 -158z" />
    <glyph glyph-name="r" unicode="r" horiz-adv-x="442" 
d="M76 0v556h152v-115c33 78 87 129 181 125v-159h-8c-106 0 -173 -65 -173 -200v-207h-152z" />
    <glyph glyph-name="s" unicode="s" horiz-adv-x="530" 
d="M270 -10c-78 0 -165 26 -238 83l66 101c60 -44 124 -67 176 -67c48 0 71 18 71 45v2c0 36 -55 48 -117 67c-79 23 -168 59 -168 166v2c0 112 91 175 203 175c70 0 146 -24 206 -64l-58 -105c-55 32 -110 52 -152 52c-40 0 -62 -18 -62 -42v-2c0 -33 55 -48 116 -69
c78 -25 169 -62 169 -164v-2c0 -122 -92 -178 -212 -178z" />
    <glyph glyph-name="t" unicode="t" horiz-adv-x="439" 
d="M264 -9c-96 0 -162 38 -162 166v269h-67v130h67v144h152v-144h134v-130h-134v-244c0 -39 17 -57 54 -57c29 0 55 7 78 19v-122c-33 -19 -70 -31 -122 -31z" />
    <glyph glyph-name="u" unicode="u" horiz-adv-x="655" 
d="M262 -11c-120 0 -190 80 -190 208v359h151v-311c0 -77 37 -118 100 -118s104 41 104 118v311h152v-556h-152v80c-36 -48 -84 -91 -165 -91z" />
    <glyph glyph-name="v" unicode="v" horiz-adv-x="631" 
d="M247 -4l-221 560h161l129 -380l131 380h158l-221 -560h-137z" />
    <glyph glyph-name="w" unicode="w" horiz-adv-x="903" 
d="M203 -4l-172 560h154l93 -346l109 348h130l109 -349l96 347h151l-175 -560h-137l-110 349l-112 -349h-136z" />
    <glyph glyph-name="x" unicode="x" horiz-adv-x="614" 
d="M200 556l108 -167l110 167h159l-189 -271l197 -285h-163l-117 179l-117 -179h-159l197 283l-189 273h163z" />
    <glyph glyph-name="y" unicode="y" horiz-adv-x="631" 
d="M319 171l126 385h158l-215 -570c-43 -113 -89 -156 -183 -156c-56 0 -98 15 -138 38l51 110c21 -12 47 -21 69 -21c29 0 44 9 60 41l-221 558h161z" />
    <glyph glyph-name="z" unicode="z" horiz-adv-x="593" 
d="M56 0v106l294 327h-284v123h474v-107l-295 -326h295v-123h-484z" />
    <glyph glyph-name="uni0391" unicode="&#x391;" horiz-adv-x="830" 
d="M310 302h205l-102 247zM30 0l314 733h142l313 -733h-161l-68 166h-315l-68 -166h-157z" />
    <glyph glyph-name="uni0392" unicode="&#x392;" horiz-adv-x="759" 
d="M93 0v728h335c83 0 149 -23 191 -64c33 -34 49 -74 49 -124v-2c0 -83 -45 -129 -97 -158c84 -31 138 -80 138 -178v-2c0 -133 -108 -200 -272 -200h-344zM515 513v2c0 49 -39 78 -109 78h-164v-162h154c73 0 119 25 119 82zM556 220c0 52 -39 83 -125 83h-189v-168h195
c74 0 119 27 119 83v2z" />
    <glyph glyph-name="uni0393" unicode="&#x393;" horiz-adv-x="651" 
d="M93 0v728h520v-140h-367v-588h-153z" />
    <glyph glyph-name="uni0394" unicode="&#x394;" horiz-adv-x="826" 
d="M62 0l-12 111l283 622h160l283 -622l-12 -111h-702zM411 564l-186 -428h372z" />
    <glyph glyph-name="uni0395" unicode="&#x395;" horiz-adv-x="705" 
d="M93 0v728h547v-137h-395v-156h348v-137h-348v-161h400v-137h-552z" />
    <glyph glyph-name="uni0396" unicode="&#x396;" horiz-adv-x="743" 
d="M70 0v116l406 477h-393v135h591v-116l-406 -477h406v-135h-604z" />
    <glyph glyph-name="uni0397" unicode="&#x397;" horiz-adv-x="798" 
d="M93 0v728h153v-291h306v291h154v-728h-154v295h-306v-295h-153z" />
    <glyph glyph-name="uni0398" unicode="&#x398;" horiz-adv-x="892" 
d="M445 -12c-224 0 -385 167 -385 374v2c0 206 163 376 387 376s385 -167 385 -374v-2c0 -206 -163 -376 -387 -376zM447 127c139 0 229 100 229 235v2c0 135 -92 237 -231 237s-229 -100 -229 -235v-2c0 -135 92 -237 231 -237zM590 437v-141h-288v141h288z" />
    <glyph glyph-name="uni0399" unicode="&#x399;" horiz-adv-x="354" 
d="M100 0v728h154v-728h-154z" />
    <glyph glyph-name="uni039A" unicode="&#x39a;" horiz-adv-x="766" 
d="M93 0v728h153v-328l304 328h189l-299 -310l312 -418h-185l-231 313l-90 -93v-220h-153z" />
    <glyph glyph-name="uni039B" unicode="&#x39b;" horiz-adv-x="809" 
d="M472 733l307 -733h-170l-208 518l-205 -518h-166l306 733h136z" />
    <glyph glyph-name="uni039C" unicode="&#x39c;" horiz-adv-x="911" 
d="M93 0v728h165l197 -315l198 315h165v-728h-153v485l-210 -318h-4l-208 315v-482h-150z" />
    <glyph glyph-name="uni039D" unicode="&#x39d;" horiz-adv-x="830" 
d="M93 0v728h141l351 -459v459h152v-728h-131l-362 474v-474h-151z" />
    <glyph glyph-name="uni039E" unicode="&#x39e;" horiz-adv-x="694" 
d="M629 589h-564v139h564v-139zM603 297h-512v139h512v-139zM634 0h-574v139h574v-139z" />
    <glyph glyph-name="uni039E.alt" horiz-adv-x="777" 
d="M717 136v-136h-657v136h255v163h-224v135h224v158h-250v136h647v-136h-250v-158h224v-135h-224v-163h255z" />
    <glyph glyph-name="uni039F" unicode="&#x39f;" horiz-adv-x="892" 
d="M445 -12c-224 0 -385 167 -385 374v2c0 206 163 376 387 376s385 -167 385 -374v-2c0 -206 -163 -376 -387 -376zM447 129c132 0 224 105 224 233v2c0 128 -94 235 -226 235s-224 -105 -224 -233v-2c0 -128 94 -235 226 -235z" />
    <glyph glyph-name="uni03A0" unicode="&#x3a0;" horiz-adv-x="794" 
d="M93 0v728h608v-728h-154v588h-301v-588h-153z" />
    <glyph glyph-name="uni03A1" unicode="&#x3a1;" horiz-adv-x="703" 
d="M93 0v728h295c173 0 278 -102 278 -250v-2c0 -168 -131 -254 -293 -254h-127v-222h-153zM246 359h132c83 0 133 49 133 114v2c0 74 -53 114 -136 114h-129v-230z" />
    <glyph glyph-name="uni03A3" unicode="&#x3a3;" horiz-adv-x="730" 
d="M521 364l-233 -229h382v-135h-597v114l251 250l-249 250v114h589v-135h-374z" />
    <glyph glyph-name="uni03A4" unicode="&#x3a4;" horiz-adv-x="681" 
d="M264 0v586h-224v142h601v-142h-223v-586h-154z" />
    <glyph glyph-name="uni03A5" unicode="&#x3a5;" horiz-adv-x="753" 
d="M299 0v287l-281 441h180l179 -298l183 298h175l-282 -438v-290h-154z" />
    <glyph glyph-name="uni03A6" unicode="&#x3a6;" horiz-adv-x="1018" 
d="M432 -9v74c-240 4 -377 127 -377 300v1c0 170 136 297 377 301v70h154v-70c240 -5 377 -127 377 -300v-1c0 -170 -137 -297 -377 -301v-74h-154zM803 367c0 94 -70 165 -220 166v-334c148 1 220 71 220 167v1zM214 365c0 -94 71 -165 221 -166v334
c-148 -1 -221 -70 -221 -167v-1z" />
    <glyph glyph-name="uni03A7" unicode="&#x3a7;" horiz-adv-x="769" 
d="M546 728h175l-245 -355l255 -373h-180l-169 256l-170 -256h-175l256 370l-245 358h180l158 -242z" />
    <glyph glyph-name="uni03A8" unicode="&#x3a8;" horiz-adv-x="896" 
d="M824 728v-259c0 -212 -114 -310 -300 -317v-152h-152v152c-188 6 -299 105 -299 312v264h151v-260c0 -122 48 -170 150 -174v434h148v-434c101 4 150 50 150 169v265h152z" />
    <glyph glyph-name="uni03A9" unicode="&#x3a9;" horiz-adv-x="913" 
d="M457 740c235 0 375 -145 375 -335v-1c0 -128 -69 -212 -152 -273h169v-131h-322v129c79 55 144 125 144 255v1c0 126 -80 215 -216 214c-133 0 -213 -87 -213 -210v-1c0 -123 59 -198 143 -259v-129h-321v131h168c-84 64 -151 145 -151 274v1c0 178 139 335 376 334z" />
    <glyph glyph-name="uni03B1" unicode="&#x3b1;" horiz-adv-x="750" 
d="M343 119c76 0 140 63 140 158v2c0 95 -64 158 -140 158s-140 -61 -140 -158v-2c0 -95 64 -158 140 -158zM721 122v-117c-20 -6 -46 -11 -83 -11c-74 0 -119 25 -139 83c-41 -50 -100 -88 -186 -88c-138 0 -262 102 -262 288v2c0 185 122 287 254 287
c85 0 138 -39 176 -85v75h152v-378c0 -44 20 -59 55 -59c13 0 24 1 33 3z" />
    <glyph glyph-name="uni03B2" unicode="&#x3b2;" horiz-adv-x="695" 
d="M226 493v-66h84c100 0 158 44 158 115c0 57 -41 99 -110 99c-83 0 -132 -58 -132 -148zM311 320h-85v-22c0 -128 63 -181 155 -181c75 0 113 41 113 93c0 73 -56 110 -183 110zM228 -166h-152v658c0 171 104 274 281 274c172 0 259 -90 259 -208v-1
c0 -89 -47 -154 -135 -180c102 -26 163 -75 163 -181v-1c0 -119 -82 -207 -221 -206c-93 0 -159 38 -195 86v-241z" />
    <glyph glyph-name="uni03B3" unicode="&#x3b3;" horiz-adv-x="631" 
d="M605 556l-214 -533v-189h-151v189l-214 533h162l128 -369l130 369h159z" />
    <glyph glyph-name="uni03B4" unicode="&#x3b4;" horiz-adv-x="681" 
d="M564 635l-236 4l116 -83c127 -90 186 -167 186 -289c0 -155 -112 -279 -295 -279c-173 0 -286 122 -286 271c0 138 65 208 206 281l-125 106v113h434v-124zM357 454h-1c-121 -65 -161 -121 -160 -194c0 -78 57 -145 142 -145s144 69 144 143c0 67 -25 110 -125 196z" />
    <glyph glyph-name="uni03B5" unicode="&#x3b5;" horiz-adv-x="599" 
d="M417 224h-120c-65 0 -96 -20 -96 -54v-1c0 -36 33 -59 108 -59c62 0 131 22 188 59l63 -99c-75 -53 -165 -81 -257 -81c-163 0 -249 66 -249 164v1c0 70 47 105 97 126c-49 25 -83 61 -83 120v1c0 94 83 163 241 163c102 0 178 -28 246 -78l-76 -101
c-47 36 -105 59 -164 59c-67 0 -100 -25 -100 -56v-1c0 -35 24 -54 82 -54h120v-109z" />
    <glyph glyph-name="uni03B6" unicode="&#x3b6;" horiz-adv-x="585" 
d="M396 -133v120l-103 13c-170 22 -246 91 -246 209c0 85 31 142 110 225l191 200h-260v125h451v-117l-281 -301c-46 -49 -61 -76 -61 -115c0 -56 42 -83 122 -94l218 -30v-235h-141z" />
    <glyph glyph-name="uni03B7" unicode="&#x3b7;" horiz-adv-x="655" 
d="M584 -166h-152v477c0 77 -37 118 -100 118s-104 -41 -104 -118v-311h-152v556h152v-80c36 47 84 90 165 90c120 0 191 -79 191 -207v-525z" />
    <glyph glyph-name="uni03B8" unicode="&#x3b8;" horiz-adv-x="709" 
d="M353 -12c-174 0 -294 146 -294 376v26c0 229 123 376 297 376s294 -147 294 -376v-26c0 -230 -123 -376 -297 -376zM354 639c-88 0 -144 -77 -149 -200h298c-5 123 -62 200 -149 200zM355 115c88 0 144 77 148 201h-298c6 -125 62 -201 150 -201z" />
    <glyph glyph-name="uni03B9" unicode="&#x3b9;" horiz-adv-x="343" 
d="M74 171v385h152v-378c0 -44 20 -59 55 -59c13 0 25 1 33 3v-117c-20 -6 -46 -11 -84 -11c-104 0 -156 51 -156 177z" />
    <glyph glyph-name="uni03BA" unicode="&#x3ba;" horiz-adv-x="622" 
d="M228 556v-231l194 231h185l-212 -233l216 -323h-177l-139 216l-67 -74v-142h-152v556h152z" />
    <glyph glyph-name="uni03BB" unicode="&#x3bb;" horiz-adv-x="647" 
d="M105 625v125c27 10 58 16 96 16c99 0 140 -38 179 -141l243 -625h-161l-137 381l-139 -381h-158l228 551l-13 32c-14 36 -36 54 -73 54c-22 0 -41 -3 -65 -12z" />
    <glyph glyph-name="uni03BC" unicode="&#x3bc;" horiz-adv-x="704" 
d="M676 122v-117c-21 -6 -45 -11 -82 -11c-68 0 -111 21 -134 69c-31 -48 -75 -70 -124 -70c-51 0 -107 24 -129 76h-2c9 -38 20 -76 20 -124v-111h-149v722h152v-315c0 -77 38 -119 102 -119c65 0 106 42 106 119v315h152v-385c2 -39 21 -52 55 -52c13 0 24 1 33 3z" />
    <glyph glyph-name="uni03BD" unicode="&#x3bd;" horiz-adv-x="631" 
d="M247 -4l-221 560h161l129 -380l131 380h158l-221 -560h-137z" />
    <glyph glyph-name="uni03BE" unicode="&#x3be;" horiz-adv-x="586" 
d="M571 689l-74 -116c-45 37 -93 62 -153 62c-68 0 -111 -40 -111 -97c0 -64 57 -102 144 -102h88v-124h-118c-95 0 -147 -36 -147 -91c0 -58 45 -83 121 -93l211 -28v-233h-141v120l-105 13c-145 18 -236 70 -236 200c0 96 57 151 149 180c-62 27 -116 73 -116 171
c0 119 97 215 262 215c105 0 172 -34 226 -77z" />
    <glyph glyph-name="uni03BF" unicode="&#x3bf;" horiz-adv-x="697" 
d="M347 -12c-171 0 -298 127 -298 287v2c0 159 128 289 301 289c171 0 298 -128 298 -287v-2c0 -160 -128 -289 -301 -289zM350 118c92 0 148 72 148 157v2c0 85 -61 158 -151 158c-92 0 -148 -71 -148 -156v-2c0 -85 61 -159 151 -159z" />
    <glyph glyph-name="uni03C0" unicode="&#x3c0;" horiz-adv-x="743" 
d="M31 556h663v-135h-88v-243c0 -44 20 -59 55 -59c13 0 25 1 33 3v-117c-20 -6 -46 -11 -84 -11c-104 0 -156 51 -156 177v250h-183v-421h-152v421h-88v135z" />
    <glyph glyph-name="uni03C1" unicode="&#x3c1;" horiz-adv-x="699" 
d="M356 119c77 0 141 61 141 158v2c0 95 -64 158 -141 158c-76 0 -139 -63 -139 -158v-2c0 -95 63 -158 139 -158zM67 -166v427c0 183 110 305 290 305c173 0 292 -126 292 -287v-2c0 -180 -124 -288 -249 -288c-91 0 -143 37 -182 87v-242h-151z" />
    <glyph glyph-name="uni03C3" unicode="&#x3c3;" horiz-adv-x="730" 
d="M698 426l-145 2c57 -42 87 -96 87 -171v-1c0 -149 -123 -269 -296 -268c-171 0 -295 122 -295 281v1c0 156 123 287 314 286h335v-130zM347 118c92 0 145 66 145 150v1c0 84 -53 157 -148 156c-92 0 -145 -71 -145 -155v-1c0 -82 58 -152 148 -151z" />
    <glyph glyph-name="uni03C2" unicode="&#x3c2;" horiz-adv-x="605" 
d="M397 -133v122l-59 7c-185 26 -289 122 -289 289v1c0 147 111 281 288 280c108 0 172 -38 225 -97l-95 -103c-36 41 -74 69 -133 69c-81 0 -135 -70 -135 -146v-1c0 -97 60 -148 179 -163l160 -22v-236h-141z" />
    <glyph glyph-name="uni03C4" unicode="&#x3c4;" horiz-adv-x="605" 
d="M562 421h-192v-227c0 -56 25 -76 73 -76c22 0 43 3 68 9v-119c-30 -9 -63 -15 -106 -15c-132 0 -187 51 -187 192v236h-181v135h525v-135z" />
    <glyph glyph-name="uni03C5" unicode="&#x3c5;" horiz-adv-x="657" 
d="M327 -12c-157 0 -257 83 -257 246v322h152v-317c0 -76 32 -121 107 -121s107 44 107 118v320h152v-318c0 -168 -104 -250 -261 -250z" />
    <glyph glyph-name="uni03C6" unicode="&#x3c6;" horiz-adv-x="892" 
d="M521 -166h-150v165c-206 7 -322 123 -322 278v1c0 152 116 271 322 279v202h150v-202c206 -8 322 -124 322 -278v-1c0 -152 -117 -272 -322 -279v-165zM197 278c0 -88 64 -149 177 -152v304c-118 -4 -177 -65 -177 -151v-1zM696 278c0 88 -65 149 -178 152v-304
c118 3 178 64 178 151v1z" />
    <glyph glyph-name="uni03C7" unicode="&#x3c7;" horiz-adv-x="643" 
d="M193 556l130 -231l130 231h163l-211 -344l235 -378h-168l-152 266l-153 -266h-163l233 376l-211 346h167z" />
    <glyph glyph-name="uni03C8" unicode="&#x3c8;" horiz-adv-x="871" 
d="M510 -166h-149v164c-177 1 -291 93 -291 276v282h150v-279c0 -92 57 -147 142 -148v630h147v-630c85 1 142 55 142 146v281h150v-278c0 -187 -117 -278 -291 -280v-164z" />
    <glyph glyph-name="uni03C9" unicode="&#x3c9;" horiz-adv-x="923" 
d="M388 448h148v-189c0 -88 37 -137 91 -137c59 0 93 47 93 148s-41 182 -125 286h161c70 -81 112 -175 112 -291c0 -165 -75 -277 -220 -277c-104 0 -159 60 -187 136c-29 -76 -83 -136 -188 -136c-145 0 -218 112 -218 277c0 116 42 210 112 291h159
c-84 -104 -123 -185 -123 -286s34 -148 93 -148c54 0 92 49 92 137v189z" />
    <glyph glyph-name="uni0410" unicode="&#x410;" horiz-adv-x="830" 
d="M310 302h205l-102 247zM30 0l314 733h142l313 -733h-161l-68 166h-315l-68 -166h-157z" />
    <glyph glyph-name="uni0411" unicode="&#x411;" horiz-adv-x="744" 
d="M93 0v728h536v-136h-387v-149h187c165 0 264 -75 264 -215v-1c0 -140 -98 -227 -270 -227h-330zM242 136h184c66 0 113 31 113 88v1c0 54 -42 85 -112 85h-185v-174z" />
    <glyph glyph-name="uni0412" unicode="&#x412;" horiz-adv-x="759" 
d="M93 0v728h335c83 0 149 -23 191 -64c33 -34 49 -74 49 -124v-2c0 -83 -45 -129 -97 -158c84 -31 138 -80 138 -178v-2c0 -133 -108 -200 -272 -200h-344zM515 513v2c0 49 -39 78 -109 78h-164v-162h154c73 0 119 25 119 82zM556 220c0 52 -39 83 -125 83h-189v-168h195
c74 0 119 27 119 83v2z" />
    <glyph glyph-name="uni0413" unicode="&#x413;" horiz-adv-x="651" 
d="M93 0v728h520v-140h-367v-588h-153z" />
    <glyph glyph-name="uni0414" unicode="&#x414;" horiz-adv-x="884" 
d="M440 564l-174 -430h348zM36 140h72l253 593h162l251 -593h74v-288h-144v148h-524v-148h-144v288z" />
    <glyph glyph-name="uni0415" unicode="&#x415;" horiz-adv-x="705" 
d="M93 0v728h547v-137h-395v-156h348v-137h-348v-161h400v-137h-552z" />
    <glyph glyph-name="uni0401" unicode="&#x401;" horiz-adv-x="705" 
d="M182 786v129h148v-129h-148zM406 786v129h148v-129h-148zM93 0v728h547v-137h-395v-156h348v-137h-348v-161h400v-137h-552z" />
    <glyph glyph-name="uni0416" unicode="&#x416;" horiz-adv-x="1143" 
d="M35 728h183l239 -296h40l-1 296h151l-2 -296h40l242 296h181l-297 -355l321 -373h-183l-257 302h-47l2 -302h-151l1 302h-51l-255 -302h-180l321 373z" />
    <glyph glyph-name="uni0417" unicode="&#x417;" horiz-adv-x="702" 
d="M149 517l-93 104c80 71 170 119 300 119c172 0 272 -77 272 -196v-1c0 -93 -48 -139 -126 -169c86 -22 146 -68 146 -170v-1c0 -122 -111 -216 -303 -215c-131 0 -230 47 -302 111l91 110c62 -49 130 -84 215 -84c82 0 143 31 143 91v1c0 56 -55 87 -144 86h-134v128h138
c76 0 120 36 120 89v1c0 52 -45 82 -119 82c-77 0 -144 -36 -204 -86z" />
    <glyph glyph-name="uni0418" unicode="&#x418;" horiz-adv-x="830" 
d="M737 0h-154v486l-355 -486h-135v728h153v-471l344 471h147v-728z" />
    <glyph glyph-name="uni0419" unicode="&#x419;" horiz-adv-x="830" 
d="M415 784c-108 0 -185 54 -194 152h104c13 -33 38 -52 90 -52s77 19 90 52h104c-9 -98 -86 -152 -194 -152zM737 0h-154v486l-355 -486h-135v728h153v-471l344 471h147v-728z" />
    <glyph glyph-name="uni041A" unicode="&#x41a;" horiz-adv-x="776" 
d="M93 0v728h153l-2 -294h58l258 294h191l-326 -352l345 -376h-196l-269 300h-61l2 -300h-153z" />
    <glyph glyph-name="uni041B" unicode="&#x41b;" horiz-adv-x="809" 
d="M472 733l307 -733h-170l-208 518l-205 -518h-166l306 733h136z" />
    <glyph glyph-name="uni041C" unicode="&#x41c;" horiz-adv-x="911" 
d="M93 0v728h165l197 -315l198 315h165v-728h-153v485l-210 -318h-4l-208 315v-482h-150z" />
    <glyph glyph-name="uni041D" unicode="&#x41d;" horiz-adv-x="798" 
d="M93 0v728h153v-291h306v291h154v-728h-154v295h-306v-295h-153z" />
    <glyph glyph-name="uni041E" unicode="&#x41e;" horiz-adv-x="892" 
d="M445 -12c-224 0 -385 167 -385 374v2c0 206 163 376 387 376s385 -167 385 -374v-2c0 -206 -163 -376 -387 -376zM447 129c132 0 224 105 224 233v2c0 128 -94 235 -226 235s-224 -105 -224 -233v-2c0 -128 94 -235 226 -235z" />
    <glyph glyph-name="uni041F" unicode="&#x41f;" horiz-adv-x="794" 
d="M93 0v728h608v-728h-154v588h-301v-588h-153z" />
    <glyph glyph-name="uni0420" unicode="&#x420;" horiz-adv-x="703" 
d="M93 0v728h295c173 0 278 -102 278 -250v-2c0 -168 -131 -254 -293 -254h-127v-222h-153zM246 359h132c83 0 133 49 133 114v2c0 74 -53 114 -136 114h-129v-230z" />
    <glyph glyph-name="uni0421" unicode="&#x421;" horiz-adv-x="776" 
d="M433 -12c-214 0 -373 165 -373 374v2c0 207 156 376 379 376c137 0 219 -45 287 -112l-98 -113c-57 52 -115 84 -190 84c-126 0 -217 -105 -217 -233v-2c0 -128 89 -235 217 -235c85 0 137 34 195 87l98 -99c-75 -79 -158 -129 -298 -129z" />
    <glyph glyph-name="uni0422" unicode="&#x422;" horiz-adv-x="681" 
d="M264 0v586h-224v142h601v-142h-223v-586h-154z" />
    <glyph glyph-name="uni0423" unicode="&#x423;" horiz-adv-x="760" 
d="M337 0h-171l144 250l-283 478h174l194 -339l177 339h171z" />
    <glyph glyph-name="uni0424" unicode="&#x424;" horiz-adv-x="1018" 
d="M432 -9v74c-240 4 -377 127 -377 300v1c0 170 136 297 377 301v70h154v-70c240 -5 377 -127 377 -300v-1c0 -170 -137 -297 -377 -301v-74h-154zM803 367c0 94 -70 165 -220 166v-334c148 1 220 71 220 167v1zM214 365c0 -94 71 -165 221 -166v334
c-148 -1 -221 -70 -221 -167v-1z" />
    <glyph glyph-name="uni0424.bgr" horiz-adv-x="1033" 
d="M439 -104v103c-231 13 -379 162 -379 363v2c0 199 149 350 379 365v103h154v-103c231 -13 379 -163 379 -363v-2c0 -200 -150 -352 -379 -365v-103h-154zM813 364c0 123 -83 218 -225 225v-451c143 7 225 99 225 224v2zM219 364c0 -124 83 -217 225 -226v451
c-143 -7 -225 -99 -225 -223v-2z" />
    <glyph glyph-name="uni0425" unicode="&#x425;" horiz-adv-x="769" 
d="M546 728h175l-245 -355l255 -373h-180l-169 256l-170 -256h-175l256 370l-245 358h180l158 -242z" />
    <glyph glyph-name="uni0426" unicode="&#x426;" horiz-adv-x="827" 
d="M650 -148v148h-557v728h153v-588h301v588h154v-588h93v-288h-144z" />
    <glyph glyph-name="uni0427" unicode="&#x427;" horiz-adv-x="750" 
d="M504 0v239c-48 -10 -106 -17 -155 -17c-166 0 -275 77 -275 252v254h154v-237c0 -90 45 -130 137 -130c49 0 96 6 139 17v350h154v-728h-154z" />
    <glyph glyph-name="uni0428" unicode="&#x428;" horiz-adv-x="1179" 
d="M93 0v728h153v-588h266v588h154v-588h266v588h154v-728h-993z" />
    <glyph glyph-name="uni0429" unicode="&#x429;" horiz-adv-x="1212" 
d="M93 0v728h153v-588h266v588h154v-588h266v588h154v-588h93v-288h-144v148h-942z" />
    <glyph glyph-name="uni042A" unicode="&#x42a;" horiz-adv-x="874" 
d="M260 0v591h-220v137h373v-232h134c174 0 286 -83 286 -244v-1c0 -154 -105 -251 -292 -251h-281zM413 139h131c81 0 134 38 134 110v1c0 70 -48 109 -133 109h-132v-220z" />
    <glyph glyph-name="uni042B" unicode="&#x42b;" horiz-adv-x="1022" 
d="M775 0v728h154v-728h-154zM93 0v728h153v-232h134c174 0 286 -83 286 -245v-1c0 -152 -105 -251 -292 -250h-281zM246 139h131c82 0 134 38 134 111v1c0 68 -48 109 -133 108h-132v-220z" />
    <glyph glyph-name="uni042C" unicode="&#x42c;" horiz-adv-x="708" 
d="M93 0v728h153v-232h134c174 0 286 -83 286 -244v-1c0 -154 -105 -251 -292 -251h-281zM246 139h131c81 0 134 38 134 110v1c0 70 -48 109 -133 109h-132v-220z" />
    <glyph glyph-name="uni042D" unicode="&#x42d;" horiz-adv-x="772" 
d="M52 623c73 68 159 117 301 117c207 0 359 -156 359 -374v-2c0 -213 -152 -376 -370 -376c-132 0 -222 46 -297 118l97 108c64 -56 120 -88 199 -88c105 0 187 71 208 176h-327v130h326c-22 101 -101 170 -203 170c-87 0 -146 -35 -202 -84z" />
    <glyph glyph-name="uni042E" unicode="&#x42e;" horiz-adv-x="1169" 
d="M93 0v728h153v-291h125c33 170 176 303 367 303c217 0 371 -171 371 -374v-2c0 -203 -156 -376 -373 -376c-193 0 -336 134 -366 307h-124v-295h-153zM738 129c127 0 210 104 210 233v2c0 129 -85 235 -212 235s-210 -104 -210 -233v-2c0 -129 85 -235 212 -235z" />
    <glyph glyph-name="uni042F" unicode="&#x42f;" horiz-adv-x="760" 
d="M514 373v216h-165c-81 1 -131 -38 -131 -107v-1c0 -67 48 -108 129 -108h167zM227 260c-95 32 -165 105 -165 218v1c0 170 119 249 303 249h302v-728h-153v237h-125l-167 -237h-182z" />
    <glyph glyph-name="uni0430" unicode="&#x430;" horiz-adv-x="623" 
d="M280 95c76 0 128 42 128 102v30c-28 12 -65 21 -106 21c-70 0 -113 -29 -113 -80v-2c0 -45 38 -71 91 -71zM235 -11c-105 0 -193 61 -193 171v2c0 121 93 177 225 177c58 0 99 -9 139 -22v10c0 68 -42 105 -123 105c-60 0 -104 -12 -155 -31l-38 116c61 27 122 45 215 45
c85 0 147 -23 187 -62c41 -41 60 -102 60 -176v-324h-147v62c-38 -43 -92 -73 -170 -73z" />
    <glyph glyph-name="uni0431" unicode="&#x431;" horiz-adv-x="690" 
d="M344 -12c-88 0 -157 33 -200 76c-58 58 -90 139 -90 263v1c0 238 96 373 297 407l208 35l24 -139l-205 -32c-112 -19 -167 -67 -182 -150c45 38 112 65 190 65c164 0 255 -101 255 -247v-1c0 -157 -119 -279 -297 -278zM346 115c87 0 146 63 146 149v1
c0 79 -51 139 -139 138c-95 0 -149 -66 -149 -146s57 -142 142 -142z" />
    <glyph glyph-name="uni0432" unicode="&#x432;" horiz-adv-x="627" 
d="M76 0v556h285c116 0 194 -53 194 -144c0 -67 -33 -99 -81 -122c63 -23 105 -58 105 -132c0 -108 -89 -158 -218 -158h-285zM408 391c0 34 -26 57 -76 57h-108v-117h106c54 0 78 24 78 60zM432 169c0 38 -27 60 -84 60h-124v-122h127c52 0 81 21 81 62z" />
    <glyph glyph-name="uni0432.bgr" horiz-adv-x="686" 
d="M67 275v217c0 171 103 274 281 274c159 0 258 -84 258 -211v-1c0 -98 -60 -151 -134 -176c101 -25 162 -76 162 -182v-1c0 -122 -112 -208 -273 -207c-182 0 -294 87 -294 287zM218 493v-66h83c100 0 157 44 157 115c0 57 -40 99 -109 99c-83 0 -131 -58 -131 -148z
M302 320h-84v-44c0 -105 42 -163 143 -163c77 0 124 42 124 98c0 72 -56 109 -183 109z" />
    <glyph glyph-name="uni0433" unicode="&#x433;" horiz-adv-x="537" 
d="M76 0v556h424v-137h-272v-419h-152z" />
    <glyph glyph-name="uni0433.bgr" horiz-adv-x="551" 
d="M241 -10c-118 0 -198 58 -198 162v2c0 94 62 141 184 179c102 32 128 43 128 72v1c0 23 -19 42 -60 41c-53 0 -111 -22 -174 -58l-58 104c72 45 155 71 234 71c127 0 195 -64 195 -163v-2c0 -98 -68 -135 -185 -173c-107 -34 -127 -48 -127 -76v-1c0 -25 19 -42 64 -42
c59 0 125 25 203 74l63 -101c-84 -57 -174 -90 -269 -90z" />
    <glyph glyph-name="uni0434" unicode="&#x434;" horiz-adv-x="713" 
d="M355 406l-114 -275h228zM277 560h159l187 -423h63v-271h-137v135h-385v-135h-137v271h63z" />
    <glyph glyph-name="uni0434.bgr" horiz-adv-x="709" 
d="M342 171c79 0 141 55 141 134v2c0 79 -62 133 -141 133s-139 -54 -139 -133v-2c0 -80 60 -134 139 -134zM325 -168c-90 0 -176 21 -246 59l52 114c58 -33 116 -52 190 -52c109 0 162 53 162 155v30c-47 -57 -99 -93 -184 -93c-130 0 -248 95 -248 260v2
c0 165 120 259 248 259c87 0 139 -37 182 -85v75h152v-433c0 -98 -24 -170 -71 -217c-51 -51 -131 -74 -237 -74z" />
    <glyph glyph-name="uni0435" unicode="&#x435;" horiz-adv-x="644" 
d="M338 -12c-166 0 -289 117 -289 287v2c0 159 113 289 274 289c184 0 270 -143 270 -301c0 -12 -1 -26 -2 -40h-391c15 -76 67 -115 140 -115c55 0 94 17 138 58l87 -77c-52 -64 -126 -103 -227 -103zM198 320h247c-10 73 -52 124 -122 124c-68 0 -113 -49 -125 -124z" />
    <glyph glyph-name="uni0451" unicode="&#x451;" horiz-adv-x="644" 
d="M141 619v137h147v-137h-147zM354 619v137h147v-137h-147zM338 -12c-166 0 -289 117 -289 287v2c0 159 113 289 274 289c184 0 270 -143 270 -301c0 -12 -1 -26 -2 -40h-391c15 -76 67 -115 140 -115c55 0 94 17 138 58l87 -77c-52 -64 -126 -103 -227 -103zM198 320h247
c-10 73 -52 124 -122 124c-68 0 -113 -49 -125 -124z" />
    <glyph glyph-name="uni0436" unicode="&#x436;" horiz-adv-x="949" 
d="M548 556l-2 -211h46l162 211h176l-224 -271l233 -285h-177l-169 216h-47l2 -216h-147l1 216h-47l-168 -216h-177l233 277l-224 279h178l162 -211h43l-1 211h147z" />
    <glyph glyph-name="uni0436.bgr" horiz-adv-x="949" 
d="M548 759l-2 -414h46l162 211h176l-224 -271l233 -285h-177l-169 216h-47l2 -216h-147l1 216h-47l-168 -216h-177l233 277l-224 279h178l162 -211h43l-1 414h147z" />
    <glyph glyph-name="uni0437" unicode="&#x437;" horiz-adv-x="592" 
d="M39 70l75 100c56 -40 117 -60 178 -60c69 0 105 22 105 60v1c0 33 -33 54 -97 53h-119v109h118c57 0 83 19 83 55v1c0 33 -33 56 -92 55c-64 0 -114 -21 -165 -60l-80 94c65 55 143 88 255 88c138 0 229 -64 229 -158v-1c0 -63 -35 -101 -91 -124
c62 -19 106 -58 106 -129v-1c0 -90 -91 -166 -251 -165c-106 0 -182 28 -254 82z" />
    <glyph glyph-name="uni0438" unicode="&#x438;" horiz-adv-x="672" 
d="M76 0v556h151v-316l226 316h143v-556h-151v326l-234 -326h-135z" />
    <glyph glyph-name="uni0438.bgr" horiz-adv-x="655" 
d="M262 -11c-120 0 -190 80 -190 208v359h151v-311c0 -77 37 -118 100 -118s104 41 104 118v311h152v-556h-152v80c-36 -48 -84 -91 -165 -91z" />
    <glyph glyph-name="uni0439" unicode="&#x439;" horiz-adv-x="672" 
d="M336 617c-108 0 -183 59 -192 162h102c13 -37 38 -63 90 -63s77 26 90 63h102c-9 -103 -84 -162 -192 -162zM76 0v556h151v-316l226 316h143v-556h-151v326l-234 -326h-135z" />
    <glyph glyph-name="uni0439.bgr" horiz-adv-x="655" 
d="M325 617c-108 0 -183 59 -192 162h102c13 -37 38 -63 90 -63s77 26 90 63h102c-9 -103 -84 -162 -192 -162zM262 -11c-120 0 -190 80 -190 208v359h151v-311c0 -77 37 -118 100 -118s104 41 104 118v311h152v-556h-152v80c-36 -48 -84 -91 -165 -91z" />
    <glyph glyph-name="uni043A" unicode="&#x43a;" horiz-adv-x="634" 
d="M228 556v-210h43l161 210h185l-228 -272l236 -284h-181l-172 215h-44v-215h-152v556h152z" />
    <glyph glyph-name="uni043A.bgr" horiz-adv-x="634" 
d="M228 759v-413h43l161 210h185l-228 -272l236 -284h-181l-172 215h-44v-215h-152v759h152z" />
    <glyph glyph-name="uni043B" unicode="&#x43b;" horiz-adv-x="661" 
d="M402 560l235 -560h-163l-144 374l-146 -374h-160l235 560h143z" />
    <glyph glyph-name="uni043C" unicode="&#x43c;" horiz-adv-x="766" 
d="M76 0v556h158l149 -231l150 231h157v-556h-147v337l-160 -241h-3l-157 238v-334h-147z" />
    <glyph glyph-name="uni043D" unicode="&#x43d;" horiz-adv-x="672" 
d="M76 0v556h152v-207h216v207h152v-556h-152v210h-216v-210h-152z" />
    <glyph glyph-name="uni043E" unicode="&#x43e;" horiz-adv-x="697" 
d="M347 -12c-171 0 -298 127 -298 287v2c0 159 128 289 301 289c171 0 298 -128 298 -287v-2c0 -160 -128 -289 -301 -289zM350 118c92 0 148 72 148 157v2c0 85 -61 158 -151 158c-92 0 -148 -71 -148 -156v-2c0 -85 61 -159 151 -159z" />
    <glyph glyph-name="uni043F" unicode="&#x43f;" horiz-adv-x="672" 
d="M76 0v556h520v-556h-152v419h-216v-419h-152z" />
    <glyph glyph-name="uni043F.bgr" horiz-adv-x="655" 
d="M76 0v556h152v-80c36 47 84 90 165 90c120 0 191 -79 191 -207v-359h-152v311c0 77 -37 118 -100 118s-104 -41 -104 -118v-311h-152z" />
    <glyph glyph-name="uni0440" unicode="&#x440;" horiz-adv-x="709" 
d="M366 119c76 0 140 61 140 158v2c0 95 -64 158 -140 158s-140 -63 -140 -158v-2c0 -95 64 -158 140 -158zM76 -166v722h152v-83c39 53 93 93 176 93c130 0 254 -102 254 -287v-2c0 -185 -122 -288 -254 -288c-85 0 -138 40 -176 86v-241h-152z" />
    <glyph glyph-name="uni0441" unicode="&#x441;" horiz-adv-x="602" 
d="M338 -12c-167 0 -289 128 -289 287v2c0 158 121 289 291 289c104 0 170 -36 222 -94l-94 -100c-36 38 -72 63 -129 63c-82 0 -140 -71 -140 -156v-2c0 -88 57 -159 146 -159c54 0 92 24 131 61l89 -89c-54 -60 -117 -102 -227 -102z" />
    <glyph glyph-name="uni0442" unicode="&#x442;" horiz-adv-x="601" 
d="M225 0v421h-184v135h519v-135h-184v-421h-151z" />
    <glyph glyph-name="uni0442.bgr" horiz-adv-x="996" 
d="M76 0v556h152v-80c36 47 84 90 165 90c74 0 129 -33 158 -90c48 58 107 90 184 90c118 0 189 -71 189 -206v-360h-152v311c0 77 -34 118 -96 118c-61 0 -100 -41 -100 -118v-311h-152v311c0 77 -35 118 -96 118s-100 -42 -100 -118v-311h-152z" />
    <glyph glyph-name="uni0443" unicode="&#x443;" horiz-adv-x="631" 
d="M319 171l126 385h158l-215 -570c-43 -113 -89 -156 -183 -156c-56 0 -98 15 -138 38l51 110c21 -12 47 -21 69 -21c29 0 44 9 60 41l-221 558h161z" />
    <glyph glyph-name="uni0444" unicode="&#x444;" horiz-adv-x="892" 
d="M521 -166h-150v165c-206 7 -322 123 -322 278v1c0 152 116 271 322 279v202h150v-202c206 -8 322 -124 322 -278v-1c0 -152 -117 -272 -322 -279v-165zM197 278c0 -88 64 -149 177 -152v304c-118 -4 -177 -65 -177 -151v-1zM696 278c0 88 -65 149 -178 152v-304
c118 3 178 64 178 151v1z" />
    <glyph glyph-name="uni0445" unicode="&#x445;" horiz-adv-x="614" 
d="M200 556l108 -167l110 167h159l-189 -271l197 -285h-163l-117 179l-117 -179h-159l197 283l-189 273h163z" />
    <glyph glyph-name="uni0446" unicode="&#x446;" horiz-adv-x="698" 
d="M531 -134v134h-455v556h152v-419h216v419h152v-419h72v-271h-137z" />
    <glyph glyph-name="uni0446.bgr" horiz-adv-x="681" 
d="M262 -11c-120 0 -190 80 -190 208v359h151v-311c0 -77 37 -118 100 -118s104 41 104 118v311h152v-419h73v-271h-137v134h-88v80c-36 -48 -84 -91 -165 -91z" />
    <glyph glyph-name="uni0447" unicode="&#x447;" horiz-adv-x="628" 
d="M400 0v170c-30 -8 -73 -16 -115 -16c-142 0 -226 65 -226 207v195h151v-181c0 -62 33 -85 98 -85c37 0 64 6 92 15v251h152v-556h-152z" />
    <glyph glyph-name="uni0448" unicode="&#x448;" horiz-adv-x="992" 
d="M76 0v556h152v-419h192v419h152v-419h192v419h152v-556h-840z" />
    <glyph glyph-name="uni0448.bgr" horiz-adv-x="996" 
d="M920 556v-556h-152v80c-36 -47 -84 -91 -165 -91c-74 0 -129 34 -158 90c-48 -57 -106 -90 -184 -90c-118 0 -189 72 -189 206v361h152v-311c0 -78 34 -118 96 -118c61 0 100 40 100 118v311h152v-312c0 -77 35 -117 96 -117s100 41 100 118v311h152z" />
    <glyph glyph-name="uni0449" unicode="&#x449;" horiz-adv-x="1018" 
d="M76 0v556h152v-419h192v419h152v-419h192v419h152v-419h72v-271h-137v134h-775z" />
    <glyph glyph-name="uni0449.bgr" horiz-adv-x="1022" 
d="M855 -134v134h-87v80c-36 -47 -84 -91 -165 -91c-74 0 -129 34 -158 90c-48 -57 -106 -90 -184 -90c-118 0 -189 72 -189 206v361h152v-311c0 -78 34 -118 96 -118c61 0 100 40 100 118v311h152v-312c0 -77 35 -117 96 -117s100 41 100 118v311h152v-419h72v-271h-137z
" />
    <glyph glyph-name="uni044A" unicode="&#x44a;" horiz-adv-x="710" 
d="M35 556h308v-161h107c134 0 224 -69 224 -195v-1c0 -120 -85 -200 -235 -199h-246v424h-158v132zM342 273v-150h93c57 0 90 25 90 76v1c0 41 -31 74 -88 73h-95z" />
    <glyph glyph-name="uni044B" unicode="&#x44b;" horiz-adv-x="866" 
d="M638 0v556h152v-556h-152zM227 556v-161h107c134 0 224 -69 224 -195v-1c0 -120 -85 -200 -236 -199h-246v556h151zM226 273v-150h92c57 0 91 25 91 76v1c0 41 -32 74 -89 73h-94z" />
    <glyph glyph-name="uni044C" unicode="&#x44c;" horiz-adv-x="594" 
d="M227 556v-161h107c134 0 224 -69 224 -195v-1c0 -120 -85 -200 -236 -199h-246v556h151zM226 273v-150h92c57 0 91 25 91 76v1c0 41 -32 74 -89 73h-94z" />
    <glyph glyph-name="uni044D" unicode="&#x44d;" horiz-adv-x="605" 
d="M115 172c49 -41 91 -59 154 -59c71 0 122 42 136 105l-230 -1v121l230 -2c-16 64 -66 105 -138 105c-65 0 -104 -22 -149 -57l-75 97c60 51 129 85 232 85c167 0 281 -122 281 -288v-1c0 -163 -115 -290 -285 -289c-100 0 -172 32 -233 83z" />
    <glyph glyph-name="uni044E" unicode="&#x44e;" horiz-adv-x="945" 
d="M228 210v-210h-152v556h152v-206h92c32 124 144 216 285 216c166 0 291 -128 291 -287v-2c0 -160 -126 -289 -293 -289c-143 0 -256 94 -285 222h-90zM605 118c87 0 141 72 141 157v2c0 85 -60 158 -143 158c-87 0 -142 -71 -142 -156v-2c0 -85 60 -159 144 -159z" />
    <glyph glyph-name="uni044E.bgr" horiz-adv-x="945" 
d="M603 -12c-143 0 -256 94 -285 222h-90v-210h-152v759h152v-409h92c32 124 144 216 285 216c166 0 291 -128 291 -287v-2c0 -160 -126 -289 -293 -289zM605 118c87 0 141 72 141 157v2c0 85 -60 158 -143 158c-87 0 -142 -71 -142 -156v-2c0 -85 60 -159 144 -159z" />
    <glyph glyph-name="uni044F" unicode="&#x44f;" horiz-adv-x="634" 
d="M408 440h-109c-55 0 -90 -26 -90 -76v-1c0 -42 32 -73 89 -72h110v149zM408 181h-69l-126 -181h-171l142 199c-72 25 -123 80 -123 166v1c0 128 91 191 232 190h264v-556h-149v181z" />
    <glyph glyph-name="Aacute" unicode="&#xc1;" horiz-adv-x="830" 
d="M353 796l124 161l132 -58l-140 -103h-116zM310 302h205l-102 247zM30 0l314 733h142l313 -733h-161l-68 166h-315l-68 -166h-157z" />
    <glyph glyph-name="aacute" unicode="&#xe1;" horiz-adv-x="623" 
d="M253 619l114 181l132 -57l-134 -124h-112zM280 95c76 0 128 42 128 102v30c-28 12 -65 21 -106 21c-70 0 -113 -29 -113 -80v-2c0 -45 38 -71 91 -71zM235 -11c-105 0 -193 61 -193 171v2c0 121 93 177 225 177c58 0 99 -9 139 -22v10c0 68 -42 105 -123 105
c-60 0 -104 -12 -155 -31l-38 116c61 27 122 45 215 45c85 0 147 -23 187 -62c41 -41 60 -102 60 -176v-324h-147v62c-38 -43 -92 -73 -170 -73z" />
    <glyph glyph-name="aacute.alt" horiz-adv-x="709" 
d="M302 619l114 181l132 -57l-134 -124h-112zM343 119c76 0 140 63 140 158v2c0 95 -64 158 -140 158s-140 -61 -140 -158v-2c0 -95 64 -158 140 -158zM305 -11c-130 0 -254 102 -254 288v2c0 185 122 287 254 287c85 0 138 -39 176 -85v75h152v-556h-152v82
c-39 -53 -93 -93 -176 -93z" />
    <glyph glyph-name="Abreve" unicode="&#x102;" horiz-adv-x="830" 
d="M415 794c-108 0 -185 54 -194 152h104c13 -33 38 -52 90 -52s77 19 90 52h104c-9 -98 -86 -152 -194 -152zM310 302h205l-102 247zM30 0l314 733h142l313 -733h-161l-68 166h-315l-68 -166h-157z" />
    <glyph glyph-name="abreve" unicode="&#x103;" horiz-adv-x="623" 
d="M313 617c-108 0 -183 59 -192 162h102c13 -37 38 -63 90 -63s77 26 90 63h102c-9 -103 -84 -162 -192 -162zM280 95c76 0 128 42 128 102v30c-28 12 -65 21 -106 21c-70 0 -113 -29 -113 -80v-2c0 -45 38 -71 91 -71zM235 -11c-105 0 -193 61 -193 171v2
c0 121 93 177 225 177c58 0 99 -9 139 -22v10c0 68 -42 105 -123 105c-60 0 -104 -12 -155 -31l-38 116c61 27 122 45 215 45c85 0 147 -23 187 -62c41 -41 60 -102 60 -176v-324h-147v62c-38 -43 -92 -73 -170 -73z" />
    <glyph glyph-name="abreve.alt" horiz-adv-x="709" 
d="M362 617c-108 0 -183 59 -192 162h102c13 -37 38 -63 90 -63s77 26 90 63h102c-9 -103 -84 -162 -192 -162zM343 119c76 0 140 63 140 158v2c0 95 -64 158 -140 158s-140 -61 -140 -158v-2c0 -95 64 -158 140 -158zM305 -11c-130 0 -254 102 -254 288v2
c0 185 122 287 254 287c85 0 138 -39 176 -85v75h152v-556h-152v82c-39 -53 -93 -93 -176 -93z" />
    <glyph glyph-name="Acircumflex" unicode="&#xc2;" horiz-adv-x="830" 
d="M212 792l131 150h144l131 -150h-122l-82 58l-82 -58h-120zM310 302h205l-102 247zM30 0l314 733h142l313 -733h-161l-68 166h-315l-68 -166h-157z" />
    <glyph glyph-name="acircumflex" unicode="&#xe2;" horiz-adv-x="623" 
d="M115 619l126 161h144l126 -161h-117l-82 69l-82 -69h-115zM280 95c76 0 128 42 128 102v30c-28 12 -65 21 -106 21c-70 0 -113 -29 -113 -80v-2c0 -45 38 -71 91 -71zM235 -11c-105 0 -193 61 -193 171v2c0 121 93 177 225 177c58 0 99 -9 139 -22v10
c0 68 -42 105 -123 105c-60 0 -104 -12 -155 -31l-38 116c61 27 122 45 215 45c85 0 147 -23 187 -62c41 -41 60 -102 60 -176v-324h-147v62c-38 -43 -92 -73 -170 -73z" />
    <glyph glyph-name="acircumflex.alt" horiz-adv-x="709" 
d="M164 619l126 161h144l126 -161h-117l-82 69l-82 -69h-115zM343 119c76 0 140 63 140 158v2c0 95 -64 158 -140 158s-140 -61 -140 -158v-2c0 -95 64 -158 140 -158zM305 -11c-130 0 -254 102 -254 288v2c0 185 122 287 254 287c85 0 138 -39 176 -85v75h152v-556h-152v82
c-39 -53 -93 -93 -176 -93z" />
    <glyph glyph-name="Adieresis" unicode="&#xc4;" horiz-adv-x="830" 
d="M229 796v129h148v-129h-148zM453 796v129h148v-129h-148zM310 302h205l-102 247zM30 0l314 733h142l313 -733h-161l-68 166h-315l-68 -166h-157z" />
    <glyph glyph-name="adieresis" unicode="&#xe4;" horiz-adv-x="623" 
d="M133 619v137h147v-137h-147zM346 619v137h147v-137h-147zM280 95c76 0 128 42 128 102v30c-28 12 -65 21 -106 21c-70 0 -113 -29 -113 -80v-2c0 -45 38 -71 91 -71zM235 -11c-105 0 -193 61 -193 171v2c0 121 93 177 225 177c58 0 99 -9 139 -22v10
c0 68 -42 105 -123 105c-60 0 -104 -12 -155 -31l-38 116c61 27 122 45 215 45c85 0 147 -23 187 -62c41 -41 60 -102 60 -176v-324h-147v62c-38 -43 -92 -73 -170 -73z" />
    <glyph glyph-name="adieresis.alt" horiz-adv-x="709" 
d="M182 619v137h147v-137h-147zM395 619v137h147v-137h-147zM343 119c76 0 140 63 140 158v2c0 95 -64 158 -140 158s-140 -61 -140 -158v-2c0 -95 64 -158 140 -158zM305 -11c-130 0 -254 102 -254 288v2c0 185 122 287 254 287c85 0 138 -39 176 -85v75h152v-556h-152v82
c-39 -53 -93 -93 -176 -93z" />
    <glyph glyph-name="Agrave" unicode="&#xc0;" horiz-adv-x="830" 
d="M476 796h-116l-140 103l132 58zM310 302h205l-102 247zM30 0l314 733h142l313 -733h-161l-68 166h-315l-68 -166h-157z" />
    <glyph glyph-name="agrave" unicode="&#xe0;" horiz-adv-x="623" 
d="M261 619l-134 124l132 57l114 -181h-112zM280 95c76 0 128 42 128 102v30c-28 12 -65 21 -106 21c-70 0 -113 -29 -113 -80v-2c0 -45 38 -71 91 -71zM235 -11c-105 0 -193 61 -193 171v2c0 121 93 177 225 177c58 0 99 -9 139 -22v10c0 68 -42 105 -123 105
c-60 0 -104 -12 -155 -31l-38 116c61 27 122 45 215 45c85 0 147 -23 187 -62c41 -41 60 -102 60 -176v-324h-147v62c-38 -43 -92 -73 -170 -73z" />
    <glyph glyph-name="agrave.alt" horiz-adv-x="709" 
d="M310 619l-134 124l132 57l114 -181h-112zM343 119c76 0 140 63 140 158v2c0 95 -64 158 -140 158s-140 -61 -140 -158v-2c0 -95 64 -158 140 -158zM305 -11c-130 0 -254 102 -254 288v2c0 185 122 287 254 287c85 0 138 -39 176 -85v75h152v-556h-152v82
c-39 -53 -93 -93 -176 -93z" />
    <glyph glyph-name="Amacron" unicode="&#x100;" horiz-adv-x="830" 
d="M220 802v108h390v-108h-390zM310 302h205l-102 247zM30 0l314 733h142l313 -733h-161l-68 166h-315l-68 -166h-157z" />
    <glyph glyph-name="amacron" unicode="&#x101;" horiz-adv-x="623" 
d="M128 625v106h370v-106h-370zM280 95c76 0 128 42 128 102v30c-28 12 -65 21 -106 21c-70 0 -113 -29 -113 -80v-2c0 -45 38 -71 91 -71zM235 -11c-105 0 -193 61 -193 171v2c0 121 93 177 225 177c58 0 99 -9 139 -22v10c0 68 -42 105 -123 105c-60 0 -104 -12 -155 -31
l-38 116c61 27 122 45 215 45c85 0 147 -23 187 -62c41 -41 60 -102 60 -176v-324h-147v62c-38 -43 -92 -73 -170 -73z" />
    <glyph glyph-name="amacron.alt" horiz-adv-x="709" 
d="M177 625v106h370v-106h-370zM343 119c76 0 140 63 140 158v2c0 95 -64 158 -140 158s-140 -61 -140 -158v-2c0 -95 64 -158 140 -158zM305 -11c-130 0 -254 102 -254 288v2c0 185 122 287 254 287c85 0 138 -39 176 -85v75h152v-556h-152v82c-39 -53 -93 -93 -176 -93z
" />
    <glyph glyph-name="Aogonek" unicode="&#x104;" horiz-adv-x="830" 
d="M807 -103v-68c-16 -2 -31 -2 -44 -2c-90 0 -139 39 -139 89c0 30 14 57 36 84h-22l-68 166h-315l-68 -166h-157l314 733h142l313 -733h-38c-20 -23 -27 -42 -27 -60c0 -30 27 -44 73 -43zM310 302h205l-102 247z" />
    <glyph glyph-name="aogonek" unicode="&#x105;" horiz-adv-x="623" 
d="M556 -103v-68c-16 -2 -31 -2 -44 -2c-90 0 -139 39 -139 89c0 30 14 57 36 84h-4v62c-38 -43 -92 -73 -170 -73c-105 0 -193 61 -193 171v2c0 121 93 177 225 177c58 0 99 -9 139 -22v10c0 68 -42 105 -123 105c-60 0 -104 -12 -155 -31l-38 116c61 27 122 45 215 45
c85 0 147 -23 187 -62c41 -41 60 -102 60 -176v-324h-42c-20 -23 -27 -42 -27 -60c0 -30 27 -44 73 -43zM280 95c76 0 128 42 128 102v30c-28 12 -65 21 -106 21c-70 0 -113 -29 -113 -80v-2c0 -45 38 -71 91 -71z" />
    <glyph glyph-name="aogonek.alt" horiz-adv-x="709" 
d="M644 -103v-68c-16 -2 -31 -2 -44 -2c-90 0 -139 39 -139 89c0 30 14 57 36 84h-16v82c-39 -53 -93 -93 -176 -93c-130 0 -254 102 -254 288v2c0 185 122 287 254 287c85 0 138 -39 176 -85v75h152v-556h-35c-20 -23 -27 -42 -27 -60c0 -30 27 -44 73 -43zM343 119
c76 0 140 63 140 158v2c0 95 -64 158 -140 158s-140 -61 -140 -158v-2c0 -95 64 -158 140 -158z" />
    <glyph glyph-name="Aring" unicode="&#xc5;" horiz-adv-x="830" 
d="M415 714c39 0 66 26 66 58c0 33 -27 59 -66 59c-40 0 -66 -26 -66 -59c0 -32 26 -58 66 -58zM310 302h205l-102 247zM30 0l295 690c-24 20 -38 48 -38 82c0 67 59 114 128 114s128 -47 128 -114c0 -34 -15 -62 -39 -82l295 -690h-161l-68 166h-315l-68 -166h-157z" />
    <glyph glyph-name="aring" unicode="&#xe5;" horiz-adv-x="623" 
d="M313 617c-69 0 -125 53 -125 120s56 121 125 121s125 -54 125 -121s-56 -120 -125 -120zM313 668c38 0 69 32 69 69c0 38 -31 69 -69 69s-69 -31 -69 -69c0 -37 31 -69 69 -69zM280 95c76 0 128 42 128 102v30c-28 12 -65 21 -106 21c-70 0 -113 -29 -113 -80v-2
c0 -45 38 -71 91 -71zM235 -11c-105 0 -193 61 -193 171v2c0 121 93 177 225 177c58 0 99 -9 139 -22v10c0 68 -42 105 -123 105c-60 0 -104 -12 -155 -31l-38 116c61 27 122 45 215 45c85 0 147 -23 187 -62c41 -41 60 -102 60 -176v-324h-147v62c-38 -43 -92 -73 -170 -73
z" />
    <glyph glyph-name="aring.alt" horiz-adv-x="709" 
d="M362 617c-69 0 -125 53 -125 120s56 121 125 121s125 -54 125 -121s-56 -120 -125 -120zM362 668c38 0 69 32 69 69c0 38 -31 69 -69 69s-69 -31 -69 -69c0 -37 31 -69 69 -69zM343 119c76 0 140 63 140 158v2c0 95 -64 158 -140 158s-140 -61 -140 -158v-2
c0 -95 64 -158 140 -158zM305 -11c-130 0 -254 102 -254 288v2c0 185 122 287 254 287c85 0 138 -39 176 -85v75h152v-556h-152v82c-39 -53 -93 -93 -176 -93z" />
    <glyph glyph-name="aring.alt2" horiz-adv-x="623" 
d="M244 632c0 -38 32 -69 69 -69c38 0 69 31 69 69s-31 69 -69 69c-37 0 -69 -31 -69 -69zM280 95c76 0 128 42 128 102v30c-28 12 -65 21 -106 21c-70 0 -113 -29 -113 -80v-2c0 -45 38 -71 91 -71zM235 -11c-105 0 -193 61 -193 171v2c0 121 93 177 225 177
c58 0 99 -9 139 -22v10c0 68 -42 105 -123 105c-60 0 -104 -12 -155 -31l-38 116c40 18 79 32 128 39c-19 21 -30 47 -30 76c0 67 56 121 125 121s125 -54 125 -121c0 -32 -15 -61 -37 -82c38 -10 68 -28 91 -50c41 -41 60 -102 60 -176v-324h-147v62
c-38 -43 -92 -73 -170 -73z" />
    <glyph glyph-name="Aringacute" unicode="&#x1fa;" horiz-adv-x="830" 
d="M347 915l130 141l131 -58l-145 -83h-116zM415 714c39 0 66 26 66 58c0 33 -27 59 -66 59c-40 0 -66 -26 -66 -59c0 -32 26 -58 66 -58zM310 302h205l-102 247zM30 0l295 690c-24 20 -38 48 -38 82c0 67 59 114 128 114s128 -47 128 -114c0 -34 -15 -62 -39 -82l295 -690
h-161l-68 166h-315l-68 -166h-157z" />
    <glyph glyph-name="aringacute" unicode="&#x1fb;" horiz-adv-x="623" 
d="M252 893l122 151l130 -58l-140 -93h-112zM313 617c-69 0 -125 53 -125 120s56 121 125 121s125 -54 125 -121s-56 -120 -125 -120zM313 668c38 0 69 32 69 69c0 38 -31 69 -69 69s-69 -31 -69 -69c0 -37 31 -69 69 -69zM280 95c76 0 128 42 128 102v30
c-28 12 -65 21 -106 21c-70 0 -113 -29 -113 -80v-2c0 -45 38 -71 91 -71zM235 -11c-105 0 -193 61 -193 171v2c0 121 93 177 225 177c58 0 99 -9 139 -22v10c0 68 -42 105 -123 105c-60 0 -104 -12 -155 -31l-38 116c61 27 122 45 215 45c85 0 147 -23 187 -62
c41 -41 60 -102 60 -176v-324h-147v62c-38 -43 -92 -73 -170 -73z" />
    <glyph glyph-name="aringacute.alt" horiz-adv-x="709" 
d="M301 893l122 151l130 -58l-140 -93h-112zM362 617c-69 0 -125 53 -125 120s56 121 125 121s125 -54 125 -121s-56 -120 -125 -120zM362 668c38 0 69 32 69 69c0 38 -31 69 -69 69s-69 -31 -69 -69c0 -37 31 -69 69 -69zM343 119c76 0 140 63 140 158v2
c0 95 -64 158 -140 158s-140 -61 -140 -158v-2c0 -95 64 -158 140 -158zM305 -11c-130 0 -254 102 -254 288v2c0 185 122 287 254 287c85 0 138 -39 176 -85v75h152v-556h-152v82c-39 -53 -93 -93 -176 -93z" />
    <glyph glyph-name="aringacute.alt2" horiz-adv-x="623" 
d="M252 789l122 151l130 -58l-140 -93h-112zM244 632c0 -38 32 -69 69 -69c38 0 69 31 69 69s-31 69 -69 69c-37 0 -69 -31 -69 -69zM280 95c76 0 128 42 128 102v30c-28 12 -65 21 -106 21c-70 0 -113 -29 -113 -80v-2c0 -45 38 -71 91 -71zM235 -11
c-105 0 -193 61 -193 171v2c0 121 93 177 225 177c58 0 99 -9 139 -22v10c0 68 -42 105 -123 105c-60 0 -104 -12 -155 -31l-38 116c40 18 79 32 128 39c-19 21 -30 47 -30 76c0 67 56 121 125 121s125 -54 125 -121c0 -32 -15 -61 -37 -82c38 -10 68 -28 91 -50
c41 -41 60 -102 60 -176v-324h-147v62c-38 -43 -92 -73 -170 -73z" />
    <glyph glyph-name="Atilde" unicode="&#xc3;" horiz-adv-x="830" 
d="M507 796c-34 0 -69 12 -99 24c-25 9 -45 16 -61 16c-32 0 -45 -17 -60 -51l-82 26c24 86 57 140 128 140c34 0 69 -12 99 -24c25 -9 45 -17 61 -17c32 0 45 18 60 51l81 -25c-23 -86 -56 -140 -127 -140zM310 302h205l-102 247zM30 0l314 733h142l313 -733h-161l-68 166
h-315l-68 -166h-157z" />
    <glyph glyph-name="atilde" unicode="&#xe3;" horiz-adv-x="623" 
d="M402 619c-34 0 -67 12 -93 23c-24 9 -45 17 -61 17c-32 0 -45 -17 -59 -51l-82 25c24 87 56 141 127 141c34 0 67 -12 93 -23c24 -9 45 -18 61 -18c32 0 45 18 59 52l82 -25c-24 -87 -56 -141 -127 -141zM280 95c76 0 128 42 128 102v30c-28 12 -65 21 -106 21
c-70 0 -113 -29 -113 -80v-2c0 -45 38 -71 91 -71zM235 -11c-105 0 -193 61 -193 171v2c0 121 93 177 225 177c58 0 99 -9 139 -22v10c0 68 -42 105 -123 105c-60 0 -104 -12 -155 -31l-38 116c61 27 122 45 215 45c85 0 147 -23 187 -62c41 -41 60 -102 60 -176v-324h-147
v62c-38 -43 -92 -73 -170 -73z" />
    <glyph glyph-name="atilde.alt" horiz-adv-x="709" 
d="M451 619c-34 0 -67 12 -93 23c-24 9 -45 17 -61 17c-32 0 -45 -17 -59 -51l-82 25c24 87 56 141 127 141c34 0 67 -12 93 -23c24 -9 45 -18 61 -18c32 0 45 18 59 52l82 -25c-24 -87 -56 -141 -127 -141zM343 119c76 0 140 63 140 158v2c0 95 -64 158 -140 158
s-140 -61 -140 -158v-2c0 -95 64 -158 140 -158zM305 -11c-130 0 -254 102 -254 288v2c0 185 122 287 254 287c85 0 138 -39 176 -85v75h152v-556h-152v82c-39 -53 -93 -93 -176 -93z" />
    <glyph glyph-name="Cacute" unicode="&#x106;" horiz-adv-x="776" 
d="M364 796l124 161l132 -58l-140 -103h-116zM433 -12c-214 0 -373 165 -373 374v2c0 207 156 376 379 376c137 0 219 -45 287 -112l-98 -113c-57 52 -115 84 -190 84c-126 0 -217 -105 -217 -233v-2c0 -128 89 -235 217 -235c85 0 137 34 195 87l98 -99
c-75 -79 -158 -129 -298 -129z" />
    <glyph glyph-name="cacute" unicode="&#x107;" horiz-adv-x="602" 
d="M274 619l114 181l132 -57l-134 -124h-112zM338 -12c-167 0 -289 128 -289 287v2c0 158 121 289 291 289c104 0 170 -36 222 -94l-94 -100c-36 38 -72 63 -129 63c-82 0 -140 -71 -140 -156v-2c0 -88 57 -159 146 -159c54 0 92 24 131 61l89 -89
c-54 -60 -117 -102 -227 -102z" />
    <glyph glyph-name="Ccaron" unicode="&#x10c;" horiz-adv-x="776" 
d="M629 946l-131 -150h-144l-131 150h122l82 -58l82 58h120zM433 -12c-214 0 -373 165 -373 374v2c0 207 156 376 379 376c137 0 219 -45 287 -112l-98 -113c-57 52 -115 84 -190 84c-126 0 -217 -105 -217 -233v-2c0 -128 89 -235 217 -235c85 0 137 34 195 87l98 -99
c-75 -79 -158 -129 -298 -129z" />
    <glyph glyph-name="ccaron" unicode="&#x10d;" horiz-adv-x="602" 
d="M531 780l-126 -161h-144l-126 161h117l82 -69l82 69h115zM338 -12c-167 0 -289 128 -289 287v2c0 158 121 289 291 289c104 0 170 -36 222 -94l-94 -100c-36 38 -72 63 -129 63c-82 0 -140 -71 -140 -156v-2c0 -88 57 -159 146 -159c54 0 92 24 131 61l89 -89
c-54 -60 -117 -102 -227 -102z" />
    <glyph glyph-name="Ccedilla" unicode="&#xc7;" horiz-adv-x="776" 
d="M391 -178l-128 53l84 122c-169 37 -287 185 -287 365v2c0 207 156 376 379 376c137 0 219 -45 287 -112l-98 -113c-57 52 -115 84 -190 84c-126 0 -217 -105 -217 -233v-2c0 -128 89 -235 217 -235c85 0 137 34 195 87l98 -99c-70 -74 -148 -122 -272 -128z" />
    <glyph glyph-name="ccedilla" unicode="&#xe7;" horiz-adv-x="602" 
d="M295 -178l-128 53l86 125c-122 34 -204 144 -204 275v2c0 158 121 289 291 289c104 0 170 -36 222 -94l-94 -100c-36 38 -72 63 -129 63c-82 0 -140 -71 -140 -156v-2c0 -88 57 -159 146 -159c54 0 92 24 131 61l89 -89c-50 -56 -107 -95 -202 -101z" />
    <glyph glyph-name="Cdotaccent" unicode="&#x10a;" horiz-adv-x="776" 
d="M350 796v129h152v-129h-152zM433 -12c-214 0 -373 165 -373 374v2c0 207 156 376 379 376c137 0 219 -45 287 -112l-98 -113c-57 52 -115 84 -190 84c-126 0 -217 -105 -217 -233v-2c0 -128 89 -235 217 -235c85 0 137 34 195 87l98 -99c-75 -79 -158 -129 -298 -129z
" />
    <glyph glyph-name="cdotaccent" unicode="&#x10b;" horiz-adv-x="602" 
d="M257 619v137h152v-137h-152zM338 -12c-167 0 -289 128 -289 287v2c0 158 121 289 291 289c104 0 170 -36 222 -94l-94 -100c-36 38 -72 63 -129 63c-82 0 -140 -71 -140 -156v-2c0 -88 57 -159 146 -159c54 0 92 24 131 61l89 -89c-54 -60 -117 -102 -227 -102z" />
    <glyph glyph-name="Dcaron" unicode="&#x10e;" horiz-adv-x="821" 
d="M600 936l-131 -150h-144l-131 150h122l82 -58l82 58h120zM93 0v728h281c229 0 387 -157 387 -362v-2c0 -205 -158 -364 -387 -364h-281zM374 589h-128v-450h128c135 0 226 91 226 223v2c0 132 -91 225 -226 225z" />
    <glyph glyph-name="dcaron" unicode="&#x10f;" horiz-adv-x="709" 
d="M686 547l11 213h110v-3l-61 -210h-60zM343 119c76 0 140 63 140 158v2c0 95 -64 158 -140 158s-140 -61 -140 -158v-2c0 -95 64 -158 140 -158zM305 -11c-130 0 -254 102 -254 288v2c0 185 122 287 254 287c85 0 138 -39 176 -85v278h152v-759h-152v82
c-39 -53 -93 -93 -176 -93z" />
    <glyph glyph-name="Dcroat" unicode="&#x110;" horiz-adv-x="852" 
d="M124 0v313h-78v106h78v309h281c229 0 387 -157 387 -362v-2c0 -205 -158 -364 -387 -364h-281zM439 313h-161v-174h127c136 0 226 91 226 223v2c0 132 -90 225 -226 225h-127v-170h161v-106z" />
    <glyph glyph-name="dcroat" unicode="&#x111;" horiz-adv-x="709" 
d="M343 119c76 0 140 63 140 158v2c0 95 -64 158 -140 158s-140 -61 -140 -158v-2c0 -95 64 -158 140 -158zM318 618v86h163v55h152v-55h71v-86h-71v-618h-152v82c-39 -53 -93 -93 -176 -93c-130 0 -254 102 -254 288v2c0 185 122 287 254 287c85 0 138 -39 176 -85v137
h-163z" />
    <glyph glyph-name="Eacute" unicode="&#xc9;" horiz-adv-x="705" 
d="M307 786l124 161l132 -58l-140 -103h-116zM93 0v728h547v-137h-395v-156h348v-137h-348v-161h400v-137h-552z" />
    <glyph glyph-name="eacute" unicode="&#xe9;" horiz-adv-x="644" 
d="M261 619l114 181l132 -57l-134 -124h-112zM338 -12c-166 0 -289 117 -289 287v2c0 159 113 289 274 289c184 0 270 -143 270 -301c0 -12 -1 -26 -2 -40h-391c15 -76 67 -115 140 -115c55 0 94 17 138 58l87 -77c-52 -64 -126 -103 -227 -103zM198 320h247
c-10 73 -52 124 -122 124c-68 0 -113 -49 -125 -124z" />
    <glyph glyph-name="Ebreve" unicode="&#x114;" horiz-adv-x="705" 
d="M368 784c-108 0 -185 54 -194 152h104c13 -33 38 -52 90 -52s77 19 90 52h104c-9 -98 -86 -152 -194 -152zM93 0v728h547v-137h-395v-156h348v-137h-348v-161h400v-137h-552z" />
    <glyph glyph-name="ebreve" unicode="&#x115;" horiz-adv-x="644" 
d="M321 617c-108 0 -183 59 -192 162h102c13 -37 38 -63 90 -63s77 26 90 63h102c-9 -103 -84 -162 -192 -162zM338 -12c-166 0 -289 117 -289 287v2c0 159 113 289 274 289c184 0 270 -143 270 -301c0 -12 -1 -26 -2 -40h-391c15 -76 67 -115 140 -115c55 0 94 17 138 58
l87 -77c-52 -64 -126 -103 -227 -103zM198 320h247c-10 73 -52 124 -122 124c-68 0 -113 -49 -125 -124z" />
    <glyph glyph-name="Ecaron" unicode="&#x11a;" horiz-adv-x="705" 
d="M571 936l-131 -150h-144l-131 150h122l82 -58l82 58h120zM93 0v728h547v-137h-395v-156h348v-137h-348v-161h400v-137h-552z" />
    <glyph glyph-name="ecaron" unicode="&#x11b;" horiz-adv-x="644" 
d="M519 780l-126 -161h-144l-126 161h117l82 -69l82 69h115zM338 -12c-166 0 -289 117 -289 287v2c0 159 113 289 274 289c184 0 270 -143 270 -301c0 -12 -1 -26 -2 -40h-391c15 -76 67 -115 140 -115c55 0 94 17 138 58l87 -77c-52 -64 -126 -103 -227 -103zM198 320h247
c-10 73 -52 124 -122 124c-68 0 -113 -49 -125 -124z" />
    <glyph glyph-name="Ecircumflex" unicode="&#xca;" horiz-adv-x="705" 
d="M165 786l131 150h144l131 -150h-122l-82 58l-82 -58h-120zM93 0v728h547v-137h-395v-156h348v-137h-348v-161h400v-137h-552z" />
    <glyph glyph-name="ecircumflex" unicode="&#xea;" horiz-adv-x="644" 
d="M123 619l126 161h144l126 -161h-117l-82 69l-82 -69h-115zM338 -12c-166 0 -289 117 -289 287v2c0 159 113 289 274 289c184 0 270 -143 270 -301c0 -12 -1 -26 -2 -40h-391c15 -76 67 -115 140 -115c55 0 94 17 138 58l87 -77c-52 -64 -126 -103 -227 -103zM198 320h247
c-10 73 -52 124 -122 124c-68 0 -113 -49 -125 -124z" />
    <glyph glyph-name="Edieresis" unicode="&#xcb;" horiz-adv-x="705" 
d="M182 786v129h148v-129h-148zM406 786v129h148v-129h-148zM93 0v728h547v-137h-395v-156h348v-137h-348v-161h400v-137h-552z" />
    <glyph glyph-name="edieresis" unicode="&#xeb;" horiz-adv-x="644" 
d="M141 619v137h147v-137h-147zM354 619v137h147v-137h-147zM338 -12c-166 0 -289 117 -289 287v2c0 159 113 289 274 289c184 0 270 -143 270 -301c0 -12 -1 -26 -2 -40h-391c15 -76 67 -115 140 -115c55 0 94 17 138 58l87 -77c-52 -64 -126 -103 -227 -103zM198 320h247
c-10 73 -52 124 -122 124c-68 0 -113 -49 -125 -124z" />
    <glyph glyph-name="Edotaccent" unicode="&#x116;" horiz-adv-x="705" 
d="M292 786v129h152v-129h-152zM93 0v728h547v-137h-395v-156h348v-137h-348v-161h400v-137h-552z" />
    <glyph glyph-name="edotaccent" unicode="&#x117;" horiz-adv-x="644" 
d="M245 619v137h152v-137h-152zM338 -12c-166 0 -289 117 -289 287v2c0 159 113 289 274 289c184 0 270 -143 270 -301c0 -12 -1 -26 -2 -40h-391c15 -76 67 -115 140 -115c55 0 94 17 138 58l87 -77c-52 -64 -126 -103 -227 -103zM198 320h247c-10 73 -52 124 -122 124
c-68 0 -113 -49 -125 -124z" />
    <glyph glyph-name="Egrave" unicode="&#xc8;" horiz-adv-x="705" 
d="M430 786h-116l-140 103l132 58zM93 0v728h547v-137h-395v-156h348v-137h-348v-161h400v-137h-552z" />
    <glyph glyph-name="egrave" unicode="&#xe8;" horiz-adv-x="644" 
d="M269 619l-134 124l132 57l114 -181h-112zM338 -12c-166 0 -289 117 -289 287v2c0 159 113 289 274 289c184 0 270 -143 270 -301c0 -12 -1 -26 -2 -40h-391c15 -76 67 -115 140 -115c55 0 94 17 138 58l87 -77c-52 -64 -126 -103 -227 -103zM198 320h247
c-10 73 -52 124 -122 124c-68 0 -113 -49 -125 -124z" />
    <glyph glyph-name="Emacron" unicode="&#x112;" horiz-adv-x="705" 
d="M173 792v108h390v-108h-390zM93 0v728h547v-137h-395v-156h348v-137h-348v-161h400v-137h-552z" />
    <glyph glyph-name="emacron" unicode="&#x113;" horiz-adv-x="644" 
d="M136 625v106h370v-106h-370zM338 -12c-166 0 -289 117 -289 287v2c0 159 113 289 274 289c184 0 270 -143 270 -301c0 -12 -1 -26 -2 -40h-391c15 -76 67 -115 140 -115c55 0 94 17 138 58l87 -77c-52 -64 -126 -103 -227 -103zM198 320h247c-10 73 -52 124 -122 124
c-68 0 -113 -49 -125 -124z" />
    <glyph glyph-name="Eogonek" unicode="&#x118;" horiz-adv-x="705" 
d="M93 0v728h547v-137h-395v-156h348v-137h-348v-161h400v-137h-46c-20 -23 -27 -42 -27 -60c0 -30 27 -44 73 -43v-68c-16 -2 -31 -2 -44 -2c-90 0 -139 39 -139 89c0 30 14 57 36 84h-405z" />
    <glyph glyph-name="eogonek" unicode="&#x119;" horiz-adv-x="644" 
d="M478 168l87 -77c-22 -25 -39 -42 -63 -63c-34 -32 -49 -60 -49 -82c0 -36 26 -50 73 -49v-68c-16 -2 -31 -2 -45 -2c-90 0 -138 38 -138 85c0 25 13 51 34 78c-11 -1 -28 -2 -39 -2c-166 0 -289 117 -289 287v2c0 159 113 289 274 289c184 0 270 -143 270 -301
c0 -12 -1 -26 -2 -40h-391c15 -76 67 -115 140 -115c55 0 94 17 138 58zM198 320h247c-10 73 -52 124 -122 124c-68 0 -113 -49 -125 -124z" />
    <glyph glyph-name="Gbreve" unicode="&#x11e;" horiz-adv-x="823" 
d="M432 794c-108 0 -185 54 -194 152h104c13 -33 38 -52 90 -52s77 19 90 52h104c-9 -98 -86 -152 -194 -152zM442 -12c-227 0 -382 159 -382 374v2c0 206 160 376 381 376c130 0 209 -35 285 -99l-97 -117c-57 47 -108 75 -193 75c-120 0 -215 -106 -215 -233v-2
c0 -136 93 -237 226 -237c60 0 114 16 156 46v111h-166v133h315v-314c-75 -64 -178 -115 -310 -115z" />
    <glyph glyph-name="gbreve" unicode="&#x11f;" horiz-adv-x="709" 
d="M362 617c-108 0 -183 59 -192 162h102c13 -37 38 -63 90 -63s77 26 90 63h102c-9 -103 -84 -162 -192 -162zM342 171c79 0 141 55 141 134v2c0 79 -62 133 -141 133s-139 -54 -139 -133v-2c0 -80 60 -134 139 -134zM325 -168c-90 0 -176 21 -246 59l52 114
c58 -33 116 -52 190 -52c109 0 162 53 162 155v30c-47 -57 -99 -93 -184 -93c-130 0 -248 95 -248 260v2c0 165 120 259 248 259c87 0 139 -37 182 -85v75h152v-433c0 -98 -24 -170 -71 -217c-51 -51 -131 -74 -237 -74z" />
    <glyph glyph-name="Gcommaaccent" unicode="&#x122;" horiz-adv-x="823" 
d="M442 -12c-227 0 -382 159 -382 374v2c0 206 160 376 381 376c130 0 209 -35 285 -99l-97 -117c-57 47 -108 75 -193 75c-120 0 -215 -106 -215 -233v-2c0 -136 93 -237 226 -237c60 0 114 16 156 46v111h-166v133h315v-314c-75 -64 -178 -115 -310 -115zM357 -304l-8 46
c54 5 81 31 78 74h-65v117h140v-99c0 -97 -51 -136 -145 -138z" />
    <glyph glyph-name="gcommaaccent" unicode="&#x123;" horiz-adv-x="709" 
d="M434 856l8 -46c-54 -6 -81 -31 -78 -74h65v-117h-140v98c0 97 51 136 145 139zM342 171c79 0 141 55 141 134v2c0 79 -62 133 -141 133s-139 -54 -139 -133v-2c0 -80 60 -134 139 -134zM325 -168c-90 0 -176 21 -246 59l52 114c58 -33 116 -52 190 -52
c109 0 162 53 162 155v30c-47 -57 -99 -93 -184 -93c-130 0 -248 95 -248 260v2c0 165 120 259 248 259c87 0 139 -37 182 -85v75h152v-433c0 -98 -24 -170 -71 -217c-51 -51 -131 -74 -237 -74z" />
    <glyph glyph-name="Gdotaccent" unicode="&#x120;" horiz-adv-x="823" 
d="M356 796v129h152v-129h-152zM442 -12c-227 0 -382 159 -382 374v2c0 206 160 376 381 376c130 0 209 -35 285 -99l-97 -117c-57 47 -108 75 -193 75c-120 0 -215 -106 -215 -233v-2c0 -136 93 -237 226 -237c60 0 114 16 156 46v111h-166v133h315v-314
c-75 -64 -178 -115 -310 -115z" />
    <glyph glyph-name="gdotaccent" unicode="&#x121;" horiz-adv-x="709" 
d="M286 619v137h152v-137h-152zM342 171c79 0 141 55 141 134v2c0 79 -62 133 -141 133s-139 -54 -139 -133v-2c0 -80 60 -134 139 -134zM325 -168c-90 0 -176 21 -246 59l52 114c58 -33 116 -52 190 -52c109 0 162 53 162 155v30c-47 -57 -99 -93 -184 -93
c-130 0 -248 95 -248 260v2c0 165 120 259 248 259c87 0 139 -37 182 -85v75h152v-433c0 -98 -24 -170 -71 -217c-51 -51 -131 -74 -237 -74z" />
    <glyph glyph-name="Hbar" unicode="&#x126;" horiz-adv-x="802" 
d="M248 437h306v97h-306v-97zM21 532v106h73v90h154v-90h306v90h154v-90h73v-106h-73v-532h-154v295h-306v-295h-154v532h-73z" />
    <glyph glyph-name="hbar" unicode="&#x127;" horiz-adv-x="655" 
d="M391 618h-163v-142c36 47 84 90 165 90c120 0 191 -79 191 -207v-359h-152v311c0 77 -37 118 -100 118s-104 -41 -104 -118v-311h-152v618h-71v86h71v55h152v-55h163v-86z" />
    <glyph glyph-name="Iacute" unicode="&#xcd;" horiz-adv-x="354" 
d="M115 786l124 161l132 -58l-140 -103h-116zM100 0v728h154v-728h-154z" />
    <glyph glyph-name="iacute" unicode="&#xed;" horiz-adv-x="319" 
d="M100 619l114 181l132 -57l-134 -124h-112zM84 0v556h151v-556h-151z" />
    <glyph glyph-name="Ibreve" unicode="&#x12c;" horiz-adv-x="354" 
d="M177 784c-108 0 -185 54 -194 152h104c13 -33 38 -52 90 -52s77 19 90 52h104c-9 -98 -86 -152 -194 -152zM100 0v728h154v-728h-154z" />
    <glyph glyph-name="ibreve" unicode="&#x12d;" horiz-adv-x="319" 
d="M159 617c-108 0 -183 59 -192 162h102c13 -37 38 -63 90 -63s77 26 90 63h102c-9 -103 -84 -162 -192 -162zM84 0v556h151v-556h-151z" />
    <glyph glyph-name="Icircumflex" unicode="&#xce;" horiz-adv-x="354" 
d="M-26 786l131 150h144l131 -150h-122l-82 58l-82 -58h-120zM100 0v728h154v-728h-154z" />
    <glyph glyph-name="icircumflex" unicode="&#xee;" horiz-adv-x="319" 
d="M-39 619l126 161h144l126 -161h-117l-82 69l-82 -69h-115zM84 0v556h151v-556h-151z" />
    <glyph glyph-name="Idieresis" unicode="&#xcf;" horiz-adv-x="354" 
d="M-9 786v129h148v-129h-148zM215 786v129h148v-129h-148zM100 0v728h154v-728h-154z" />
    <glyph glyph-name="idieresis" unicode="&#xef;" horiz-adv-x="319" 
d="M-21 619v137h147v-137h-147zM192 619v137h147v-137h-147zM84 0v556h151v-556h-151z" />
    <glyph glyph-name="Idotaccent" unicode="&#x130;" horiz-adv-x="354" 
d="M101 786v129h152v-129h-152zM100 0v728h154v-728h-154z" />
    <glyph glyph-name="i.dot" horiz-adv-x="319" 
d="M79 622v136h160v-136h-160zM84 0v556h151v-556h-151z" />
    <glyph glyph-name="dotlessi" unicode="&#x131;" horiz-adv-x="319" 
d="M84 0v556h151v-556h-151z" />
    <glyph glyph-name="Igrave" unicode="&#xcc;" horiz-adv-x="354" 
d="M238 786h-116l-140 103l132 58zM100 0v728h154v-728h-154z" />
    <glyph glyph-name="igrave" unicode="&#xec;" horiz-adv-x="319" 
d="M107 619l-134 124l132 57l114 -181h-112zM84 0v556h151v-556h-151z" />
    <glyph glyph-name="Imacron" unicode="&#x12a;" horiz-adv-x="354" 
d="M-18 792v108h390v-108h-390zM100 0v728h154v-728h-154z" />
    <glyph glyph-name="imacron" unicode="&#x12b;" horiz-adv-x="319" 
d="M-26 625v106h370v-106h-370zM84 0v556h151v-556h-151z" />
    <glyph glyph-name="Iogonek" unicode="&#x12e;" horiz-adv-x="354" 
d="M100 0v728h154v-728h-30c-20 -23 -27 -42 -27 -60c0 -30 27 -44 73 -43v-68c-16 -2 -31 -2 -44 -2c-90 0 -139 39 -139 89c0 30 14 57 36 84h-23z" />
    <glyph glyph-name="iogonek" unicode="&#x12f;" horiz-adv-x="319" 
d="M79 622v136h160v-136h-160zM84 0v556h151v-556h-28c-20 -23 -27 -42 -27 -60c0 -30 27 -44 73 -43v-68c-16 -2 -31 -2 -44 -2c-90 0 -139 39 -139 89c0 30 14 57 36 84h-22z" />
    <glyph glyph-name="Kcommaaccent" unicode="&#x136;" horiz-adv-x="766" 
d="M93 0v728h153v-328l304 328h189l-299 -310l312 -418h-185l-231 313l-90 -93v-220h-153zM309 -294l-8 46c54 5 81 31 78 74h-65v117h140v-99c0 -97 -51 -136 -145 -138z" />
    <glyph glyph-name="kcommaaccent" unicode="&#x137;" horiz-adv-x="622" 
d="M76 0v759h152v-414l194 211h182l-214 -221l221 -335h-176l-147 231l-60 -64v-167h-152zM248 -299l-8 46c54 5 81 31 78 74h-65v117h140v-99c0 -97 -51 -136 -145 -138z" />
    <glyph glyph-name="Lacute" unicode="&#x139;" horiz-adv-x="651" 
d="M128 786l124 161l132 -58l-140 -103h-116zM93 0v728h153v-588h367v-140h-520z" />
    <glyph glyph-name="lacute" unicode="&#x13a;" horiz-adv-x="319" 
d="M102 802l124 161l132 -58l-140 -103h-116zM84 0v759h151v-759h-151z" />
    <glyph glyph-name="Lcaron" unicode="&#x13d;" horiz-adv-x="651" 
d="M320 515l11 213h110v-3l-61 -210h-60zM93 0v728h153v-588h367v-140h-520z" />
    <glyph glyph-name="lcaron" unicode="&#x13e;" horiz-adv-x="319" 
d="M289 547l11 213h110v-3l-61 -210h-60zM84 0v759h151v-759h-151z" />
    <glyph glyph-name="Lcommaaccent" unicode="&#x13b;" horiz-adv-x="651" 
d="M93 0v728h153v-588h367v-140h-520zM277 -299l-8 46c54 5 81 31 78 74h-65v117h140v-99c0 -97 -51 -136 -145 -138z" />
    <glyph glyph-name="lcommaaccent" unicode="&#x13c;" horiz-adv-x="319" 
d="M84 0v759h151v-759h-151zM84 -299l-8 46c54 5 81 31 78 74h-65v117h140v-99c0 -97 -51 -136 -145 -138z" />
    <glyph glyph-name="Ldot" unicode="&#x13f;" horiz-adv-x="651" 
d="M93 0v728h153v-588h367v-140h-520zM432 328v137h145v-137h-145z" />
    <glyph glyph-name="ldot" unicode="&#x140;" horiz-adv-x="411" 
d="M84 0v759h151v-759h-151zM300 329v127h122v-127h-122z" />
    <glyph glyph-name="Lslash" unicode="&#x141;" horiz-adv-x="683" 
d="M433 393l-157 -70v-183h368v-140h-520v256l-78 -34v144l78 34v328h152v-261l157 70v-144z" />
    <glyph glyph-name="lslash" unicode="&#x142;" horiz-adv-x="381" 
d="M344 393l-79 -39v-354h-149v279l-79 -39v143l79 39v337h149v-262l79 39v-143z" />
    <glyph glyph-name="Nacute" unicode="&#x143;" horiz-adv-x="830" 
d="M353 786l124 161l132 -58l-140 -103h-116zM93 0v728h141l351 -459v459h152v-728h-131l-362 474v-474h-151z" />
    <glyph glyph-name="nacute" unicode="&#x144;" horiz-adv-x="655" 
d="M270 619l114 181l132 -57l-134 -124h-112zM76 0v556h152v-80c36 47 84 90 165 90c120 0 191 -79 191 -207v-359h-152v311c0 77 -37 118 -100 118s-104 -41 -104 -118v-311h-152z" />
    <glyph glyph-name="Ncaron" unicode="&#x147;" horiz-adv-x="830" 
d="M618 936l-131 -150h-144l-131 150h122l82 -58l82 58h120zM93 0v728h141l351 -459v459h152v-728h-131l-362 474v-474h-151z" />
    <glyph glyph-name="ncaron" unicode="&#x148;" horiz-adv-x="655" 
d="M527 780l-126 -161h-144l-126 161h117l82 -69l82 69h115zM76 0v556h152v-80c36 47 84 90 165 90c120 0 191 -79 191 -207v-359h-152v311c0 77 -37 118 -100 118s-104 -41 -104 -118v-311h-152z" />
    <glyph glyph-name="Ncommaaccent" unicode="&#x145;" horiz-adv-x="830" 
d="M93 0v728h141l351 -459v459h152v-728h-131l-362 474v-474h-151zM340 -294l-8 46c54 5 81 31 78 74h-65v117h140v-99c0 -97 -51 -136 -145 -138z" />
    <glyph glyph-name="ncommaaccent" unicode="&#x146;" horiz-adv-x="655" 
d="M76 0v556h152v-80c36 47 84 90 165 90c120 0 191 -79 191 -207v-359h-152v311c0 77 -37 118 -100 118s-104 -41 -104 -118v-311h-152zM254 -299l-8 46c54 5 81 31 78 74h-65v117h140v-99c0 -97 -51 -136 -145 -138z" />
    <glyph glyph-name="Ntilde" unicode="&#xd1;" horiz-adv-x="830" 
d="M507 786c-34 0 -69 12 -99 24c-25 9 -45 16 -61 16c-32 0 -45 -17 -60 -51l-82 26c24 86 57 140 128 140c34 0 69 -12 99 -24c25 -9 45 -17 61 -17c32 0 45 18 60 51l81 -25c-23 -86 -56 -140 -127 -140zM93 0v728h141l351 -459v459h152v-728h-131l-362 474v-474h-151z
" />
    <glyph glyph-name="ntilde" unicode="&#xf1;" horiz-adv-x="655" 
d="M418 619c-34 0 -67 12 -93 23c-24 9 -45 17 -61 17c-32 0 -45 -17 -59 -51l-82 25c24 87 56 141 127 141c34 0 67 -12 93 -23c24 -9 45 -18 61 -18c32 0 45 18 59 52l82 -25c-24 -87 -56 -141 -127 -141zM76 0v556h152v-80c36 47 84 90 165 90c120 0 191 -79 191 -207
v-359h-152v311c0 77 -37 118 -100 118s-104 -41 -104 -118v-311h-152z" />
    <glyph glyph-name="Oacute" unicode="&#xd3;" horiz-adv-x="892" 
d="M384 796l124 161l132 -58l-140 -103h-116zM445 -12c-224 0 -385 167 -385 374v2c0 206 163 376 387 376s385 -167 385 -374v-2c0 -206 -163 -376 -387 -376zM447 129c132 0 224 105 224 233v2c0 128 -94 235 -226 235s-224 -105 -224 -233v-2c0 -128 94 -235 226 -235z
" />
    <glyph glyph-name="oacute" unicode="&#xf3;" horiz-adv-x="697" 
d="M289 619l114 181l132 -57l-134 -124h-112zM347 -12c-171 0 -298 127 -298 287v2c0 159 128 289 301 289c171 0 298 -128 298 -287v-2c0 -160 -128 -289 -301 -289zM350 118c92 0 148 72 148 157v2c0 85 -61 158 -151 158c-92 0 -148 -71 -148 -156v-2
c0 -85 61 -159 151 -159z" />
    <glyph glyph-name="Obreve" unicode="&#x14e;" horiz-adv-x="892" 
d="M446 794c-108 0 -185 54 -194 152h104c13 -33 38 -52 90 -52s77 19 90 52h104c-9 -98 -86 -152 -194 -152zM445 -12c-224 0 -385 167 -385 374v2c0 206 163 376 387 376s385 -167 385 -374v-2c0 -206 -163 -376 -387 -376zM447 129c132 0 224 105 224 233v2
c0 128 -94 235 -226 235s-224 -105 -224 -233v-2c0 -128 94 -235 226 -235z" />
    <glyph glyph-name="obreve" unicode="&#x14f;" horiz-adv-x="697" 
d="M349 617c-108 0 -183 59 -192 162h102c13 -37 38 -63 90 -63s77 26 90 63h102c-9 -103 -84 -162 -192 -162zM347 -12c-171 0 -298 127 -298 287v2c0 159 128 289 301 289c171 0 298 -128 298 -287v-2c0 -160 -128 -289 -301 -289zM350 118c92 0 148 72 148 157v2
c0 85 -61 158 -151 158c-92 0 -148 -71 -148 -156v-2c0 -85 61 -159 151 -159z" />
    <glyph glyph-name="Ocircumflex" unicode="&#xd4;" horiz-adv-x="892" 
d="M243 796l131 150h144l131 -150h-122l-82 58l-82 -58h-120zM445 -12c-224 0 -385 167 -385 374v2c0 206 163 376 387 376s385 -167 385 -374v-2c0 -206 -163 -376 -387 -376zM447 129c132 0 224 105 224 233v2c0 128 -94 235 -226 235s-224 -105 -224 -233v-2
c0 -128 94 -235 226 -235z" />
    <glyph glyph-name="ocircumflex" unicode="&#xf4;" horiz-adv-x="697" 
d="M151 619l126 161h144l126 -161h-117l-82 69l-82 -69h-115zM347 -12c-171 0 -298 127 -298 287v2c0 159 128 289 301 289c171 0 298 -128 298 -287v-2c0 -160 -128 -289 -301 -289zM350 118c92 0 148 72 148 157v2c0 85 -61 158 -151 158c-92 0 -148 -71 -148 -156v-2
c0 -85 61 -159 151 -159z" />
    <glyph glyph-name="Odieresis" unicode="&#xd6;" horiz-adv-x="892" 
d="M260 796v129h148v-129h-148zM484 796v129h148v-129h-148zM445 -12c-224 0 -385 167 -385 374v2c0 206 163 376 387 376s385 -167 385 -374v-2c0 -206 -163 -376 -387 -376zM447 129c132 0 224 105 224 233v2c0 128 -94 235 -226 235s-224 -105 -224 -233v-2
c0 -128 94 -235 226 -235z" />
    <glyph glyph-name="odieresis" unicode="&#xf6;" horiz-adv-x="697" 
d="M169 619v137h147v-137h-147zM382 619v137h147v-137h-147zM347 -12c-171 0 -298 127 -298 287v2c0 159 128 289 301 289c171 0 298 -128 298 -287v-2c0 -160 -128 -289 -301 -289zM350 118c92 0 148 72 148 157v2c0 85 -61 158 -151 158c-92 0 -148 -71 -148 -156v-2
c0 -85 61 -159 151 -159z" />
    <glyph glyph-name="Ograve" unicode="&#xd2;" horiz-adv-x="892" 
d="M508 796h-116l-140 103l132 58zM445 -12c-224 0 -385 167 -385 374v2c0 206 163 376 387 376s385 -167 385 -374v-2c0 -206 -163 -376 -387 -376zM447 129c132 0 224 105 224 233v2c0 128 -94 235 -226 235s-224 -105 -224 -233v-2c0 -128 94 -235 226 -235z" />
    <glyph glyph-name="ograve" unicode="&#xf2;" horiz-adv-x="697" 
d="M296 619l-134 124l132 57l114 -181h-112zM347 -12c-171 0 -298 127 -298 287v2c0 159 128 289 301 289c171 0 298 -128 298 -287v-2c0 -160 -128 -289 -301 -289zM350 118c92 0 148 72 148 157v2c0 85 -61 158 -151 158c-92 0 -148 -71 -148 -156v-2
c0 -85 61 -159 151 -159z" />
    <glyph glyph-name="Ohungarumlaut" unicode="&#x150;" horiz-adv-x="892" 
d="M474 796l124 161l127 -58l-139 -103h-112zM280 796l124 161l127 -58l-140 -103h-111zM445 -12c-224 0 -385 167 -385 374v2c0 206 163 376 387 376s385 -167 385 -374v-2c0 -206 -163 -376 -387 -376zM447 129c132 0 224 105 224 233v2c0 128 -94 235 -226 235
s-224 -105 -224 -233v-2c0 -128 94 -235 226 -235z" />
    <glyph glyph-name="ohungarumlaut" unicode="&#x151;" horiz-adv-x="697" 
d="M188 619l112 181l129 -57l-134 -124h-107zM377 619l114 181l129 -57l-135 -124h-108zM347 -12c-171 0 -298 127 -298 287v2c0 159 128 289 301 289c171 0 298 -128 298 -287v-2c0 -160 -128 -289 -301 -289zM350 118c92 0 148 72 148 157v2c0 85 -61 158 -151 158
c-92 0 -148 -71 -148 -156v-2c0 -85 61 -159 151 -159z" />
    <glyph glyph-name="Omacron" unicode="&#x14c;" horiz-adv-x="892" 
d="M251 802v108h390v-108h-390zM445 -12c-224 0 -385 167 -385 374v2c0 206 163 376 387 376s385 -167 385 -374v-2c0 -206 -163 -376 -387 -376zM447 129c132 0 224 105 224 233v2c0 128 -94 235 -226 235s-224 -105 -224 -233v-2c0 -128 94 -235 226 -235z" />
    <glyph glyph-name="omacron" unicode="&#x14d;" horiz-adv-x="697" 
d="M164 625v106h370v-106h-370zM347 -12c-171 0 -298 127 -298 287v2c0 159 128 289 301 289c171 0 298 -128 298 -287v-2c0 -160 -128 -289 -301 -289zM350 118c92 0 148 72 148 157v2c0 85 -61 158 -151 158c-92 0 -148 -71 -148 -156v-2c0 -85 61 -159 151 -159z" />
    <glyph glyph-name="Oslash" unicode="&#xd8;" horiz-adv-x="892" 
d="M693 733h147l-102 -118c59 -66 94 -153 94 -249v-2c0 -206 -163 -376 -387 -376c-77 0 -146 19 -204 53l-42 -46h-147l102 118c-59 66 -94 153 -94 249v2c0 206 163 376 387 376c76 0 145 -20 203 -54zM218 364c0 -50 14 -96 39 -135l298 345c-32 18 -70 28 -110 28
c-133 0 -227 -107 -227 -236v-2zM447 126c133 0 227 107 227 236v2c0 49 -14 96 -39 134l-298 -344c32 -18 69 -28 110 -28z" />
    <glyph glyph-name="oslash" unicode="&#xf8;" horiz-adv-x="697" 
d="M530 561h134l-85 -97c43 -50 69 -114 69 -185v-2c0 -160 -128 -289 -301 -289c-56 0 -108 13 -151 37l-29 -30h-134l83 95c-42 49 -67 114 -67 185v2c0 159 128 289 301 289c55 0 107 -13 150 -37zM195 277c0 -28 6 -55 18 -79l199 227c-20 9 -41 14 -65 14
c-95 0 -152 -73 -152 -160v-2zM350 114c95 0 152 74 152 161v2c0 28 -7 55 -19 79l-198 -228c19 -9 41 -14 65 -14z" />
    <glyph glyph-name="Oslashacute" unicode="&#x1fe;" horiz-adv-x="892" 
d="M384 796l124 161l132 -58l-140 -103h-116zM693 733h147l-102 -118c59 -66 94 -153 94 -249v-2c0 -206 -163 -376 -387 -376c-77 0 -146 19 -204 53l-42 -46h-147l102 118c-59 66 -94 153 -94 249v2c0 206 163 376 387 376c76 0 145 -20 203 -54zM218 364
c0 -50 14 -96 39 -135l298 345c-32 18 -70 28 -110 28c-133 0 -227 -107 -227 -236v-2zM447 126c133 0 227 107 227 236v2c0 49 -14 96 -39 134l-298 -344c32 -18 69 -28 110 -28z" />
    <glyph glyph-name="oslashacute" unicode="&#x1ff;" horiz-adv-x="697" 
d="M289 619l114 181l132 -57l-134 -124h-112zM530 561h134l-85 -97c43 -50 69 -114 69 -185v-2c0 -160 -128 -289 -301 -289c-56 0 -108 13 -151 37l-29 -30h-134l83 95c-42 49 -67 114 -67 185v2c0 159 128 289 301 289c55 0 107 -13 150 -37zM195 277c0 -28 6 -55 18 -79
l199 227c-20 9 -41 14 -65 14c-95 0 -152 -73 -152 -160v-2zM350 114c95 0 152 74 152 161v2c0 28 -7 55 -19 79l-198 -228c19 -9 41 -14 65 -14z" />
    <glyph glyph-name="Otilde" unicode="&#xd5;" horiz-adv-x="892" 
d="M538 796c-34 0 -69 12 -99 24c-25 9 -45 16 -61 16c-32 0 -45 -17 -60 -51l-82 26c24 86 57 140 128 140c34 0 69 -12 99 -24c25 -9 45 -17 61 -17c32 0 45 18 60 51l81 -25c-23 -86 -56 -140 -127 -140zM445 -12c-224 0 -385 167 -385 374v2c0 206 163 376 387 376
s385 -167 385 -374v-2c0 -206 -163 -376 -387 -376zM447 129c132 0 224 105 224 233v2c0 128 -94 235 -226 235s-224 -105 -224 -233v-2c0 -128 94 -235 226 -235z" />
    <glyph glyph-name="otilde" unicode="&#xf5;" horiz-adv-x="697" 
d="M438 619c-34 0 -67 12 -93 23c-24 9 -45 17 -61 17c-32 0 -45 -17 -59 -51l-82 25c24 87 56 141 127 141c34 0 67 -12 93 -23c24 -9 45 -18 61 -18c32 0 45 18 59 52l82 -25c-24 -87 -56 -141 -127 -141zM347 -12c-171 0 -298 127 -298 287v2c0 159 128 289 301 289
c171 0 298 -128 298 -287v-2c0 -160 -128 -289 -301 -289zM350 118c92 0 148 72 148 157v2c0 85 -61 158 -151 158c-92 0 -148 -71 -148 -156v-2c0 -85 61 -159 151 -159z" />
    <glyph glyph-name="Racute" unicode="&#x154;" horiz-adv-x="760" 
d="M309 786l124 161l132 -58l-140 -103h-116zM246 373h168c80 0 128 43 128 107v2c0 70 -50 107 -131 107h-165v-216zM93 0v728h331c92 0 164 -26 212 -74c40 -40 61 -97 61 -164v-2c0 -118 -65 -192 -159 -225l182 -263h-180l-161 237h-133v-237h-153z" />
    <glyph glyph-name="racute" unicode="&#x155;" horiz-adv-x="442" 
d="M181 619l114 181l132 -57l-134 -124h-112zM76 0v556h152v-115c33 78 87 129 181 125v-159h-8c-106 0 -173 -65 -173 -200v-207h-152z" />
    <glyph glyph-name="Rcaron" unicode="&#x158;" horiz-adv-x="760" 
d="M574 936l-131 -150h-144l-131 150h122l82 -58l82 58h120zM246 373h168c80 0 128 43 128 107v2c0 70 -50 107 -131 107h-165v-216zM93 0v728h331c92 0 164 -26 212 -74c40 -40 61 -97 61 -164v-2c0 -118 -65 -192 -159 -225l182 -263h-180l-161 237h-133v-237h-153z" />
    <glyph glyph-name="rcaron" unicode="&#x159;" horiz-adv-x="442" 
d="M439 780l-126 -161h-144l-126 161h117l82 -69l82 69h115zM76 0v556h152v-115c33 78 87 129 181 125v-159h-8c-106 0 -173 -65 -173 -200v-207h-152z" />
    <glyph glyph-name="Rcommaaccent" unicode="&#x156;" horiz-adv-x="760" 
d="M246 373h168c80 0 128 43 128 107v2c0 70 -50 107 -131 107h-165v-216zM93 0v728h331c92 0 164 -26 212 -74c40 -40 61 -97 61 -164v-2c0 -118 -65 -192 -159 -225l182 -263h-180l-161 237h-133v-237h-153zM296 -294l-8 46c54 5 81 31 78 74h-65v117h140v-99
c0 -97 -51 -136 -145 -138z" />
    <glyph glyph-name="rcommaaccent" unicode="&#x157;" horiz-adv-x="442" 
d="M76 0v556h152v-115c33 78 87 129 181 125v-159h-8c-106 0 -173 -65 -173 -200v-207h-152zM83 -299l-8 46c54 5 81 31 78 74h-65v117h140v-99c0 -97 -51 -136 -145 -138z" />
    <glyph glyph-name="Sacute" unicode="&#x15a;" horiz-adv-x="674" 
d="M280 796l124 161l132 -58l-140 -103h-116zM351 -10c-111 0 -221 38 -308 116l91 109c66 -55 135 -90 220 -90c68 0 110 29 110 74v2c0 43 -26 65 -150 96c-149 37 -242 79 -242 222v2c0 130 106 217 254 217c106 0 195 -33 269 -92l-81 -116c-64 46 -128 73 -191 73
c-64 0 -98 -31 -98 -68v-2c0 -50 32 -67 160 -100c149 -38 232 -92 232 -217v-2c0 -143 -110 -224 -266 -224z" />
    <glyph glyph-name="sacute" unicode="&#x15b;" horiz-adv-x="530" 
d="M208 619l114 181l132 -57l-134 -124h-112zM270 -10c-78 0 -165 26 -238 83l66 101c60 -44 124 -67 176 -67c48 0 71 18 71 45v2c0 36 -55 48 -117 67c-79 23 -168 59 -168 166v2c0 112 91 175 203 175c70 0 146 -24 206 -64l-58 -105c-55 32 -110 52 -152 52
c-40 0 -62 -18 -62 -42v-2c0 -33 55 -48 116 -69c78 -25 169 -62 169 -164v-2c0 -122 -92 -178 -212 -178z" />
    <glyph glyph-name="Scaron" unicode="&#x160;" horiz-adv-x="674" 
d="M544 946l-131 -150h-144l-131 150h122l82 -58l82 58h120zM351 -10c-111 0 -221 38 -308 116l91 109c66 -55 135 -90 220 -90c68 0 110 29 110 74v2c0 43 -26 65 -150 96c-149 37 -242 79 -242 222v2c0 130 106 217 254 217c106 0 195 -33 269 -92l-81 -116
c-64 46 -128 73 -191 73c-64 0 -98 -31 -98 -68v-2c0 -50 32 -67 160 -100c149 -38 232 -92 232 -217v-2c0 -143 -110 -224 -266 -224z" />
    <glyph glyph-name="scaron" unicode="&#x161;" horiz-adv-x="530" 
d="M466 780l-126 -161h-144l-126 161h117l82 -69l82 69h115zM270 -10c-78 0 -165 26 -238 83l66 101c60 -44 124 -67 176 -67c48 0 71 18 71 45v2c0 36 -55 48 -117 67c-79 23 -168 59 -168 166v2c0 112 91 175 203 175c70 0 146 -24 206 -64l-58 -105
c-55 32 -110 52 -152 52c-40 0 -62 -18 -62 -42v-2c0 -33 55 -48 116 -69c78 -25 169 -62 169 -164v-2c0 -122 -92 -178 -212 -178z" />
    <glyph glyph-name="Scedilla" unicode="&#x15e;" horiz-adv-x="674" 
d="M330 -178l-128 53l82 120c-88 11 -172 48 -241 111l91 109c66 -55 135 -90 220 -90c68 0 110 29 110 74v2c0 43 -26 65 -150 96c-149 37 -242 79 -242 222v2c0 130 106 217 254 217c106 0 195 -33 269 -92l-81 -116c-64 46 -128 73 -191 73c-64 0 -98 -31 -98 -68v-2
c0 -50 32 -67 160 -100c149 -38 232 -92 232 -217v-2c0 -128 -88 -206 -217 -221z" />
    <glyph glyph-name="scedilla" unicode="&#x15f;" horiz-adv-x="530" 
d="M247 -178l-128 53l83 121c-58 11 -118 36 -170 77l66 101c60 -44 124 -67 176 -67c48 0 71 18 71 45v2c0 36 -55 48 -117 67c-79 23 -168 59 -168 166v2c0 112 91 175 203 175c70 0 146 -24 206 -64l-58 -105c-55 32 -110 52 -152 52c-40 0 -62 -18 -62 -42v-2
c0 -33 55 -48 116 -69c78 -25 169 -62 169 -164v-2c0 -106 -69 -162 -165 -175z" />
    <glyph glyph-name="Scommaaccent" unicode="&#x218;" horiz-adv-x="674" 
d="M351 -10c-111 0 -221 38 -308 116l91 109c66 -55 135 -90 220 -90c68 0 110 29 110 74v2c0 43 -26 65 -150 96c-149 37 -242 79 -242 222v2c0 130 106 217 254 217c106 0 195 -33 269 -92l-81 -116c-64 46 -128 73 -191 73c-64 0 -98 -31 -98 -68v-2
c0 -50 32 -67 160 -100c149 -38 232 -92 232 -217v-2c0 -143 -110 -224 -266 -224zM266 -304l-8 46c54 5 81 31 78 74h-65v117h140v-99c0 -97 -51 -136 -145 -138z" />
    <glyph glyph-name="scommaaccent" unicode="&#x219;" horiz-adv-x="530" 
d="M270 -10c-78 0 -165 26 -238 83l66 101c60 -44 124 -67 176 -67c48 0 71 18 71 45v2c0 36 -55 48 -117 67c-79 23 -168 59 -168 166v2c0 112 91 175 203 175c70 0 146 -24 206 -64l-58 -105c-55 32 -110 52 -152 52c-40 0 -62 -18 -62 -42v-2c0 -33 55 -48 116 -69
c78 -25 169 -62 169 -164v-2c0 -122 -92 -178 -212 -178zM193 -299l-8 46c54 5 81 31 78 74h-65v117h140v-99c0 -97 -51 -136 -145 -138z" />
    <glyph glyph-name="Tcaron" unicode="&#x164;" horiz-adv-x="681" 
d="M544 936l-131 -150h-144l-131 150h122l82 -58l82 58h120zM264 0v586h-224v142h601v-142h-223v-586h-154z" />
    <glyph glyph-name="tcaron" unicode="&#x165;" horiz-adv-x="439" 
d="M323 615l11 213h110v-3l-61 -210h-60zM264 -9c-96 0 -162 38 -162 166v269h-67v130h67v144h152v-144h134v-130h-134v-244c0 -39 17 -57 54 -57c29 0 55 7 78 19v-122c-33 -19 -70 -31 -122 -31z" />
    <glyph glyph-name="Tcommaaccent" unicode="&#x162;" horiz-adv-x="681" 
d="M264 0v586h-224v142h601v-142h-223v-586h-154zM266 -299l-8 46c54 5 81 31 78 74h-65v117h140v-99c0 -97 -51 -136 -145 -138z" />
    <glyph glyph-name="tcommaaccent" unicode="&#x163;" horiz-adv-x="439" 
d="M264 -9c-96 0 -162 38 -162 166v269h-67v130h67v144h152v-144h134v-130h-134v-244c0 -39 17 -57 54 -57c29 0 55 7 78 19v-122c-33 -19 -70 -31 -122 -31zM160 -299l-8 46c54 5 81 31 78 74h-65v117h140v-99c0 -97 -51 -136 -145 -138z" />
    <glyph glyph-name="Uacute" unicode="&#xda;" horiz-adv-x="794" 
d="M336 786l124 161l132 -58l-140 -103h-116zM395 -11c-194 0 -314 109 -314 322v417h154v-412c0 -122 61 -186 162 -186s163 61 163 180v418h153v-411c0 -220 -123 -328 -318 -328z" />
    <glyph glyph-name="uacute" unicode="&#xfa;" horiz-adv-x="655" 
d="M265 619l114 181l132 -57l-134 -124h-112zM262 -11c-120 0 -190 80 -190 208v359h151v-311c0 -77 37 -118 100 -118s104 41 104 118v311h152v-556h-152v80c-36 -48 -84 -91 -165 -91z" />
    <glyph glyph-name="Ubreve" unicode="&#x16c;" horiz-adv-x="794" 
d="M397 774c-108 0 -185 54 -194 152h104c13 -33 38 -52 90 -52s77 19 90 52h104c-9 -98 -86 -152 -194 -152zM395 -11c-194 0 -314 109 -314 322v417h154v-412c0 -122 61 -186 162 -186s163 61 163 180v418h153v-411c0 -220 -123 -328 -318 -328z" />
    <glyph glyph-name="ubreve" unicode="&#x16d;" horiz-adv-x="655" 
d="M325 617c-108 0 -183 59 -192 162h102c13 -37 38 -63 90 -63s77 26 90 63h102c-9 -103 -84 -162 -192 -162zM262 -11c-120 0 -190 80 -190 208v359h151v-311c0 -77 37 -118 100 -118s104 41 104 118v311h152v-556h-152v80c-36 -48 -84 -91 -165 -91z" />
    <glyph glyph-name="Ucircumflex" unicode="&#xdb;" horiz-adv-x="794" 
d="M194 786l131 150h144l131 -150h-122l-82 58l-82 -58h-120zM395 -11c-194 0 -314 109 -314 322v417h154v-412c0 -122 61 -186 162 -186s163 61 163 180v418h153v-411c0 -220 -123 -328 -318 -328z" />
    <glyph glyph-name="ucircumflex" unicode="&#xfb;" horiz-adv-x="655" 
d="M127 619l126 161h144l126 -161h-117l-82 69l-82 -69h-115zM262 -11c-120 0 -190 80 -190 208v359h151v-311c0 -77 37 -118 100 -118s104 41 104 118v311h152v-556h-152v80c-36 -48 -84 -91 -165 -91z" />
    <glyph glyph-name="Udieresis" unicode="&#xdc;" horiz-adv-x="794" 
d="M211 786v129h148v-129h-148zM435 786v129h148v-129h-148zM395 -11c-194 0 -314 109 -314 322v417h154v-412c0 -122 61 -186 162 -186s163 61 163 180v418h153v-411c0 -220 -123 -328 -318 -328z" />
    <glyph glyph-name="udieresis" unicode="&#xfc;" horiz-adv-x="655" 
d="M145 619v137h147v-137h-147zM358 619v137h147v-137h-147zM262 -11c-120 0 -190 80 -190 208v359h151v-311c0 -77 37 -118 100 -118s104 41 104 118v311h152v-556h-152v80c-36 -48 -84 -91 -165 -91z" />
    <glyph glyph-name="Ugrave" unicode="&#xd9;" horiz-adv-x="794" 
d="M459 786h-116l-140 103l132 58zM395 -11c-194 0 -314 109 -314 322v417h154v-412c0 -122 61 -186 162 -186s163 61 163 180v418h153v-411c0 -220 -123 -328 -318 -328z" />
    <glyph glyph-name="ugrave" unicode="&#xf9;" horiz-adv-x="655" 
d="M273 619l-134 124l132 57l114 -181h-112zM262 -11c-120 0 -190 80 -190 208v359h151v-311c0 -77 37 -118 100 -118s104 41 104 118v311h152v-556h-152v80c-36 -48 -84 -91 -165 -91z" />
    <glyph glyph-name="Uhungarumlaut" unicode="&#x170;" horiz-adv-x="794" 
d="M426 786l124 161l127 -58l-139 -103h-112zM232 786l124 161l127 -58l-140 -103h-111zM395 -11c-194 0 -314 109 -314 322v417h154v-412c0 -122 61 -186 162 -186s163 61 163 180v418h153v-411c0 -220 -123 -328 -318 -328z" />
    <glyph glyph-name="uhungarumlaut" unicode="&#x171;" horiz-adv-x="655" 
d="M164 619l112 181l129 -57l-134 -124h-107zM353 619l114 181l129 -57l-135 -124h-108zM262 -11c-120 0 -190 80 -190 208v359h151v-311c0 -77 37 -118 100 -118s104 41 104 118v311h152v-556h-152v80c-36 -48 -84 -91 -165 -91z" />
    <glyph glyph-name="Umacron" unicode="&#x16a;" horiz-adv-x="794" 
d="M202 792v108h390v-108h-390zM395 -11c-194 0 -314 109 -314 322v417h154v-412c0 -122 61 -186 162 -186s163 61 163 180v418h153v-411c0 -220 -123 -328 -318 -328z" />
    <glyph glyph-name="umacron" unicode="&#x16b;" horiz-adv-x="655" 
d="M140 625v106h370v-106h-370zM262 -11c-120 0 -190 80 -190 208v359h151v-311c0 -77 37 -118 100 -118s104 41 104 118v311h152v-556h-152v80c-36 -48 -84 -91 -165 -91z" />
    <glyph glyph-name="Uogonek" unicode="&#x172;" horiz-adv-x="794" 
d="M488 -103v-68c-16 -2 -31 -2 -44 -2c-90 0 -139 39 -139 89c0 28 11 52 31 77c-159 20 -255 127 -255 318v417h154v-412c0 -122 61 -186 162 -186s163 61 163 180v418h153v-411c0 -205 -106 -312 -278 -326c-14 -19 -20 -36 -20 -51c0 -30 27 -44 73 -43z" />
    <glyph glyph-name="uogonek" unicode="&#x173;" horiz-adv-x="655" 
d="M262 -11c-120 0 -190 80 -190 208v359h151v-311c0 -77 37 -118 100 -118s104 41 104 118v311h152v-556h-35c-20 -23 -27 -42 -27 -60c0 -30 27 -44 73 -43v-68c-16 -2 -31 -2 -44 -2c-90 0 -139 39 -139 89c0 30 14 57 36 84h-16v80c-36 -48 -84 -91 -165 -91z" />
    <glyph glyph-name="Uring" unicode="&#x16e;" horiz-adv-x="794" 
d="M397 759c-69 0 -128 46 -128 113s59 114 128 114s128 -47 128 -114s-59 -113 -128 -113zM397 814c40 0 66 26 66 58c0 33 -26 59 -66 59s-66 -26 -66 -59c0 -32 26 -58 66 -58zM395 -11c-194 0 -314 109 -314 322v417h154v-412c0 -122 61 -186 162 -186s163 61 163 180
v418h153v-411c0 -220 -123 -328 -318 -328z" />
    <glyph glyph-name="uring" unicode="&#x16f;" horiz-adv-x="655" 
d="M325 602c-69 0 -125 53 -125 120s56 121 125 121s125 -54 125 -121s-56 -120 -125 -120zM325 653c38 0 69 32 69 69c0 38 -31 69 -69 69s-69 -31 -69 -69c0 -37 31 -69 69 -69zM262 -11c-120 0 -190 80 -190 208v359h151v-311c0 -77 37 -118 100 -118s104 41 104 118v311
h152v-556h-152v80c-36 -48 -84 -91 -165 -91z" />
    <glyph glyph-name="Wacute" unicode="&#x1e82;" horiz-adv-x="1174" 
d="M525 786l124 161l132 -58l-140 -103h-116zM286 -5l-250 733h165l156 -502l166 504h132l166 -504l155 502h161l-249 -733h-134l-167 485l-167 -485h-134z" />
    <glyph glyph-name="wacute" unicode="&#x1e83;" horiz-adv-x="903" 
d="M391 619l114 181l132 -57l-134 -124h-112zM203 -4l-172 560h154l93 -346l109 348h130l109 -349l96 347h151l-175 -560h-137l-110 349l-112 -349h-136z" />
    <glyph glyph-name="Wcircumflex" unicode="&#x174;" horiz-adv-x="1174" 
d="M384 786l131 150h144l131 -150h-122l-82 58l-82 -58h-120zM286 -5l-250 733h165l156 -502l166 504h132l166 -504l155 502h161l-249 -733h-134l-167 485l-167 -485h-134z" />
    <glyph glyph-name="wcircumflex" unicode="&#x175;" horiz-adv-x="903" 
d="M253 619l126 161h144l126 -161h-117l-82 69l-82 -69h-115zM203 -4l-172 560h154l93 -346l109 348h130l109 -349l96 347h151l-175 -560h-137l-110 349l-112 -349h-136z" />
    <glyph glyph-name="Wdieresis" unicode="&#x1e84;" horiz-adv-x="1174" 
d="M401 786v129h148v-129h-148zM625 786v129h148v-129h-148zM286 -5l-250 733h165l156 -502l166 504h132l166 -504l155 502h161l-249 -733h-134l-167 485l-167 -485h-134z" />
    <glyph glyph-name="wdieresis" unicode="&#x1e85;" horiz-adv-x="903" 
d="M271 619v137h147v-137h-147zM484 619v137h147v-137h-147zM203 -4l-172 560h154l93 -346l109 348h130l109 -349l96 347h151l-175 -560h-137l-110 349l-112 -349h-136z" />
    <glyph glyph-name="Wgrave" unicode="&#x1e80;" horiz-adv-x="1174" 
d="M648 786h-116l-140 103l132 58zM286 -5l-250 733h165l156 -502l166 504h132l166 -504l155 502h161l-249 -733h-134l-167 485l-167 -485h-134z" />
    <glyph glyph-name="wgrave" unicode="&#x1e81;" horiz-adv-x="903" 
d="M399 619l-134 124l132 57l114 -181h-112zM203 -4l-172 560h154l93 -346l109 348h130l109 -349l96 347h151l-175 -560h-137l-110 349l-112 -349h-136z" />
    <glyph glyph-name="Yacute" unicode="&#xdd;" horiz-adv-x="753" 
d="M315 786l124 161l132 -58l-140 -103h-116zM299 0v287l-281 441h180l179 -298l183 298h175l-282 -438v-290h-154z" />
    <glyph glyph-name="yacute" unicode="&#xfd;" horiz-adv-x="631" 
d="M255 619l114 181l132 -57l-134 -124h-112zM319 171l126 385h158l-215 -570c-43 -113 -89 -156 -183 -156c-56 0 -98 15 -138 38l51 110c21 -12 47 -21 69 -21c29 0 44 9 60 41l-221 558h161z" />
    <glyph glyph-name="Ycircumflex" unicode="&#x176;" horiz-adv-x="753" 
d="M173 786l131 150h144l131 -150h-122l-82 58l-82 -58h-120zM299 0v287l-281 441h180l179 -298l183 298h175l-282 -438v-290h-154z" />
    <glyph glyph-name="ycircumflex" unicode="&#x177;" horiz-adv-x="631" 
d="M117 619l126 161h144l126 -161h-117l-82 69l-82 -69h-115zM319 171l126 385h158l-215 -570c-43 -113 -89 -156 -183 -156c-56 0 -98 15 -138 38l51 110c21 -12 47 -21 69 -21c29 0 44 9 60 41l-221 558h161z" />
    <glyph glyph-name="Ydieresis" unicode="&#x178;" horiz-adv-x="753" 
d="M190 786v129h148v-129h-148zM414 786v129h148v-129h-148zM299 0v287l-281 441h180l179 -298l183 298h175l-282 -438v-290h-154z" />
    <glyph glyph-name="ydieresis" unicode="&#xff;" horiz-adv-x="631" 
d="M135 619v137h147v-137h-147zM348 619v137h147v-137h-147zM319 171l126 385h158l-215 -570c-43 -113 -89 -156 -183 -156c-56 0 -98 15 -138 38l51 110c21 -12 47 -21 69 -21c29 0 44 9 60 41l-221 558h161z" />
    <glyph glyph-name="Ygrave" unicode="&#x1ef2;" horiz-adv-x="753" 
d="M438 786h-116l-140 103l132 58zM299 0v287l-281 441h180l179 -298l183 298h175l-282 -438v-290h-154z" />
    <glyph glyph-name="ygrave" unicode="&#x1ef3;" horiz-adv-x="631" 
d="M263 619l-134 124l132 57l114 -181h-112zM319 171l126 385h158l-215 -570c-43 -113 -89 -156 -183 -156c-56 0 -98 15 -138 38l51 110c21 -12 47 -21 69 -21c29 0 44 9 60 41l-221 558h161z" />
    <glyph glyph-name="Zacute" unicode="&#x179;" horiz-adv-x="743" 
d="M316 786l124 161l132 -58l-140 -103h-116zM70 0v116l406 477h-393v135h591v-116l-406 -477h406v-135h-604z" />
    <glyph glyph-name="zacute" unicode="&#x17a;" horiz-adv-x="593" 
d="M239 619l114 181l132 -57l-134 -124h-112zM56 0v106l294 327h-284v123h474v-107l-295 -326h295v-123h-484z" />
    <glyph glyph-name="Zcaron" unicode="&#x17d;" horiz-adv-x="743" 
d="M581 936l-131 -150h-144l-131 150h122l82 -58l82 58h120zM70 0v116l406 477h-393v135h591v-116l-406 -477h406v-135h-604z" />
    <glyph glyph-name="zcaron" unicode="&#x17e;" horiz-adv-x="593" 
d="M496 780l-126 -161h-144l-126 161h117l82 -69l82 69h115zM56 0v106l294 327h-284v123h474v-107l-295 -326h295v-123h-484z" />
    <glyph glyph-name="Zdotaccent" unicode="&#x17b;" horiz-adv-x="743" 
d="M302 786v129h152v-129h-152zM70 0v116l406 477h-393v135h591v-116l-406 -477h406v-135h-604z" />
    <glyph glyph-name="zdotaccent" unicode="&#x17c;" horiz-adv-x="593" 
d="M222 619v137h152v-137h-152zM56 0v106l294 327h-284v123h474v-107l-295 -326h295v-123h-484z" />
    <glyph glyph-name="AE" unicode="&#xc6;" horiz-adv-x="1095" 
d="M332 302h176v293h-19zM14 0l395 728h621v-137h-369v-156h322v-137h-322v-161h374v-137h-527v166h-248l-89 -166h-157z" />
    <glyph glyph-name="ae" unicode="&#xe6;" horiz-adv-x="997" 
d="M551 320h247c-9 73 -52 124 -122 124c-68 0 -113 -49 -125 -124zM252 -11c-119 0 -210 63 -210 171v2c0 121 93 177 225 177c57 0 98 -9 138 -22v10c0 68 -42 105 -122 105c-61 0 -104 -12 -155 -31l-38 116c61 28 121 45 214 45s154 -26 190 -74c46 49 109 78 186 78
c179 0 266 -143 266 -301c0 -12 -1 -26 -2 -40h-391c15 -76 68 -115 141 -115c54 0 94 17 138 58l87 -77c-52 -64 -127 -103 -227 -103c-86 0 -161 31 -213 86c-63 -48 -138 -85 -227 -85zM279 97c50 0 100 18 147 56c-10 23 -17 48 -20 75c-28 11 -65 20 -104 20
c-70 0 -113 -29 -113 -80v-2c0 -43 41 -69 90 -69z" />
    <glyph glyph-name="AEacute" unicode="&#x1fc;" horiz-adv-x="1095" 
d="M584 786l124 161l132 -58l-140 -103h-116zM332 302h176v293h-19zM14 0l395 728h621v-137h-369v-156h322v-137h-322v-161h374v-137h-527v166h-248l-89 -166h-157z" />
    <glyph glyph-name="aeacute" unicode="&#x1fd;" horiz-adv-x="997" 
d="M434 619l114 181l132 -57l-134 -124h-112zM551 320h247c-9 73 -52 124 -122 124c-68 0 -113 -49 -125 -124zM252 -11c-119 0 -210 63 -210 171v2c0 121 93 177 225 177c57 0 98 -9 138 -22v10c0 68 -42 105 -122 105c-61 0 -104 -12 -155 -31l-38 116
c61 28 121 45 214 45s154 -26 190 -74c46 49 109 78 186 78c179 0 266 -143 266 -301c0 -12 -1 -26 -2 -40h-391c15 -76 68 -115 141 -115c54 0 94 17 138 58l87 -77c-52 -64 -127 -103 -227 -103c-86 0 -161 31 -213 86c-63 -48 -138 -85 -227 -85zM279 97
c50 0 100 18 147 56c-10 23 -17 48 -20 75c-28 11 -65 20 -104 20c-70 0 -113 -29 -113 -80v-2c0 -43 41 -69 90 -69z" />
    <glyph glyph-name="OE" unicode="&#x152;" horiz-adv-x="1131" 
d="M447 0c-229 0 -387 157 -387 362v2c0 205 158 364 387 364h619v-137h-369v-156h322v-137h-322v-161h374v-137h-624zM447 139h97v450h-97c-135 0 -226 -91 -226 -223v-2c0 -132 91 -225 226 -225z" />
    <glyph glyph-name="oe" unicode="&#x153;" horiz-adv-x="1084" 
d="M339 -12c-159 0 -290 127 -290 287v2c0 159 131 289 296 289c88 0 162 -37 212 -96c48 59 120 96 206 96c184 0 270 -143 270 -301c0 -12 -1 -26 -2 -40h-391c15 -76 67 -115 140 -115c55 0 94 17 138 58l87 -77c-52 -64 -126 -103 -227 -103c-92 0 -171 37 -223 98
c-51 -60 -127 -98 -216 -98zM638 320h247c-10 73 -52 124 -122 124c-68 0 -113 -49 -125 -124zM345 118c89 0 144 72 144 157v2c0 85 -60 158 -146 158c-90 0 -144 -73 -144 -156v-2c0 -85 59 -159 146 -159z" />
    <glyph glyph-name="Eth" unicode="&#xd0;" horiz-adv-x="852" 
d="M124 0v313h-78v106h78v309h281c229 0 387 -157 387 -362v-2c0 -205 -158 -364 -387 -364h-281zM439 313h-161v-174h127c136 0 226 91 226 223v2c0 132 -90 225 -226 225h-127v-170h161v-106z" />
    <glyph glyph-name="eth" unicode="&#xf0;" horiz-adv-x="698" 
d="M560 682l-78 -21c94 -98 165 -218 165 -357v-2c0 -170 -111 -314 -300 -314c-171 0 -298 127 -298 295v2c0 151 110 269 248 269c54 0 91 -14 132 -40c-22 35 -54 72 -91 109l-129 -34l-27 81l81 21c-30 24 -61 47 -91 68h202l36 -30l124 32zM350 118
c92 0 148 70 148 155v2c0 85 -61 156 -151 156c-93 0 -148 -69 -148 -154v-2c0 -85 61 -157 151 -157z" />
    <glyph glyph-name="Thorn" unicode="&#xde;" horiz-adv-x="708" 
d="M93 0v728h153v-108h142c173 0 278 -101 278 -250v-2c0 -167 -131 -254 -293 -254h-127v-114h-153zM246 251h132c83 0 133 49 133 114v2c0 75 -53 114 -136 114h-129v-230z" />
    <glyph glyph-name="thorn" unicode="&#xfe;" horiz-adv-x="709" 
d="M366 119c76 0 140 61 140 158v2c0 95 -64 158 -140 158s-140 -63 -140 -158v-2c0 -95 64 -158 140 -158zM76 -166v925h152v-286c39 53 93 93 176 93c130 0 254 -102 254 -287v-2c0 -185 -122 -288 -254 -288c-85 0 -138 40 -176 86v-241h-152z" />
    <glyph glyph-name="uni018F" unicode="&#x18f;" horiz-adv-x="837" 
d="M96 605c67 80 166 135 309 135c210 0 372 -153 372 -373v-3c0 -207 -151 -376 -362 -376c-240 0 -355 185 -355 392v2c0 20 1 31 2 49h547c-23 109 -104 168 -204 168c-88 0 -150 -31 -211 -93zM415 126c104 0 176 71 195 175h-385c14 -100 81 -175 190 -175z" />
    <glyph glyph-name="schwa" unicode="&#x259;" horiz-adv-x="644" 
d="M306 568c165 0 289 -117 289 -287v-2c0 -159 -113 -290 -274 -290c-184 0 -270 144 -270 302c0 12 1 26 2 40h391c-15 75 -68 115 -140 115c-55 0 -95 -18 -138 -59l-88 78c53 64 127 103 228 103zM446 235h-247c9 -73 52 -123 122 -123c68 0 113 49 125 123z" />
    <glyph glyph-name="germandbls" unicode="&#xdf;" horiz-adv-x="653" 
d="M314 -2v114c89 4 139 38 139 99v2c0 59 -59 94 -139 105v100c54 32 97 73 97 132v2c0 54 -34 86 -88 86c-56 0 -96 -42 -96 -109v-529h-151v523c0 153 99 243 254 243c148 0 231 -87 231 -200v-2c0 -90 -45 -136 -99 -171c72 -30 141 -84 141 -185v-2
c0 -137 -113 -215 -289 -208z" />
    <glyph glyph-name="uni0386" unicode="&#x386;" horiz-adv-x="830" 
d="M46 512l11 216h146l-79 -216h-78zM310 302h205l-102 247zM30 0l314 733h142l313 -733h-161l-68 166h-315l-68 -166h-157z" />
    <glyph glyph-name="uni0388" unicode="&#x388;" horiz-adv-x="705" 
d="M93 0v728h547v-137h-395v-156h348v-137h-348v-161h400v-137h-552zM-103 512l11 216h146l-79 -216h-78z" />
    <glyph glyph-name="uni0389" unicode="&#x389;" horiz-adv-x="798" 
d="M-103 512l11 216h146l-79 -216h-78zM93 0v728h153v-291h306v291h154v-728h-154v295h-306v-295h-153z" />
    <glyph glyph-name="uni038A" unicode="&#x38a;" horiz-adv-x="354" 
d="M100 0v728h154v-728h-154zM-99 512l11 216h146l-79 -216h-78z" />
    <glyph glyph-name="uni038C" unicode="&#x38c;" horiz-adv-x="892" 
d="M445 -12c-224 0 -385 167 -385 374v2c0 206 163 376 387 376s385 -167 385 -374v-2c0 -206 -163 -376 -387 -376zM-76 512l11 216h146l-79 -216h-78zM447 129c132 0 224 105 224 233v2c0 128 -94 235 -226 235s-224 -105 -224 -233v-2c0 -128 94 -235 226 -235z" />
    <glyph glyph-name="uni038E" unicode="&#x38e;" horiz-adv-x="753" 
d="M299 0v287l-281 441h180l179 -298l183 298h175l-282 -438v-290h-154zM-153 512l11 216h146l-79 -216h-78z" />
    <glyph glyph-name="uni038F" unicode="&#x38f;" horiz-adv-x="913" 
d="M-73 512l11 216h146l-79 -216h-78zM457 740c235 0 375 -145 375 -335v-1c0 -128 -69 -212 -152 -273h169v-131h-322v129c79 55 144 125 144 255v1c0 126 -80 215 -216 214c-133 0 -213 -87 -213 -210v-1c0 -123 59 -198 143 -259v-129h-321v131h168
c-84 64 -151 145 -151 274v1c0 178 139 335 376 334z" />
    <glyph glyph-name="uni0386.calt" horiz-adv-x="830" 
d="M310 302h205l-102 247zM30 0l314 733h142l313 -733h-161l-68 166h-315l-68 -166h-157z" />
    <glyph glyph-name="uni0388.calt" horiz-adv-x="705" 
d="M93 0v728h547v-137h-395v-156h348v-137h-348v-161h400v-137h-552z" />
    <glyph glyph-name="uni0389.calt" horiz-adv-x="798" 
d="M93 0v728h153v-291h306v291h154v-728h-154v295h-306v-295h-153z" />
    <glyph glyph-name="uni038A.calt" horiz-adv-x="354" 
d="M100 0v728h154v-728h-154z" />
    <glyph glyph-name="uni038C.calt" horiz-adv-x="892" 
d="M445 -12c-224 0 -385 167 -385 374v2c0 206 163 376 387 376s385 -167 385 -374v-2c0 -206 -163 -376 -387 -376zM447 129c132 0 224 105 224 233v2c0 128 -94 235 -226 235s-224 -105 -224 -233v-2c0 -128 94 -235 226 -235z" />
    <glyph glyph-name="uni038E.calt" horiz-adv-x="753" 
d="M299 0v287l-281 441h180l179 -298l183 298h175l-282 -438v-290h-154z" />
    <glyph glyph-name="uni038F.calt" horiz-adv-x="913" 
d="M457 740c235 0 375 -145 375 -335v-1c0 -128 -69 -212 -152 -273h169v-131h-322v129c79 55 144 125 144 255v1c0 126 -80 215 -216 214c-133 0 -213 -87 -213 -210v-1c0 -123 59 -198 143 -259v-129h-321v131h168c-84 64 -151 145 -151 274v1c0 178 139 335 376 334z" />
    <glyph glyph-name="uni0399.calt" horiz-adv-x="354" 
d="M-9 786v129h148v-129h-148zM215 786v129h148v-129h-148zM100 0v728h154v-728h-154z" />
    <glyph glyph-name="uni03A5.calt" horiz-adv-x="753" 
d="M190 786v129h148v-129h-148zM414 786v129h148v-129h-148zM299 0v287l-281 441h180l179 -298l183 298h175l-282 -438v-290h-154z" />
    <glyph glyph-name="uni03AA" unicode="&#x3aa;" horiz-adv-x="354" 
d="M-9 786v129h148v-129h-148zM215 786v129h148v-129h-148zM100 0v728h154v-728h-154z" />
    <glyph glyph-name="uni03AB" unicode="&#x3ab;" horiz-adv-x="753" 
d="M190 786v129h148v-129h-148zM414 786v129h148v-129h-148zM299 0v287l-281 441h180l179 -298l183 298h175l-282 -438v-290h-154z" />
    <glyph glyph-name="uni03AC" unicode="&#x3ac;" horiz-adv-x="750" 
d="M337 619l74 187l128 -57l-104 -130h-98zM343 119c76 0 140 63 140 158v2c0 95 -64 158 -140 158s-140 -61 -140 -158v-2c0 -95 64 -158 140 -158zM721 122v-117c-20 -6 -46 -11 -83 -11c-74 0 -119 25 -139 83c-41 -50 -100 -88 -186 -88c-138 0 -262 102 -262 288v2
c0 185 122 287 254 287c85 0 138 -39 176 -85v75h152v-378c0 -44 20 -59 55 -59c13 0 24 1 33 3z" />
    <glyph glyph-name="uni03AD" unicode="&#x3ad;" horiz-adv-x="599" 
d="M259 619l74 187l128 -57l-104 -130h-98zM417 224h-120c-65 0 -96 -20 -96 -54v-1c0 -36 33 -59 108 -59c62 0 131 22 188 59l63 -99c-75 -53 -165 -81 -257 -81c-163 0 -249 66 -249 164v1c0 70 47 105 97 126c-49 25 -83 61 -83 120v1c0 94 83 163 241 163
c102 0 178 -28 246 -78l-76 -101c-47 36 -105 59 -164 59c-67 0 -100 -25 -100 -56v-1c0 -35 24 -54 82 -54h120v-109z" />
    <glyph glyph-name="uni03AE" unicode="&#x3ae;" horiz-adv-x="655" 
d="M283 619l74 187l128 -57l-104 -130h-98zM584 -166h-152v477c0 77 -37 118 -100 118s-104 -41 -104 -118v-311h-152v556h152v-80c36 47 84 90 165 90c120 0 191 -79 191 -207v-525z" />
    <glyph glyph-name="uni03AF" unicode="&#x3af;" horiz-adv-x="343" 
d="M106 619l74 187l128 -57l-104 -130h-98zM74 171v385h152v-378c0 -44 20 -59 55 -59c13 0 25 1 33 3v-117c-20 -6 -46 -11 -84 -11c-104 0 -156 51 -156 177z" />
    <glyph glyph-name="uni03CC" unicode="&#x3cc;" horiz-adv-x="697" 
d="M302 619l74 187l128 -57l-104 -130h-98zM347 -12c-171 0 -298 127 -298 287v2c0 159 128 289 301 289c171 0 298 -128 298 -287v-2c0 -160 -128 -289 -301 -289zM350 118c92 0 148 72 148 157v2c0 85 -61 158 -151 158c-92 0 -148 -71 -148 -156v-2
c0 -85 61 -159 151 -159z" />
    <glyph glyph-name="uni03CD" unicode="&#x3cd;" horiz-adv-x="657" 
d="M281 619l74 187l128 -57l-104 -130h-98zM327 -12c-157 0 -257 83 -257 246v322h152v-317c0 -76 32 -121 107 -121s107 44 107 118v320h152v-318c0 -168 -104 -250 -261 -250z" />
    <glyph glyph-name="uni03CE" unicode="&#x3ce;" horiz-adv-x="923" 
d="M415 619l74 187l128 -57l-104 -130h-98zM388 448h148v-189c0 -88 37 -137 91 -137c59 0 93 47 93 148s-41 182 -125 286h161c70 -81 112 -175 112 -291c0 -165 -75 -277 -220 -277c-104 0 -159 60 -187 136c-29 -76 -83 -136 -188 -136c-145 0 -218 112 -218 277
c0 116 42 210 112 291h159c-84 -104 -123 -185 -123 -286s34 -148 93 -148c54 0 92 49 92 137v189z" />
    <glyph glyph-name="uni03CA" unicode="&#x3ca;" horiz-adv-x="343" 
d="M-27 619v137h147v-137h-147zM186 619v137h147v-137h-147zM74 171v385h152v-378c0 -44 20 -59 55 -59c13 0 25 1 33 3v-117c-20 -6 -46 -11 -84 -11c-104 0 -156 51 -156 177z" />
    <glyph glyph-name="uni03CB" unicode="&#x3cb;" horiz-adv-x="657" 
d="M148 619v137h147v-137h-147zM361 619v137h147v-137h-147zM327 -12c-157 0 -257 83 -257 246v322h152v-317c0 -76 32 -121 107 -121s107 44 107 118v320h152v-318c0 -168 -104 -250 -261 -250z" />
    <glyph glyph-name="uni0390" unicode="&#x390;" horiz-adv-x="343" 
d="M84 619l48 213l122 -27l-87 -186h-83zM-72 619v135h129v-135h-129zM251 619v135h129v-135h-129zM74 171v385h152v-378c0 -44 20 -59 55 -59c13 0 25 1 33 3v-117c-20 -6 -46 -11 -84 -11c-104 0 -156 51 -156 177z" />
    <glyph glyph-name="uni03B0" unicode="&#x3b0;" horiz-adv-x="657" 
d="M258 619l48 213l122 -27l-87 -186h-83zM102 619v135h129v-135h-129zM425 619v135h129v-135h-129zM327 -12c-157 0 -257 83 -257 246v322h152v-317c0 -76 32 -121 107 -121s107 44 107 118v320h152v-318c0 -168 -104 -250 -261 -250z" />
    <glyph glyph-name="uni0462" unicode="&#x462;" horiz-adv-x="869" 
d="M578 424c150 0 250 -69 250 -207v-1c0 -128 -93 -217 -257 -216h-316v529h-215v125h215v83h152v-83h239v-123h-239v-107h171zM577 291h-171v-156h170c61 0 99 29 99 79v1c0 46 -33 77 -98 76z" />
    <glyph glyph-name="uni0472" unicode="&#x472;" horiz-adv-x="886" 
d="M442 -12c-221 0 -382 167 -382 374v2c0 206 163 376 384 376c222 0 382 -167 382 -374v-2c0 -206 -163 -376 -384 -376zM442 607c-115 0 -199 -71 -222 -173h445c-25 102 -109 173 -223 173zM444 121c116 0 201 72 223 178h-448c23 -105 109 -178 225 -178z" />
    <glyph glyph-name="uni0474" unicode="&#x474;" horiz-adv-x="831" 
d="M320 -5l-290 733h170l192 -522l121 320c56 150 127 204 269 204h23v-139h-7c-66 0 -106 -23 -138 -101l-204 -495h-136z" />
    <glyph glyph-name="uni0490" unicode="&#x490;" horiz-adv-x="651" 
d="M93 728h376v141h144v-281h-367v-588h-153v728z" />
    <glyph glyph-name="uni0404" unicode="&#x404;" horiz-adv-x="772" 
d="M429 -12c-214 0 -369 165 -369 374v2c0 207 152 376 375 376c137 0 219 -45 287 -112l-97 -112c-57 53 -113 85 -189 85c-108 0 -190 -69 -212 -169h326v-130h-327c20 -103 102 -175 213 -175c86 0 136 34 194 88l97 -98c-75 -79 -158 -129 -298 -129z" />
    <glyph glyph-name="uni0406" unicode="&#x406;" horiz-adv-x="354" 
d="M100 0v728h154v-728h-154z" />
    <glyph glyph-name="uni0407" unicode="&#x407;" horiz-adv-x="354" 
d="M-9 786v129h148v-129h-148zM215 786v129h148v-129h-148zM100 0v728h154v-728h-154z" />
    <glyph glyph-name="uni0402" unicode="&#x402;" horiz-adv-x="868" 
d="M636 728v-142h-229v-146c51 9 102 14 149 14c170 0 269 -79 269 -223c0 -137 -94 -233 -268 -233h-22v135h2c94 0 134 38 134 91c0 60 -40 94 -134 94c-42 0 -80 -4 -130 -12v-306h-154v586h-213v142h596z" />
    <glyph glyph-name="uni0408" unicode="&#x408;" horiz-adv-x="594" 
d="M257 -10c-113 0 -187 50 -237 110l98 108c41 -48 82 -76 135 -76c62 0 102 39 102 125v471h157v-477c0 -86 -25 -151 -68 -194c-44 -45 -109 -67 -187 -67z" />
    <glyph glyph-name="uni0409" unicode="&#x409;" horiz-adv-x="1100" 
d="M496 0v600h-5l-320 -600h-157l394 728h241v-232h124c173 0 286 -83 286 -245v-1c0 -152 -106 -251 -293 -250h-270zM649 139h120c82 0 134 38 134 111v1c0 68 -48 109 -133 108h-121v-220z" />
    <glyph glyph-name="uni040A" unicode="&#x40a;" horiz-adv-x="1145" 
d="M694 139h120c83 0 134 38 134 111v1c0 68 -47 109 -132 108h-122v-220zM542 0v295h-296v-295h-153v728h153v-291h296v291h152v-232h124c174 0 286 -83 286 -245v-1c0 -152 -106 -251 -293 -250h-269z" />
    <glyph glyph-name="uni040B" unicode="&#x40b;" horiz-adv-x="897" 
d="M636 728v-142h-229v-146c46 8 96 14 143 14c169 0 275 -77 275 -251v-203h-154v185c0 90 -45 131 -137 131c-44 0 -87 -5 -127 -12v-304h-154v586h-213v142h596z" />
    <glyph glyph-name="uni040F" unicode="&#x40f;" horiz-adv-x="794" 
d="M325 -148v148h-232v728h153v-588h301v588h154v-728h-232v-148h-144z" />
    <glyph glyph-name="uni040E" unicode="&#x40e;" horiz-adv-x="760" 
d="M389 784c-108 0 -185 54 -194 152h104c13 -33 38 -52 90 -52s77 19 90 52h104c-9 -98 -86 -152 -194 -152zM337 0h-171l144 250l-283 478h174l194 -339l177 339h171z" />
    <glyph glyph-name="uni0403" unicode="&#x403;" horiz-adv-x="651" 
d="M289 786l124 161l132 -58l-140 -103h-116zM93 0v728h520v-140h-367v-588h-153z" />
    <glyph glyph-name="uni0405" unicode="&#x405;" horiz-adv-x="674" 
d="M351 -10c-111 0 -221 38 -308 116l91 109c66 -55 135 -90 220 -90c68 0 110 29 110 74v2c0 43 -26 65 -150 96c-149 37 -242 79 -242 222v2c0 130 106 217 254 217c106 0 195 -33 269 -92l-81 -116c-64 46 -128 73 -191 73c-64 0 -98 -31 -98 -68v-2
c0 -50 32 -67 160 -100c149 -38 232 -92 232 -217v-2c0 -143 -110 -224 -266 -224z" />
    <glyph glyph-name="uni040C" unicode="&#x40c;" horiz-adv-x="776" 
d="M335 786l124 161l132 -58l-140 -103h-116zM93 0v728h153l-2 -294h58l258 294h191l-326 -352l345 -376h-196l-269 300h-61l2 -300h-153z" />
    <glyph glyph-name="uni0400" unicode="&#x400;" horiz-adv-x="705" 
d="M430 786h-116l-140 103l132 58zM93 0v728h547v-137h-395v-156h348v-137h-348v-161h400v-137h-552z" />
    <glyph glyph-name="uni040D" unicode="&#x40d;" horiz-adv-x="830" 
d="M476 786h-116l-140 103l132 58zM737 0h-154v486l-355 -486h-135v728h153v-471l344 471h147v-728z" />
    <glyph glyph-name="uni0492" unicode="&#x492;" horiz-adv-x="683" 
d="M124 0v293h-78v106h78v329h520v-140h-367v-189h179v-106h-179v-293h-153z" />
    <glyph glyph-name="uni0496" unicode="&#x496;" horiz-adv-x="1150" 
d="M1108 728l-297 -355l200 -233h125v-288h-144v148h-43l-257 302h-47l2 -302h-151l1 302h-51l-255 -302h-180l321 373l-297 355h183l239 -296h40l-1 296h151l-2 -296h40l242 296h181z" />
    <glyph glyph-name="uni0498" unicode="&#x498;" horiz-adv-x="702" 
d="M149 517l-93 104c80 71 170 119 300 119c172 0 272 -77 272 -196v-1c0 -93 -48 -139 -126 -169c86 -22 146 -68 146 -170v-1c0 -106 -84 -191 -232 -210l6 -141h-150l6 140c-99 13 -176 54 -235 107l91 110c62 -49 130 -84 215 -84c82 0 143 31 143 91v1
c0 56 -55 87 -144 86h-134v128h138c76 0 120 36 120 89v1c0 52 -45 82 -119 82c-77 0 -144 -36 -204 -86z" />
    <glyph glyph-name="uni049A" unicode="&#x49a;" horiz-adv-x="783" 
d="M93 0v728h153l-2 -294h58l258 294h191l-326 -352l216 -236h132v-288h-144v148h-55l-269 300h-61l2 -300h-153z" />
    <glyph glyph-name="uni049C" unicode="&#x49c;" horiz-adv-x="816" 
d="M777 728l-258 -345l270 -383h-181l-197 288h-1l2 -179h-93l2 195h-75v-304h-153v728h153v-292h75l-2 198h93l-2 -179h1l190 273h176z" />
    <glyph glyph-name="uni04A0" unicode="&#x4a0;" horiz-adv-x="943" 
d="M40 591v137h373l-2 -294h58l258 294h191l-326 -352l345 -376h-196l-269 300h-61l2 -300h-153v591h-220z" />
    <glyph glyph-name="uni04A2" unicode="&#x4a2;" horiz-adv-x="832" 
d="M93 0v728h153v-291h306v291h154v-588h93v-288h-144v148h-103v295h-306v-295h-153z" />
    <glyph glyph-name="uni04A4" unicode="&#x4a4;" horiz-adv-x="1066" 
d="M539 0v295h-295v-295h-154v728h154v-291h295v291h489v-140h-335v-588h-154z" />
    <glyph glyph-name="uni04AA" unicode="&#x4aa;" horiz-adv-x="776" 
d="M355 -148l6 143c-177 31 -301 182 -301 367v2c0 207 156 376 379 376c137 0 219 -45 287 -112l-98 -113c-57 52 -115 84 -190 84c-126 0 -217 -105 -217 -233v-2c0 -128 89 -235 217 -235c85 0 137 34 195 87l98 -99c-63 -66 -131 -112 -232 -125l6 -140h-150z" />
    <glyph glyph-name="uni04AE" unicode="&#x4ae;" horiz-adv-x="753" 
d="M299 0v287l-281 441h180l179 -298l183 298h175l-282 -438v-290h-154z" />
    <glyph glyph-name="uni04B0" unicode="&#x4b0;" horiz-adv-x="753" 
d="M299 0v190h-170v106h164l-275 432h180l179 -298l183 298h175l-278 -432h166v-106h-170v-190h-154z" />
    <glyph glyph-name="uni04B2" unicode="&#x4b2;" horiz-adv-x="794" 
d="M546 728h175l-245 -355l159 -233h133v-288h-144v148h-73l-169 256l-170 -256h-175l256 370l-245 358h180l158 -242z" />
    <glyph glyph-name="uni04B6" unicode="&#x4b6;" horiz-adv-x="784" 
d="M504 0v239c-48 -10 -106 -17 -155 -17c-166 0 -275 77 -275 252v254h154v-237c0 -90 45 -130 137 -130c49 0 96 6 139 17v350h154v-588h93v-288h-144v148h-103z" />
    <glyph glyph-name="uni04B8" unicode="&#x4b8;" horiz-adv-x="750" 
d="M503 0v239c-29 -6 -61 -11 -93 -14l2 -156h-92l1 154c-151 8 -247 86 -247 251v254h153v-237c0 -75 31 -115 94 -127l-1 198h92l-2 -199c32 3 64 8 93 15v350h154v-728h-154z" />
    <glyph glyph-name="uni04BA" unicode="&#x4ba;" horiz-adv-x="750" 
d="M246 728v-239c48 10 106 17 154 17c167 0 275 -77 275 -252v-254h-153v237c0 90 -46 130 -138 130c-48 0 -95 -7 -138 -18v-349h-154v728h154z" />
    <glyph glyph-name="uni04C0" unicode="&#x4c0;" horiz-adv-x="354" 
d="M100 0v728h154v-728h-154z" />
    <glyph glyph-name="uni04C1" unicode="&#x4c1;" horiz-adv-x="1143" 
d="M571 784c-108 0 -185 54 -194 152h104c13 -33 38 -52 90 -52s77 19 90 52h104c-9 -98 -86 -152 -194 -152zM35 728h183l239 -296h40l-1 296h151l-2 -296h40l242 296h181l-297 -355l321 -373h-183l-257 302h-47l2 -302h-151l1 302h-51l-255 -302h-180l321 373z" />
    <glyph glyph-name="uni04D0" unicode="&#x4d0;" horiz-adv-x="830" 
d="M415 794c-108 0 -185 54 -194 152h104c13 -33 38 -52 90 -52s77 19 90 52h104c-9 -98 -86 -152 -194 -152zM310 302h205l-102 247zM30 0l314 733h142l313 -733h-161l-68 166h-315l-68 -166h-157z" />
    <glyph glyph-name="uni04D2" unicode="&#x4d2;" horiz-adv-x="830" 
d="M229 796v129h148v-129h-148zM453 796v129h148v-129h-148zM310 302h205l-102 247zM30 0l314 733h142l313 -733h-161l-68 166h-315l-68 -166h-157z" />
    <glyph glyph-name="uni04D4" unicode="&#x4d4;" horiz-adv-x="1095" 
d="M332 302h176v293h-19zM14 0l395 728h621v-137h-369v-156h322v-137h-322v-161h374v-137h-527v166h-248l-89 -166h-157z" />
    <glyph glyph-name="uni04D6" unicode="&#x4d6;" horiz-adv-x="705" 
d="M368 784c-108 0 -185 54 -194 152h104c13 -33 38 -52 90 -52s77 19 90 52h104c-9 -98 -86 -152 -194 -152zM93 0v728h547v-137h-395v-156h348v-137h-348v-161h400v-137h-552z" />
    <glyph glyph-name="uni04D8" unicode="&#x4d8;" horiz-adv-x="837" 
d="M96 605c67 80 166 135 309 135c210 0 372 -153 372 -373v-3c0 -207 -151 -376 -362 -376c-240 0 -355 185 -355 392v2c0 20 1 31 2 49h547c-23 109 -104 168 -204 168c-88 0 -150 -31 -211 -93zM415 126c104 0 176 71 195 175h-385c14 -100 81 -175 190 -175z" />
    <glyph glyph-name="uni04DC" unicode="&#x4dc;" horiz-adv-x="1143" 
d="M386 786v129h148v-129h-148zM610 786v129h148v-129h-148zM35 728h183l239 -296h40l-1 296h151l-2 -296h40l242 296h181l-297 -355l321 -373h-183l-257 302h-47l2 -302h-151l1 302h-51l-255 -302h-180l321 373z" />
    <glyph glyph-name="uni04DE" unicode="&#x4de;" horiz-adv-x="702" 
d="M160 787v129h148v-129h-148zM384 787v129h148v-129h-148zM149 517l-93 104c80 71 170 119 300 119c172 0 272 -77 272 -196v-1c0 -93 -48 -139 -126 -169c86 -22 146 -68 146 -170v-1c0 -122 -111 -216 -303 -215c-131 0 -230 47 -302 111l91 110c62 -49 130 -84 215 -84
c82 0 143 31 143 91v1c0 56 -55 87 -144 86h-134v128h138c76 0 120 36 120 89v1c0 52 -45 82 -119 82c-77 0 -144 -36 -204 -86z" />
    <glyph glyph-name="uni04E2" unicode="&#x4e2;" horiz-adv-x="830" 
d="M220 792v108h390v-108h-390zM737 0h-154v486l-355 -486h-135v728h153v-471l344 471h147v-728z" />
    <glyph glyph-name="uni04E4" unicode="&#x4e4;" horiz-adv-x="830" 
d="M229 786v129h148v-129h-148zM453 786v129h148v-129h-148zM737 0h-154v486l-355 -486h-135v728h153v-471l344 471h147v-728z" />
    <glyph glyph-name="uni04E6" unicode="&#x4e6;" horiz-adv-x="892" 
d="M260 796v129h148v-129h-148zM484 796v129h148v-129h-148zM445 -12c-224 0 -385 167 -385 374v2c0 206 163 376 387 376s385 -167 385 -374v-2c0 -206 -163 -376 -387 -376zM447 129c132 0 224 105 224 233v2c0 128 -94 235 -226 235s-224 -105 -224 -233v-2
c0 -128 94 -235 226 -235z" />
    <glyph glyph-name="uni04E8" unicode="&#x4e8;" horiz-adv-x="886" 
d="M442 -12c-221 0 -382 167 -382 374v2c0 206 163 376 384 376c222 0 382 -167 382 -374v-2c0 -206 -163 -376 -384 -376zM442 607c-115 0 -199 -71 -222 -173h445c-25 102 -109 173 -223 173zM444 121c116 0 201 72 223 178h-448c23 -105 109 -178 225 -178z" />
    <glyph glyph-name="uni04EE" unicode="&#x4ee;" horiz-adv-x="760" 
d="M194 792v108h390v-108h-390zM337 0h-171l144 250l-283 478h174l194 -339l177 339h171z" />
    <glyph glyph-name="uni04F0" unicode="&#x4f0;" horiz-adv-x="760" 
d="M204 786v129h148v-129h-148zM428 786v129h148v-129h-148zM337 0h-171l144 250l-283 478h174l194 -339l177 339h171z" />
    <glyph glyph-name="uni04F2" unicode="&#x4f2;" horiz-adv-x="760" 
d="M418 786l124 161l127 -58l-139 -103h-112zM224 786l124 161l127 -58l-140 -103h-111zM337 0h-171l144 250l-283 478h174l194 -339l177 339h171z" />
    <glyph glyph-name="uni04F4" unicode="&#x4f4;" horiz-adv-x="750" 
d="M180 786v129h148v-129h-148zM404 786v129h148v-129h-148zM504 0v239c-48 -10 -106 -17 -155 -17c-166 0 -275 77 -275 252v254h154v-237c0 -90 45 -130 137 -130c49 0 96 6 139 17v350h154v-728h-154z" />
    <glyph glyph-name="uni04F8" unicode="&#x4f8;" horiz-adv-x="1022" 
d="M325 786v129h148v-129h-148zM549 786v129h148v-129h-148zM775 0v728h154v-728h-154zM93 0v728h153v-232h134c174 0 286 -83 286 -245v-1c0 -152 -105 -251 -292 -250h-281zM246 139h131c82 0 134 38 134 111v1c0 68 -48 109 -133 108h-132v-220z" />
    <glyph glyph-name="uni0431.srb" horiz-adv-x="682" 
d="M567 759v-129l-280 2c-22 0 -33 -9 -33 -21s10 -19 29 -29l145 -71c126 -62 205 -131 205 -256v-1c0 -146 -115 -267 -296 -266c-168 0 -288 114 -288 264v1c0 121 71 209 200 233l-23 12c-70 37 -116 71 -116 142c0 64 51 119 177 119h280zM342 116c86 0 144 56 144 139
v1c0 84 -66 141 -145 140c-89 0 -144 -66 -144 -141v-1c0 -80 61 -139 145 -138z" />
    <glyph glyph-name="uni0463" unicode="&#x463;" horiz-adv-x="710" 
d="M344 353h122c125 0 208 -58 208 -174v-1c0 -107 -81 -179 -220 -178h-261v428h-158v128h158v203h151v-203h205v-126h-205v-77zM342 238v-121h108c46 0 75 22 75 61v1c0 36 -26 60 -73 59h-110z" />
    <glyph glyph-name="uni0473" unicode="&#x473;" horiz-adv-x="691" 
d="M345 -12c-169 0 -296 127 -296 287v2c0 159 128 289 298 289c168 0 296 -128 296 -287v-2c0 -160 -129 -289 -298 -289zM345 445c-77 0 -133 -44 -151 -111h301c-20 67 -77 111 -150 111zM347 109c77 0 132 44 150 112h-302c19 -68 78 -112 152 -112z" />
    <glyph glyph-name="uni0475" unicode="&#x475;" horiz-adv-x="653" 
d="M241 -4l-215 560h161l126 -380l69 197c46 135 98 185 222 185h23v-125h-2c-53 0 -80 -24 -107 -91l-139 -346h-138z" />
    <glyph glyph-name="uni0491" unicode="&#x491;" horiz-adv-x="537" 
d="M76 0v556h282v130h142v-267h-272v-419h-152z" />
    <glyph glyph-name="uni0454" unicode="&#x454;" horiz-adv-x="607" 
d="M564 485l-79 -103c-41 36 -81 59 -140 59c-72 0 -128 -41 -145 -105l229 2v-121l-229 1c16 -65 69 -105 148 -105c55 0 101 22 143 57l78 -94c-60 -54 -129 -88 -230 -88c-173 0 -290 128 -290 287v2c0 159 117 289 293 289c101 0 165 -30 222 -81z" />
    <glyph glyph-name="uni0456" unicode="&#x456;" horiz-adv-x="319" 
d="M79 622v136h160v-136h-160zM84 0v556h151v-556h-151z" />
    <glyph glyph-name="uni0457" unicode="&#x457;" horiz-adv-x="319" 
d="M-21 619v137h147v-137h-147zM192 619v137h147v-137h-147zM84 0v556h151v-556h-151z" />
    <glyph glyph-name="uni0452" unicode="&#x452;" horiz-adv-x="637" 
d="M395 574h-164v-122c30 8 73 16 115 16c142 0 226 -65 227 -207v-230c0 -137 -69 -201 -198 -201c-33 0 -53 3 -76 8v119c16 -3 29 -4 45 -4c44 0 74 21 77 75v219c0 62 -33 85 -98 85c-37 0 -63 -6 -92 -15v-317h-152v574h-103v118h103v67h152v-67h164v-118z" />
    <glyph glyph-name="uni0458" unicode="&#x458;" horiz-adv-x="319" 
d="M79 622v136h160v-136h-160zM60 -170c-28 0 -45 2 -67 7v119c13 -2 23 -4 34 -4c33 0 57 19 57 66v538h151v-550c0 -120 -61 -176 -175 -176z" />
    <glyph glyph-name="uni0459" unicode="&#x459;" horiz-adv-x="892" 
d="M385 0v438h-3l-215 -438h-157l274 556h251v-161h97c134 0 224 -69 224 -195v-1c0 -120 -85 -200 -236 -199h-235zM534 123h82c58 0 91 25 91 76v1c0 41 -32 74 -89 73h-84v-150z" />
    <glyph glyph-name="uni045A" unicode="&#x45a;" horiz-adv-x="941" 
d="M584 273v-150h82c57 0 90 25 90 76v1c0 41 -31 74 -88 73h-84zM585 556v-161h96c134 0 224 -69 224 -195v-1c0 -120 -85 -200 -235 -199h-236v210h-206v-210h-152v556h152v-206h206v206h151z" />
    <glyph glyph-name="uni045B" unicode="&#x45b;" horiz-adv-x="637" 
d="M231 759v-67h164v-118h-164v-122c30 8 73 16 115 16c142 0 227 -65 227 -207v-261h-152v247c0 62 -33 85 -98 85c-37 0 -63 -6 -92 -15v-317h-152v574h-103v118h103v67h152z" />
    <glyph glyph-name="uni045F" unicode="&#x45f;" horiz-adv-x="672" 
d="M76 0v556h152v-419h216v419h152v-556h-191v-134h-137v134h-192z" />
    <glyph glyph-name="uni045E" unicode="&#x45e;" horiz-adv-x="631" 
d="M315 617c-108 0 -183 59 -192 162h102c13 -37 38 -63 90 -63s77 26 90 63h102c-9 -103 -84 -162 -192 -162zM319 171l126 385h158l-215 -570c-43 -113 -89 -156 -183 -156c-56 0 -98 15 -138 38l51 110c21 -12 47 -21 69 -21c29 0 44 9 60 41l-221 558h161z" />
    <glyph glyph-name="uni0453" unicode="&#x453;" horiz-adv-x="537" 
d="M227 619l114 181l132 -57l-134 -124h-112zM76 0v556h424v-137h-272v-419h-152z" />
    <glyph glyph-name="uni0455" unicode="&#x455;" horiz-adv-x="530" 
d="M270 -10c-78 0 -165 26 -238 83l66 101c60 -44 124 -67 176 -67c48 0 71 18 71 45v2c0 36 -55 48 -117 67c-79 23 -168 59 -168 166v2c0 112 91 175 203 175c70 0 146 -24 206 -64l-58 -105c-55 32 -110 52 -152 52c-40 0 -62 -18 -62 -42v-2c0 -33 55 -48 116 -69
c78 -25 169 -62 169 -164v-2c0 -122 -92 -178 -212 -178z" />
    <glyph glyph-name="uni045C" unicode="&#x45c;" horiz-adv-x="634" 
d="M270 619l114 181l132 -57l-134 -124h-112zM228 556v-210h43l161 210h185l-228 -272l236 -284h-181l-172 215h-44v-215h-152v556h152z" />
    <glyph glyph-name="uni0450" unicode="&#x450;" horiz-adv-x="644" 
d="M269 619l-134 124l132 57l114 -181h-112zM338 -12c-166 0 -289 117 -289 287v2c0 159 113 289 274 289c184 0 270 -143 270 -301c0 -12 -1 -26 -2 -40h-391c15 -76 67 -115 140 -115c55 0 94 17 138 58l87 -77c-52 -64 -126 -103 -227 -103zM198 320h247
c-10 73 -52 124 -122 124c-68 0 -113 -49 -125 -124z" />
    <glyph glyph-name="uni045D" unicode="&#x45d;" horiz-adv-x="672" 
d="M283 619l-134 124l132 57l114 -181h-112zM76 0v556h151v-316l226 316h143v-556h-151v326l-234 -326h-135z" />
    <glyph glyph-name="uni0493" unicode="&#x493;" horiz-adv-x="558" 
d="M97 0v212h-71v86h71v258h424v-137h-272v-121h129v-86h-129v-212h-152z" />
    <glyph glyph-name="uni0497" unicode="&#x497;" horiz-adv-x="959" 
d="M930 556l-224 -271l121 -148h124v-271h-137v134h-52l-169 216h-47l2 -216h-147l1 216h-47l-168 -216h-177l233 277l-224 279h178l162 -211h43l-1 211h147l-2 -211h46l162 211h176z" />
    <glyph glyph-name="uni0499" unicode="&#x499;" horiz-adv-x="592" 
d="M39 70l75 100c56 -40 117 -60 178 -60c69 0 105 22 105 60v1c0 33 -33 54 -97 53h-119v109h118c57 0 83 19 83 55v1c0 33 -33 56 -92 55c-64 0 -114 -21 -165 -60l-80 94c65 55 143 88 255 88c138 0 229 -64 229 -158v-1c0 -63 -35 -101 -91 -124
c62 -19 106 -58 106 -129v-1c0 -78 -67 -145 -188 -161l6 -126h-142l5 126c-72 9 -130 36 -186 78z" />
    <glyph glyph-name="uni049B" unicode="&#x49b;" horiz-adv-x="638" 
d="M228 556v-210h43l161 210h185l-228 -272l122 -147h117v-271h-137v134h-47l-172 215h-44v-215h-152v556h152z" />
    <glyph glyph-name="uni049D" unicode="&#x49d;" horiz-adv-x="685" 
d="M658 556l-196 -264l197 -292h-169l-141 227h-1l1 -153h-72l1 156h-50v-230h-152v556h152v-211h50l-1 149h72l-1 -149h1l142 211h167z" />
    <glyph glyph-name="uni04A1" unicode="&#x4a1;" horiz-adv-x="751" 
d="M344 556v-210h43l161 210h185l-228 -272l236 -284h-181l-172 215h-44v-215h-152v424h-157v132h309z" />
    <glyph glyph-name="uni04A3" unicode="&#x4a3;" horiz-adv-x="698" 
d="M76 0v556h152v-207h216v207h152v-419h72v-271h-137v134h-87v210h-216v-210h-152z" />
    <glyph glyph-name="uni04A5" unicode="&#x4a5;" horiz-adv-x="884" 
d="M434 0v210h-206v-210h-152v556h152v-206h206v206h413v-137h-262v-419h-151z" />
    <glyph glyph-name="uni04AB" unicode="&#x4ab;" horiz-adv-x="602" 
d="M261 -134l6 131c-130 30 -218 142 -218 278v2c0 158 121 289 291 289c104 0 170 -36 222 -94l-94 -100c-36 38 -72 63 -129 63c-82 0 -140 -71 -140 -156v-2c0 -88 57 -159 146 -159c54 0 92 24 131 61l89 -89c-44 -48 -93 -85 -168 -97l6 -127h-142z" />
    <glyph glyph-name="uni04AF" unicode="&#x4af;" horiz-adv-x="631" 
d="M605 556l-214 -533v-189h-151v189l-214 533h162l128 -369l130 369h159z" />
    <glyph glyph-name="uni04B1" unicode="&#x4b1;" horiz-adv-x="631" 
d="M545 86v-86h-154v-166h-151v166h-154v86h129l-189 470h162l128 -369l130 369h159l-189 -470h129z" />
    <glyph glyph-name="uni04B3" unicode="&#x4b3;" horiz-adv-x="629" 
d="M200 556l108 -167l110 167h159l-189 -271l102 -148h122v-271h-137v134h-53l-117 179l-117 -179h-159l197 283l-189 273h163z" />
    <glyph glyph-name="uni04B7" unicode="&#x4b7;" horiz-adv-x="654" 
d="M400 0v170c-30 -8 -73 -16 -115 -16c-142 0 -226 65 -226 207v195h151v-181c0 -62 33 -85 98 -85c37 0 64 6 92 15v251h152v-419h72v-271h-137v134h-87z" />
    <glyph glyph-name="uni04B9" unicode="&#x4b9;" horiz-adv-x="628" 
d="M400 0v170c-17 -5 -38 -9 -60 -12l1 -110h-73l1 106c-131 5 -210 69 -210 207v195h151v-180c0 -49 20 -74 59 -83l-1 138h73l-1 -140c22 3 41 8 60 14v251h152v-556h-152z" />
    <glyph glyph-name="uni04BB" unicode="&#x4bb;" horiz-adv-x="655" 
d="M76 0v759h152v-283c36 47 84 90 165 90c120 0 191 -79 191 -207v-359h-152v311c0 77 -37 118 -100 118s-104 -41 -104 -118v-311h-152z" />
    <glyph glyph-name="uni04CF" unicode="&#x4cf;" horiz-adv-x="319" 
d="M84 0v759h151v-759h-151z" />
    <glyph glyph-name="uni04C2" unicode="&#x4c2;" horiz-adv-x="949" 
d="M474 617c-108 0 -183 59 -192 162h102c13 -37 38 -63 90 -63s77 26 90 63h102c-9 -103 -84 -162 -192 -162zM548 556l-2 -211h46l162 211h176l-224 -271l233 -285h-177l-169 216h-47l2 -216h-147l1 216h-47l-168 -216h-177l233 277l-224 279h178l162 -211h43l-1 211h147z
" />
    <glyph glyph-name="uni04D1" unicode="&#x4d1;" horiz-adv-x="623" 
d="M313 617c-108 0 -183 59 -192 162h102c13 -37 38 -63 90 -63s77 26 90 63h102c-9 -103 -84 -162 -192 -162zM280 95c76 0 128 42 128 102v30c-28 12 -65 21 -106 21c-70 0 -113 -29 -113 -80v-2c0 -45 38 -71 91 -71zM235 -11c-105 0 -193 61 -193 171v2
c0 121 93 177 225 177c58 0 99 -9 139 -22v10c0 68 -42 105 -123 105c-60 0 -104 -12 -155 -31l-38 116c61 27 122 45 215 45c85 0 147 -23 187 -62c41 -41 60 -102 60 -176v-324h-147v62c-38 -43 -92 -73 -170 -73z" />
    <glyph glyph-name="uni04D3" unicode="&#x4d3;" horiz-adv-x="623" 
d="M133 619v137h147v-137h-147zM346 619v137h147v-137h-147zM280 95c76 0 128 42 128 102v30c-28 12 -65 21 -106 21c-70 0 -113 -29 -113 -80v-2c0 -45 38 -71 91 -71zM235 -11c-105 0 -193 61 -193 171v2c0 121 93 177 225 177c58 0 99 -9 139 -22v10
c0 68 -42 105 -123 105c-60 0 -104 -12 -155 -31l-38 116c61 27 122 45 215 45c85 0 147 -23 187 -62c41 -41 60 -102 60 -176v-324h-147v62c-38 -43 -92 -73 -170 -73z" />
    <glyph glyph-name="uni04D5" unicode="&#x4d5;" horiz-adv-x="997" 
d="M551 320h247c-9 73 -52 124 -122 124c-68 0 -113 -49 -125 -124zM252 -11c-119 0 -210 63 -210 171v2c0 121 93 177 225 177c57 0 98 -9 138 -22v10c0 68 -42 105 -122 105c-61 0 -104 -12 -155 -31l-38 116c61 28 121 45 214 45s154 -26 190 -74c46 49 109 78 186 78
c179 0 266 -143 266 -301c0 -12 -1 -26 -2 -40h-391c15 -76 68 -115 141 -115c54 0 94 17 138 58l87 -77c-52 -64 -127 -103 -227 -103c-86 0 -161 31 -213 86c-63 -48 -138 -85 -227 -85zM279 97c50 0 100 18 147 56c-10 23 -17 48 -20 75c-28 11 -65 20 -104 20
c-70 0 -113 -29 -113 -80v-2c0 -43 41 -69 90 -69z" />
    <glyph glyph-name="uni04D7" unicode="&#x4d7;" horiz-adv-x="644" 
d="M321 617c-108 0 -183 59 -192 162h102c13 -37 38 -63 90 -63s77 26 90 63h102c-9 -103 -84 -162 -192 -162zM338 -12c-166 0 -289 117 -289 287v2c0 159 113 289 274 289c184 0 270 -143 270 -301c0 -12 -1 -26 -2 -40h-391c15 -76 67 -115 140 -115c55 0 94 17 138 58
l87 -77c-52 -64 -126 -103 -227 -103zM198 320h247c-10 73 -52 124 -122 124c-68 0 -113 -49 -125 -124z" />
    <glyph glyph-name="uni04D9" unicode="&#x4d9;" horiz-adv-x="644" 
d="M306 568c165 0 289 -117 289 -287v-2c0 -159 -113 -290 -274 -290c-184 0 -270 144 -270 302c0 12 1 26 2 40h391c-15 75 -68 115 -140 115c-55 0 -95 -18 -138 -59l-88 78c53 64 127 103 228 103zM446 235h-247c9 -73 52 -123 122 -123c68 0 113 49 125 123z" />
    <glyph glyph-name="uni04DD" unicode="&#x4dd;" horiz-adv-x="949" 
d="M294 619v137h147v-137h-147zM507 619v137h147v-137h-147zM548 556l-2 -211h46l162 211h176l-224 -271l233 -285h-177l-169 216h-47l2 -216h-147l1 216h-47l-168 -216h-177l233 277l-224 279h178l162 -211h43l-1 211h147z" />
    <glyph glyph-name="uni04DF" unicode="&#x4df;" horiz-adv-x="592" 
d="M117 619v137h147v-137h-147zM330 619v137h147v-137h-147zM39 70l75 100c56 -40 117 -60 178 -60c69 0 105 22 105 60v1c0 33 -33 54 -97 53h-119v109h118c57 0 83 19 83 55v1c0 33 -33 56 -92 55c-64 0 -114 -21 -165 -60l-80 94c65 55 143 88 255 88
c138 0 229 -64 229 -158v-1c0 -63 -35 -101 -91 -124c62 -19 106 -58 106 -129v-1c0 -90 -91 -166 -251 -165c-106 0 -182 28 -254 82z" />
    <glyph glyph-name="uni04E3" unicode="&#x4e3;" horiz-adv-x="672" 
d="M151 625v106h370v-106h-370zM76 0v556h151v-316l226 316h143v-556h-151v326l-234 -326h-135z" />
    <glyph glyph-name="uni04E5" unicode="&#x4e5;" horiz-adv-x="672" 
d="M156 619v137h147v-137h-147zM369 619v137h147v-137h-147zM76 0v556h151v-316l226 316h143v-556h-151v326l-234 -326h-135z" />
    <glyph glyph-name="uni04E7" unicode="&#x4e7;" horiz-adv-x="697" 
d="M169 619v137h147v-137h-147zM382 619v137h147v-137h-147zM347 -12c-171 0 -298 127 -298 287v2c0 159 128 289 301 289c171 0 298 -128 298 -287v-2c0 -160 -128 -289 -301 -289zM350 118c92 0 148 72 148 157v2c0 85 -61 158 -151 158c-92 0 -148 -71 -148 -156v-2
c0 -85 61 -159 151 -159z" />
    <glyph glyph-name="uni04E9" unicode="&#x4e9;" horiz-adv-x="691" 
d="M345 -12c-169 0 -296 127 -296 287v2c0 159 128 289 298 289c168 0 296 -128 296 -287v-2c0 -160 -129 -289 -298 -289zM345 445c-77 0 -133 -44 -151 -111h301c-20 67 -77 111 -150 111zM347 109c77 0 132 44 150 112h-302c19 -68 78 -112 152 -112z" />
    <glyph glyph-name="uni04EF" unicode="&#x4ef;" horiz-adv-x="631" 
d="M130 625v106h370v-106h-370zM319 171l126 385h158l-215 -570c-43 -113 -89 -156 -183 -156c-56 0 -98 15 -138 38l51 110c21 -12 47 -21 69 -21c29 0 44 9 60 41l-221 558h161z" />
    <glyph glyph-name="uni04F1" unicode="&#x4f1;" horiz-adv-x="631" 
d="M135 619v137h147v-137h-147zM348 619v137h147v-137h-147zM319 171l126 385h158l-215 -570c-43 -113 -89 -156 -183 -156c-56 0 -98 15 -138 38l51 110c21 -12 47 -21 69 -21c29 0 44 9 60 41l-221 558h161z" />
    <glyph glyph-name="uni04F3" unicode="&#x4f3;" horiz-adv-x="631" 
d="M154 619l112 181l129 -57l-134 -124h-107zM343 619l114 181l129 -57l-135 -124h-108zM319 171l126 385h158l-215 -570c-43 -113 -89 -156 -183 -156c-56 0 -98 15 -138 38l51 110c21 -12 47 -21 69 -21c29 0 44 9 60 41l-221 558h161z" />
    <glyph glyph-name="uni04F5" unicode="&#x4f5;" horiz-adv-x="628" 
d="M125 619v137h147v-137h-147zM338 619v137h147v-137h-147zM400 0v170c-30 -8 -73 -16 -115 -16c-142 0 -226 65 -226 207v195h151v-181c0 -62 33 -85 98 -85c37 0 64 6 92 15v251h152v-556h-152z" />
    <glyph glyph-name="uni04F9" unicode="&#x4f9;" horiz-adv-x="866" 
d="M253 619v137h147v-137h-147zM466 619v137h147v-137h-147zM638 0v556h152v-556h-152zM227 556v-161h107c134 0 224 -69 224 -195v-1c0 -120 -85 -200 -236 -199h-246v556h151zM226 273v-150h92c57 0 91 25 91 76v1c0 41 -32 74 -89 73h-94z" />
    <glyph glyph-name="zero" unicode="0" horiz-adv-x="766" 
d="M382 -12c-194 0 -321 163 -321 374v2c0 210 130 376 323 376c192 0 321 -163 321 -374v-2c0 -210 -129 -376 -323 -376zM384 126c100 0 163 102 163 236v2c0 134 -66 238 -165 238s-163 -101 -163 -236v-2c0 -135 65 -238 165 -238z" />
    <glyph glyph-name="one" unicode="1" horiz-adv-x="441" 
d="M189 0v577l-128 -32l-32 126l207 62h105v-733h-152z" />
    <glyph glyph-name="two" unicode="2" horiz-adv-x="654" 
d="M55 0v122l244 201c92 77 128 118 128 179c0 64 -43 99 -102 99c-58 0 -98 -33 -152 -100l-108 86c71 98 140 151 270 151c149 0 249 -88 249 -223v-2c0 -120 -62 -181 -191 -282l-125 -98h323v-133h-536z" />
    <glyph glyph-name="three" unicode="3" horiz-adv-x="653" 
d="M327 -12c-130 0 -220 52 -282 126l106 100c50 -57 103 -89 178 -89c63 0 108 37 108 93v2c0 62 -56 97 -147 97h-65l-25 97l179 182h-292v132h490v-116l-188 -182c101 -16 199 -69 199 -204v-2c0 -137 -101 -236 -261 -236z" />
    <glyph glyph-name="three.alt" horiz-adv-x="646" 
d="M330 -12c-120 0 -218 48 -287 124l103 100c49 -53 107 -87 186 -87c71 0 112 35 112 90v2c0 56 -53 86 -142 86h-80v128h84c76 0 118 37 118 88v2c0 48 -40 82 -109 82c-63 0 -107 -35 -152 -86l-106 89c65 82 136 134 260 134c156 0 258 -81 258 -195v-2
c0 -88 -41 -138 -98 -169c68 -29 118 -73 118 -159v-2c0 -128 -96 -225 -265 -225z" />
    <glyph glyph-name="four" unicode="4" horiz-adv-x="723" 
d="M421 0v158h-358l-26 109l401 466h130v-450h99v-125h-99v-158h-147zM218 283h203v239z" />
    <glyph glyph-name="five" unicode="5" horiz-adv-x="662" 
d="M321 -12c-115 0 -201 42 -271 109l93 111c56 -51 111 -81 176 -81c77 0 126 39 126 106v2c0 65 -54 103 -133 103c-47 0 -89 -13 -124 -28l-90 60l21 358h445v-135h-313l-9 -135c30 8 58 14 100 14c141 0 254 -70 254 -232v-2c0 -153 -109 -250 -275 -250z" />
    <glyph glyph-name="six" unicode="6" horiz-adv-x="695" 
d="M356 -12c-93 0 -158 27 -209 77c-53 54 -86 131 -86 276v2c0 225 103 397 318 397c98 0 162 -29 226 -80l-81 -119c-48 38 -88 60 -150 60c-115 0 -148 -113 -153 -183h1c38 31 87 54 155 54c144 0 255 -81 255 -231v-3c0 -148 -119 -250 -276 -250zM350 119
c82 0 129 48 129 112v3c0 63 -49 110 -131 110c-81 0 -129 -47 -129 -110v-2c0 -64 50 -113 131 -113z" />
    <glyph glyph-name="seven" unicode="7" horiz-adv-x="650" 
d="M96 0l326 595h-347v133h521v-116l-326 -612h-174z" />
    <glyph glyph-name="eight" unicode="8" horiz-adv-x="663" 
d="M332 -10c-161 0 -281 83 -281 209v2c0 89 43 141 121 176c-58 34 -96 82 -96 160v2c0 112 103 199 256 199c152 0 255 -86 255 -199v-2c0 -78 -38 -126 -95 -160c75 -38 120 -85 120 -172v-2c0 -134 -120 -213 -280 -213zM332 429c65 0 109 38 109 92v2
c0 47 -41 88 -109 88s-110 -40 -110 -87v-2c0 -54 44 -93 110 -93zM332 117c82 0 131 41 131 94v2c0 58 -56 93 -131 93c-76 0 -132 -35 -132 -93v-2c0 -52 49 -94 132 -94z" />
    <glyph glyph-name="nine" unicode="9" horiz-adv-x="695" 
d="M347 378c82 0 129 49 129 113v2c0 67 -50 116 -132 116s-128 -49 -128 -116v-2c0 -67 50 -113 131 -113zM321 127c116 0 150 112 154 179h-1c-36 -35 -87 -56 -152 -56c-157 0 -259 88 -259 234v2c0 146 113 254 276 254c97 0 154 -24 209 -78c52 -52 86 -132 86 -275v-2
c0 -236 -112 -397 -316 -397c-106 0 -177 35 -238 86l81 117c53 -43 99 -64 160 -64z" />
    <glyph glyph-name="period" unicode="." horiz-adv-x="302" 
d="M70 0v162h162v-162h-162z" />
    <glyph glyph-name="comma" unicode="," horiz-adv-x="302" 
d="M46 -165l-13 63c70 8 104 44 99 102h-62v162h162v-137c0 -133 -66 -187 -186 -190z" />
    <glyph glyph-name="colon" unicode=":" horiz-adv-x="312" 
d="M75 394v162h162v-162h-162zM75 0v162h162v-162h-162z" />
    <glyph glyph-name="semicolon" unicode=";" horiz-adv-x="312" 
d="M75 394v162h162v-162h-162zM51 -165l-13 63c70 8 104 44 99 102h-62v162h162v-137c0 -133 -66 -187 -186 -190z" />
    <glyph glyph-name="ellipsis" unicode="&#x2026;" horiz-adv-x="872" 
d="M70 0v158h158v-158h-158zM357 0v158h158v-158h-158zM643 0v158h159v-158h-159z" />
    <glyph glyph-name="periodcentered" unicode="&#xb7;" horiz-adv-x="302" 
d="M70 241v161h162v-161h-162z" />
    <glyph glyph-name="ampersand" unicode="&#x26;" horiz-adv-x="732" 
d="M585 -15l-86 88c-60 -50 -131 -83 -216 -83c-138 0 -243 81 -243 209v2c0 93 51 159 145 201c-37 50 -53 96 -53 147v2c0 99 80 189 218 189c122 0 203 -80 203 -181v-2c0 -97 -63 -155 -155 -190l103 -103c24 38 49 82 72 128l113 -62c-28 -52 -60 -107 -96 -156
l108 -109zM318 448c66 24 100 53 100 100v2c0 43 -29 70 -71 70c-45 0 -74 -31 -74 -76v-2c0 -33 13 -58 45 -94zM301 116c39 0 77 17 112 46l-144 146c-52 -26 -74 -63 -74 -101v-2c0 -53 44 -89 106 -89z" />
    <glyph glyph-name="exclam" unicode="!" horiz-adv-x="340" 
d="M128 244l-47 460v24h178v-24l-47 -460h-84zM89 0v162h162v-162h-162z" />
    <glyph glyph-name="exclamdown" unicode="&#xa1;" horiz-adv-x="340" 
d="M89 566v162h162v-162h-162zM81 0v24l47 460h84l47 -460v-24h-178z" />
    <glyph glyph-name="question" unicode="?" horiz-adv-x="573" 
d="M211 244l-23 169l5 5c131 5 184 41 184 99v2c0 49 -37 79 -100 79c-60 0 -111 -25 -159 -74l-92 100c60 67 140 113 254 113c149 0 250 -77 250 -214v-2c0 -132 -92 -187 -206 -209l-11 -68h-102zM178 0v162h162v-162h-162z" />
    <glyph glyph-name="questiondown" unicode="&#xbf;" horiz-adv-x="573" 
d="M233 566v162h163v-162h-163zM294 -9c-149 0 -251 77 -251 214v2c0 132 92 187 206 209l12 68h101l24 -169l-6 -5c-131 -5 -184 -41 -184 -99v-2c0 -49 38 -79 101 -79c59 0 110 25 158 74l92 -100c-60 -67 -140 -113 -253 -113z" />
    <glyph glyph-name="quotedblleft" unicode="&#x201c;" horiz-adv-x="561" 
d="M65 406v137c0 133 65 187 186 190l13 -63c-70 -8 -104 -44 -99 -102h62v-162h-162zM324 406v137c0 133 66 187 186 190l14 -63c-71 -8 -105 -44 -100 -102h63v-162h-163z" />
    <glyph glyph-name="quotedblright" unicode="&#x201d;" horiz-adv-x="561" 
d="M51 401l-13 63c70 9 104 44 99 102h-62v162h162v-137c0 -133 -66 -186 -186 -190zM311 401l-14 63c71 9 105 44 100 102h-63v162h163v-137c0 -133 -66 -186 -186 -190z" />
    <glyph glyph-name="quoteleft" unicode="&#x2018;" horiz-adv-x="302" 
d="M65 406v137c0 133 65 187 186 190l13 -63c-70 -8 -104 -44 -99 -102h62v-162h-162z" />
    <glyph glyph-name="quoteright" unicode="&#x2019;" horiz-adv-x="302" 
d="M51 401l-13 63c70 9 104 44 99 102h-62v162h162v-137c0 -133 -66 -186 -186 -190z" />
    <glyph glyph-name="quotedblbase" unicode="&#x201e;" horiz-adv-x="561" 
d="M46 -165l-13 63c70 8 104 44 99 102h-62v162h162v-137c0 -133 -66 -187 -186 -190zM306 -165l-14 63c70 8 105 44 100 102h-63v162h163v-137c0 -133 -66 -187 -186 -190z" />
    <glyph glyph-name="quotesinglbase" unicode="&#x201a;" horiz-adv-x="302" 
d="M46 -165l-13 63c70 8 104 44 99 102h-62v162h162v-137c0 -133 -66 -187 -186 -190z" />
    <glyph glyph-name="guillemotleft" unicode="&#xab;" horiz-adv-x="671" 
d="M231 44l-184 230v8l184 230l106 -52l-126 -181l126 -181zM510 44l-184 230v8l184 230l106 -52l-126 -181l126 -181z" />
    <glyph glyph-name="guillemotright" unicode="&#xbb;" horiz-adv-x="671" 
d="M161 44l-106 52l126 181l-126 181l106 54l184 -230v-8zM439 44l-106 52l126 181l-126 181l106 54l184 -230v-8z" />
    <glyph glyph-name="guilsinglleft" unicode="&#x2039;" horiz-adv-x="392" 
d="M231 44l-184 230v8l184 230l106 -52l-126 -181l126 -181z" />
    <glyph glyph-name="guilsinglright" unicode="&#x203a;" horiz-adv-x="392" 
d="M161 44l-106 52l126 181l-126 181l106 54l184 -230v-8z" />
    <glyph glyph-name="hyphen" unicode="-" horiz-adv-x="432" 
d="M57 248v147h318v-147h-318z" />
    <glyph glyph-name="endash" unicode="&#x2013;" horiz-adv-x="557" 
d="M57 251v142h443v-142h-443z" />
    <glyph glyph-name="emdash" unicode="&#x2014;" horiz-adv-x="942" 
d="M57 251v142h828v-142h-828z" />
    <glyph glyph-name="underscore" unicode="_" horiz-adv-x="632" 
d="M2 -166v116h628v-116h-628z" />
    <glyph glyph-name="slash" unicode="/" horiz-adv-x="557" 
d="M-24 -133l462 963h129l-462 -963h-129z" />
    <glyph glyph-name="backslash" unicode="\" horiz-adv-x="557" 
d="M453 -133l-463 963h129l463 -963h-129z" />
    <glyph glyph-name="bar" unicode="|" horiz-adv-x="368" 
d="M124 -133v963h120v-963h-120z" />
    <glyph glyph-name="parenleft" unicode="(" horiz-adv-x="470" 
d="M354 -147c-191 104 -288 246 -288 445v1c0 197 97 342 288 445l67 -101c-142 -98 -204 -196 -204 -345v-1c0 -146 62 -246 204 -343z" />
    <glyph glyph-name="parenright" unicode=")" horiz-adv-x="470" 
d="M116 -147l-67 101c142 98 204 196 204 344v1c0 147 -62 247 -204 344l67 101c191 -104 288 -247 288 -446v-1c0 -197 -97 -341 -288 -444z" />
    <glyph glyph-name="bracketleft" unicode="[" horiz-adv-x="489" 
d="M91 -135v863h333v-119h-187v-625h187v-119h-333z" />
    <glyph glyph-name="bracketright" unicode="]" horiz-adv-x="489" 
d="M65 -135v119h188v625h-188v119h333v-863h-333z" />
    <glyph glyph-name="braceleft" unicode="{" horiz-adv-x="517" 
d="M437 -147c-190 34 -242 100 -242 207c0 15 3 54 3 72c0 81 -33 109 -115 109h-27v115h27c82 0 115 28 115 109c0 18 -3 57 -3 72c0 107 52 173 242 207l26 -101c-113 -32 -129 -62 -129 -128c0 -20 3 -55 3 -77c0 -76 -39 -117 -109 -140c70 -22 109 -63 109 -140
c0 -21 -3 -56 -3 -77c0 -65 16 -95 129 -127z" />
    <glyph glyph-name="braceright" unicode="}" horiz-adv-x="517" 
d="M80 -147l-26 101c113 32 129 62 129 127c0 21 -3 56 -3 77c0 77 39 118 109 140c-70 23 -109 64 -109 140c0 22 3 57 3 77c0 66 -16 96 -129 128l26 101c190 -34 242 -100 242 -207c0 -15 -3 -54 -3 -72c0 -81 33 -109 115 -109h27v-115h-27c-82 0 -115 -28 -115 -109
c0 -18 3 -57 3 -72c0 -107 -52 -173 -242 -207z" />
    <glyph glyph-name="at" unicode="@" horiz-adv-x="1027" 
d="M523 -168c-266 0 -464 204 -464 453s201 455 456 455c254 0 453 -198 453 -411c0 -174 -93 -261 -206 -261c-83 0 -132 33 -158 65c-36 -34 -87 -65 -155 -65c-106 0 -190 77 -190 200c0 147 112 261 233 261c73 0 116 -32 145 -72l11 56l119 -19l-49 -276
c-2 -12 -3 -26 -3 -35c0 -38 28 -67 77 -67c74 0 133 74 133 213c0 192 -176 370 -410 370c-236 0 -413 -186 -413 -414c0 -229 175 -412 421 -412c103 0 177 24 255 69l21 -32c-81 -49 -168 -78 -276 -78zM483 172c31 0 60 13 82 35c28 28 46 70 46 118
c0 60 -42 100 -99 100c-31 0 -60 -13 -84 -36c-28 -28 -45 -67 -45 -114c0 -66 42 -103 100 -103z" />
    <glyph glyph-name="copyright" unicode="&#xa9;" horiz-adv-x="871" 
d="M435 -12c-212 0 -376 169 -376 374v2c0 205 167 376 378 376s375 -169 375 -374v-2c0 -205 -166 -376 -377 -376zM435 28c190 0 334 152 334 336v2c0 185 -143 334 -332 334c-191 0 -335 -152 -335 -336v-2c0 -185 143 -334 333 -334zM440 163c-117 0 -204 90 -204 204v2
c0 113 85 207 207 207c75 0 120 -25 157 -62l-55 -64c-31 27 -63 45 -102 45c-68 0 -116 -56 -116 -125v-2c0 -67 47 -124 116 -124c45 0 72 18 104 47l56 -57c-41 -44 -87 -71 -163 -71z" />
    <glyph glyph-name="published" unicode="&#x2117;" horiz-adv-x="871" 
d="M435 -12c-212 0 -376 169 -376 374v2c0 205 167 376 378 376s375 -169 375 -374v-2c0 -205 -166 -376 -377 -376zM435 28c190 0 334 152 334 336v2c0 185 -143 334 -332 334c-191 0 -335 -152 -335 -336v-2c0 -185 143 -334 333 -334zM298 171v399h163
c96 0 154 -55 154 -137v-2c0 -91 -73 -138 -162 -138h-68v-122h-87zM385 369h70c45 0 72 26 72 61v2c0 40 -29 62 -74 62h-68v-125z" />
    <glyph glyph-name="registered.alt" horiz-adv-x="871" 
d="M435 -12c-212 0 -376 169 -376 374v2c0 205 167 376 378 376s375 -169 375 -374v-2c0 -205 -166 -376 -377 -376zM435 28c190 0 334 152 334 336v2c0 185 -143 334 -332 334c-191 0 -335 -152 -335 -336v-2c0 -185 143 -334 333 -334zM367 380h90c46 0 71 24 71 58v2
c0 38 -28 59 -72 59h-89v-119zM281 175v399h178c53 0 95 -15 123 -43c21 -21 33 -51 33 -86v-2c0 -65 -36 -105 -88 -123l100 -145h-100l-88 131h-72v-131h-86z" />
    <glyph glyph-name="registered" unicode="&#xae;" horiz-adv-x="394" 
d="M197 374c-102 0 -181 83 -181 181v1c0 99 80 182 181 182c102 0 181 -82 181 -181v-1c0 -98 -80 -182 -181 -182zM197 394c90 0 160 74 160 162v1c0 89 -69 162 -160 162s-160 -74 -160 -163v-1c0 -88 68 -161 160 -161zM171 563h35c19 0 30 10 30 24v1
c0 13 -11 23 -30 22h-35v-47zM119 464v191h90c47 0 80 -20 80 -64v-1c0 -28 -16 -51 -40 -59l46 -67h-61l-39 58h-24v-58h-52z" />
    <glyph glyph-name="servicemark" unicode="&#x2120;" horiz-adv-x="739" 
d="M376 408v320h75l86 -139l87 139h73v-320h-67v218l-91 -143h-6l-90 143v-218h-67zM180 402c-52 0 -108 20 -147 52l38 47c32 -25 70 -44 113 -44c37 0 58 14 58 36c0 21 -16 31 -73 45c-69 16 -119 35 -119 96c0 59 46 100 121 100c51 0 97 -16 128 -43l-36 -49
c-28 20 -60 34 -94 34c-35 0 -52 -15 -52 -34c0 -22 18 -32 74 -45c69 -15 117 -39 117 -96c0 -62 -51 -99 -128 -99z" />
    <glyph glyph-name="trademark" unicode="&#x2122;" horiz-adv-x="726" 
d="M127 408v257h-96v63h263v-63h-96v-257h-71zM362 408v320h75l86 -139l87 139h73v-320h-67v218l-91 -143h-6l-90 143v-218h-67z" />
    <glyph glyph-name="asterisk" unicode="*" horiz-adv-x="455" 
d="M186 389l16 125l-101 -77l-42 73l116 50l-116 49l42 73l101 -77l-16 125h83l-16 -125l101 77l43 -73l-117 -49l117 -50l-43 -73l-101 77l16 -125h-83z" />
    <glyph glyph-name="dagger" unicode="&#x2020;" horiz-adv-x="434" 
d="M175 248l10 281l-125 -10v84l124 -10l-13 135h93l-13 -135l124 10v-84l-125 10l10 -281h-85z" />
    <glyph glyph-name="daggerdbl" unicode="&#x2021;" horiz-adv-x="455" 
d="M181 0l13 135l-124 -10v84l124 -10l-9 165l9 165l-124 -10v84l124 -10l-13 135h93l-13 -135l124 10v-84l-124 10l9 -165l-9 -165l124 10v-84l-124 10l13 -135h-93z" />
    <glyph glyph-name="bullet" unicode="&#x2022;" horiz-adv-x="526" 
d="M263 213c-84 0 -153 68 -153 152v2c0 85 69 152 153 152s153 -67 153 -152v-2c0 -84 -69 -152 -153 -152z" />
    <glyph glyph-name="dollar" unicode="$" horiz-adv-x="679" 
d="M224 532c0 -34 15 -57 77 -79v150c-54 -7 -77 -33 -77 -69v-2zM476 199c0 37 -19 60 -80 81v-154c52 7 80 31 80 71v2zM595 648l-68 -116c-42 28 -87 50 -131 62v-166c158 -42 226 -105 226 -221v-2c0 -116 -89 -190 -221 -204v-103h-105v105c-90 11 -177 47 -245 100
l78 113c57 -43 110 -73 172 -85v173c-150 40 -223 97 -223 219v2c0 114 87 190 218 203v60h105v-62c74 -10 137 -38 194 -78z" />
    <glyph glyph-name="sterling" unicode="&#xa3;" horiz-adv-x="678" 
d="M67 0v100l80 26v154h-80v127h80v87c0 75 22 137 62 178c43 43 104 66 183 66c117 0 183 -51 233 -119l-117 -93c-36 46 -67 70 -114 70c-27 0 -47 -8 -63 -25c-18 -17 -29 -46 -29 -81v-83h242v-127h-242v-147h321v-133h-556z" />
    <glyph glyph-name="Euro" unicode="&#x20ac;" horiz-adv-x="757" 
d="M710 607l-116 -88c-40 55 -80 85 -143 85c-64 0 -112 -37 -138 -99h199v-102h-222c-1 -13 -1 -25 -1 -38v-1c0 -12 0 -24 1 -35h222v-102h-200c27 -65 77 -104 146 -103c62 0 98 31 144 88l110 -80c-61 -87 -135 -144 -254 -144c-158 0 -266 96 -307 239h-95v102h78
c-1 11 -1 23 -1 34v1c0 12 0 26 1 39h-78v102h97c43 137 149 236 302 235c128 0 200 -56 255 -133z" />
    <glyph glyph-name="yen" unicode="&#xa5;" horiz-adv-x="721" 
d="M94 273v108h152l-226 347h177l165 -276l168 276h172l-227 -347h153v-108h-193v-67h193v-108h-193v-98h-148v98h-193v108h193v67h-193z" />
    <glyph glyph-name="cent" unicode="&#xa2;" horiz-adv-x="612" 
d="M201 369c0 -62 25 -113 70 -139l58 297h-1c-73 -5 -128 -74 -127 -156v-2zM470 734l-18 -92c43 -14 82 -39 115 -77l-90 -97c-19 18 -37 32 -55 41l-59 -297h1c44 4 83 27 117 60l86 -87c-55 -61 -122 -104 -224 -105h-1l-17 -86h-104l20 103c-109 39 -187 145 -187 270
v2c0 160 122 290 290 290h6l15 75h105z" />
    <glyph glyph-name="numbersign" unicode="#" horiz-adv-x="736" 
d="M301 450l-28 -168h161l28 168h-161zM658 286v-128h-117l-27 -158h-132l27 158h-154l-27 -158h-132l27 158h-82v128h104l27 160h-94v128h116l27 154h132l-27 -154h154l27 154h132l-27 -154h83v-128h-105l-27 -160h95z" />
    <glyph glyph-name="paragraph" unicode="&#xb6;" horiz-adv-x="615" 
d="M369 0v242h-24c-174 0 -303 81 -303 241v2c0 152 116 243 286 243h195v-728h-154z" />
    <glyph glyph-name="section" unicode="&#xa7;" horiz-adv-x="665" 
d="M408 298c36 0 62 18 62 48v2c0 28 -33 45 -108 63c-54 14 -83 19 -105 19c-35 0 -62 -18 -62 -48v-2c0 -28 33 -45 109 -63c53 -14 82 -19 104 -19zM507 247c30 -22 47 -59 47 -96v-2c0 -97 -78 -159 -212 -159c-105 0 -184 35 -242 98l83 83c48 -44 97 -70 156 -70
c49 0 71 17 71 40v2c0 25 -24 40 -119 61c-163 36 -229 77 -229 154v2c0 69 44 103 96 121c-32 24 -46 60 -46 96v2c0 98 79 159 211 159c105 0 184 -35 242 -98l-83 -83c-47 44 -97 70 -155 70c-46 0 -72 -16 -72 -40v-2c0 -23 17 -38 119 -61c164 -36 229 -75 229 -154v-2
c0 -68 -43 -103 -96 -121z" />
    <glyph glyph-name="ordfeminine" unicode="&#xaa;" horiz-adv-x="414" 
d="M189 475c41 0 71 23 71 55v17c-17 6 -36 11 -59 11c-37 0 -60 -15 -60 -43v-2c0 -23 19 -38 48 -38zM164 416c-58 0 -105 33 -105 93v2c0 67 51 98 124 98c31 0 54 -5 76 -12v5c0 36 -24 57 -68 57c-33 0 -57 -6 -85 -17l-21 64c34 16 66 25 118 25c47 0 81 -12 103 -34
c23 -23 33 -57 33 -97v-178h-81v34c-21 -25 -51 -40 -94 -40zM56 289v67h287v-67h-287z" />
    <glyph glyph-name="ordmasculine" unicode="&#xba;" horiz-adv-x="414" 
d="M206 415c-91 0 -159 69 -159 157v2c0 88 70 159 161 159s158 -69 158 -157v-3c0 -88 -69 -158 -160 -158zM208 488c47 0 75 39 75 84v2c0 46 -31 86 -77 86c-47 0 -76 -39 -76 -84v-3c0 -45 31 -85 78 -85zM57 289v67h300v-67h-300z" />
    <glyph glyph-name="degree" unicode="&#xb0;" horiz-adv-x="505" 
d="M253 385c-94 0 -179 80 -179 174v2c0 94 85 173 179 173s178 -79 178 -173v-2c0 -94 -84 -174 -178 -174zM253 462c55 0 96 45 96 97v2c0 52 -41 97 -96 97c-56 0 -97 -45 -97 -97v-2c0 -52 41 -97 97 -97z" />
    <glyph glyph-name="percent" unicode="%" horiz-adv-x="900" 
d="M226 364c-104 0 -175 82 -175 184v2c0 103 72 186 177 186s175 -82 175 -184v-2c0 -102 -71 -186 -177 -186zM415 391l241 337h120l-291 -391l-241 -337h-120zM226 645c-45 0 -69 -43 -69 -93v-2c0 -51 29 -94 71 -94c45 0 69 43 69 92v2c0 51 -28 95 -71 95zM672 -8
c-105 0 -175 82 -175 184v2c0 102 71 186 177 186c104 0 175 -83 175 -184v-2c0 -102 -72 -186 -177 -186zM674 83c45 0 69 44 69 93v2c0 51 -29 94 -71 94c-45 0 -69 -43 -69 -92v-2c0 -51 28 -95 71 -95z" />
    <glyph glyph-name="perthousand" unicode="&#x2030;" horiz-adv-x="1295" 
d="M226 364c-104 0 -175 82 -175 184v2c0 103 72 186 177 186s175 -82 175 -184v-2c0 -102 -71 -186 -177 -186zM776 728l-291 -391l-241 -337h-120l291 391l241 337h120zM228 456c45 0 69 43 69 92v2c0 51 -28 95 -71 95c-45 0 -69 -43 -69 -93v-2c0 -51 29 -94 71 -94z
M1067 -8c-105 0 -175 82 -175 184v2c0 102 71 186 177 186c104 0 175 -83 175 -184v-2c0 -102 -72 -186 -177 -186zM672 -8c-105 0 -175 82 -175 184v2c0 102 71 186 177 186c104 0 175 -83 175 -184v-2c0 -102 -72 -186 -177 -186zM1069 83c45 0 69 44 69 93v2
c0 51 -29 94 -71 94c-45 0 -69 -43 -69 -92v-2c0 -51 28 -95 71 -95zM674 83c45 0 69 44 69 93v2c0 51 -29 94 -71 94c-45 0 -69 -43 -69 -92v-2c0 -51 28 -95 71 -95z" />
    <glyph glyph-name="quotedbl" unicode="&#x22;" horiz-adv-x="542" 
d="M64 400l20 328h168v-5l-111 -323h-77zM306 400l20 328h168v-5l-111 -323h-77z" />
    <glyph glyph-name="quotesingle" unicode="'" horiz-adv-x="302" 
d="M64 400l20 328h170v-5l-111 -323h-79z" />
    <glyph glyph-name="plus" unicode="+" horiz-adv-x="672" 
d="M265 108v189h-190v138h190v189h142v-189h191v-138h-191v-189h-142z" />
    <glyph glyph-name="minus" unicode="&#x2212;" horiz-adv-x="672" 
d="M598 296h-523v140h523v-140z" />
    <glyph glyph-name="divide" unicode="&#xf7;" horiz-adv-x="672" 
d="M257 515v146h158v-146h-158zM598 302h-523v128h523v-128zM257 71v146h158v-146h-158z" />
    <glyph glyph-name="equal" unicode="=" horiz-adv-x="672" 
d="M81 431v138h511v-138h-511zM81 163v138h511v-138h-511z" />
    <glyph glyph-name="multiply" unicode="&#xd7;" horiz-adv-x="672" 
d="M498 109l-163 167l-163 -167l-93 93l167 163l-167 163l95 95l163 -167l163 167l93 -93l-167 -163l167 -163z" />
    <glyph glyph-name="less" unicode="&#x3c;" horiz-adv-x="672" 
d="M577 75l-503 222v138l503 222v-141l-356 -149l356 -149v-143z" />
    <glyph glyph-name="greater" unicode="&#x3e;" horiz-adv-x="672" 
d="M96 75v141l355 149l-355 149v143l502 -222v-138z" />
    <glyph glyph-name="plusminus" unicode="&#xb1;" horiz-adv-x="672" 
d="M592 393l-189 1l1 -186h-136l1 186l-189 -1v132l189 -1l-1 186h136l-1 -186l189 1v-132zM592 0h-512v126h512v-126z" />
    <glyph glyph-name="zero.sup" unicode="&#x2070;" 
d="M209 427c-95 0 -169 80 -169 210v5c0 130 75 211 170 211c94 0 170 -81 170 -210v-5c0 -131 -77 -211 -171 -211zM209 770c-43 0 -78 -40 -78 -126v-8c0 -85 35 -127 79 -127c43 0 79 41 79 127v8c0 85 -37 126 -80 126z" />
    <glyph glyph-name="one.sup" unicode="&#xb9;" horiz-adv-x="342" 
d="M240 437h-87v318l-79 -29l-25 72l126 50h65v-411z" />
    <glyph glyph-name="one.sup_alt" 
d="M370 437h-296v76h110v242l-94 -35l-25 72l141 56h65v-335h99v-76z" />
    <glyph glyph-name="two.sup" unicode="&#xb2;" 
d="M57 437v75l139 114c49 40 70 63 70 96c0 31 -25 49 -56 49c-34 0 -62 -20 -90 -56l-63 51c40 54 82 87 158 87c86 0 143 -50 143 -123c0 -57 -24 -91 -86 -140l-96 -76h184v-77h-303z" />
    <glyph glyph-name="three.sup" unicode="&#xb3;" 
d="M206 427c-71 0 -120 26 -161 63l51 65c31 -28 71 -49 111 -49c33 0 63 21 63 52c0 34 -31 52 -77 52h-48l-14 55l110 99h-169v78h280v-68l-117 -100c69 -6 124 -41 124 -113c0 -80 -59 -134 -153 -134z" />
    <glyph glyph-name="four.sup" unicode="&#x2074;" 
d="M327 521v-86h-80v86h-196l-8 83l196 243h88v-257h55v-69h-55zM248 589v162l-129 -162h129z" />
    <glyph glyph-name="five.sup" unicode="&#x2075;" 
d="M205 427c-66 0 -115 24 -159 59l51 67c37 -29 71 -45 110 -45c41 0 71 22 71 57s-29 56 -74 56c-28 0 -58 -6 -76 -15l-55 34l16 202h257v-79h-184l-7 -77c16 6 44 9 68 9c80 0 143 -42 143 -126c0 -86 -63 -142 -161 -142z" />
    <glyph glyph-name="six.sup" unicode="&#x2076;" 
d="M212 427c-46 0 -85 16 -110 41c-31 31 -53 75 -53 159v2c0 136 60 224 179 224c55 0 88 -15 122 -40l-42 -71c-24 20 -49 31 -82 31c-47 0 -80 -38 -85 -96c23 14 47 24 87 24c73 0 136 -43 136 -130s-64 -144 -152 -144zM210 501c39 0 69 26 69 65c0 40 -27 65 -69 65
c-43 0 -71 -23 -71 -65v-1c0 -37 32 -65 71 -64z" />
    <glyph glyph-name="seven.sup" unicode="&#x2077;" 
d="M183 435h-99l174 326h-190v81h291v-68z" />
    <glyph glyph-name="eight.sup" unicode="&#x2078;" 
d="M210 427c-92 0 -156 46 -156 121c0 49 23 80 65 100c-32 18 -55 47 -55 92c0 63 57 113 146 113c88 0 145 -50 145 -113c0 -46 -23 -73 -55 -92c40 -21 66 -50 66 -99c0 -77 -66 -122 -156 -122zM210 783c-38 0 -64 -22 -64 -52c0 -33 27 -55 64 -55c36 0 63 21 63 55
c0 30 -26 52 -63 52zM210 610c-42 0 -74 -21 -74 -57c0 -34 28 -58 74 -58c44 0 72 23 72 58c0 36 -31 57 -72 57z" />
    <glyph glyph-name="nine.sup" unicode="&#x2079;" 
d="M210 644c43 0 71 24 71 68v1c0 37 -32 66 -71 65c-39 0 -69 -27 -69 -66c0 -42 27 -68 69 -68zM208 853c46 0 85 -17 110 -42c31 -31 53 -74 53 -159v-2c0 -136 -60 -223 -179 -223c-55 0 -95 17 -129 43l42 70c24 -19 56 -34 89 -34c46 0 79 37 84 93
c-23 -15 -44 -24 -84 -24c-73 0 -138 44 -138 132c0 85 64 146 152 146z" />
    <glyph glyph-name="zero.inf" unicode="&#x2080;" 
d="M209 -147c-95 0 -169 80 -169 210v5c0 130 75 211 170 211c94 0 170 -81 170 -210v-5c0 -131 -77 -211 -171 -211zM209 196c-43 0 -78 -40 -78 -126v-8c0 -85 35 -127 79 -127c43 0 79 41 79 127v8c0 85 -37 126 -80 126z" />
    <glyph glyph-name="one.inf" unicode="&#x2081;" horiz-adv-x="342" 
d="M240 -137h-87v318l-79 -29l-25 72l126 50h65v-411z" />
    <glyph glyph-name="one.inf_alt" 
d="M370 -137h-296v76h110v242l-94 -35l-25 72l141 56h65v-335h99v-76z" />
    <glyph glyph-name="two.inf" unicode="&#x2082;" 
d="M57 -137v75l139 114c49 40 70 63 70 96c0 31 -25 49 -56 49c-34 0 -62 -20 -90 -56l-63 51c40 54 82 87 158 87c86 0 143 -50 143 -123c0 -57 -24 -91 -86 -140l-96 -76h184v-77h-303z" />
    <glyph glyph-name="three.inf" unicode="&#x2083;" 
d="M206 -147c-71 0 -120 26 -161 63l51 65c31 -28 71 -49 111 -49c33 0 63 21 63 52c0 34 -31 52 -77 52h-48l-14 55l110 99h-169v78h280v-68l-117 -100c69 -6 124 -41 124 -113c0 -80 -59 -134 -153 -134z" />
    <glyph glyph-name="four.inf" unicode="&#x2084;" 
d="M327 -53v-86h-80v86h-196l-8 83l196 243h88v-257h55v-69h-55zM248 15v162l-129 -162h129z" />
    <glyph glyph-name="five.inf" unicode="&#x2085;" 
d="M205 -147c-66 0 -115 24 -159 59l51 67c37 -29 71 -45 110 -45c41 0 71 22 71 57s-29 56 -74 56c-28 0 -58 -6 -76 -15l-55 34l16 202h257v-79h-184l-7 -77c16 6 44 9 68 9c80 0 143 -42 143 -126c0 -86 -63 -142 -161 -142z" />
    <glyph glyph-name="six.inf" unicode="&#x2086;" 
d="M212 -147c-46 0 -85 16 -110 41c-31 31 -53 75 -53 159v2c0 136 60 224 179 224c55 0 88 -15 122 -40l-42 -71c-24 20 -49 31 -82 31c-47 0 -80 -38 -85 -96c23 14 47 24 87 24c73 0 136 -43 136 -130s-64 -144 -152 -144zM210 -73c39 0 69 26 69 65c0 40 -27 65 -69 65
c-43 0 -71 -23 -71 -65v-1c0 -37 32 -65 71 -64z" />
    <glyph glyph-name="seven.inf" unicode="&#x2087;" 
d="M183 -139h-99l174 326h-190v81h291v-68z" />
    <glyph glyph-name="eight.inf" unicode="&#x2088;" 
d="M210 -147c-92 0 -156 46 -156 121c0 49 23 80 65 100c-32 18 -55 47 -55 92c0 63 57 113 146 113c88 0 145 -50 145 -113c0 -46 -23 -73 -55 -92c40 -21 66 -50 66 -99c0 -77 -66 -122 -156 -122zM210 209c-38 0 -64 -22 -64 -52c0 -33 27 -55 64 -55c36 0 63 21 63 55
c0 30 -26 52 -63 52zM210 36c-42 0 -74 -21 -74 -57c0 -34 28 -58 74 -58c44 0 72 23 72 58c0 36 -31 57 -72 57z" />
    <glyph glyph-name="nine.inf" unicode="&#x2089;" 
d="M210 70c43 0 71 24 71 68v1c0 37 -32 66 -71 65c-39 0 -69 -27 -69 -66c0 -42 27 -68 69 -68zM208 279c46 0 85 -17 110 -42c31 -31 53 -74 53 -159v-2c0 -136 -60 -223 -179 -223c-55 0 -95 17 -129 43l42 70c24 -19 56 -34 89 -34c46 0 79 37 84 93
c-23 -15 -44 -24 -84 -24c-73 0 -138 44 -138 132c0 85 64 146 152 146z" />
    <glyph glyph-name="zero.num" 
d="M209 312c-95 0 -169 81 -169 210v5c0 131 75 211 170 211c94 0 170 -80 170 -210v-5c0 -130 -77 -211 -171 -211zM209 656c-43 0 -78 -41 -78 -127v-8c0 -85 35 -126 79 -126c43 0 79 40 79 126v8c0 85 -37 127 -80 127z" />
    <glyph glyph-name="one.num" horiz-adv-x="342" 
d="M240 323h-87v318l-79 -30l-25 73l126 49h65v-410z" />
    <glyph glyph-name="one.num_alt" 
d="M370 323h-296v76h110v242l-94 -36l-25 73l141 55h65v-334h99v-76z" />
    <glyph glyph-name="two.num" 
d="M57 323v75l139 114c49 40 70 63 70 95c0 31 -25 50 -56 50c-34 0 -62 -20 -90 -56l-63 51c40 54 82 86 158 86c86 0 143 -50 143 -123c0 -56 -24 -90 -86 -140l-96 -76h184v-76h-303z" />
    <glyph glyph-name="three.num" 
d="M206 312c-71 0 -120 27 -161 64l51 65c31 -28 71 -49 111 -49c33 0 63 20 63 52c0 34 -31 52 -77 52h-48l-14 55l110 98h-169v79h280v-68l-117 -101c69 -5 124 -40 124 -112c0 -80 -59 -135 -153 -135z" />
    <glyph glyph-name="four.num" 
d="M327 406v-85h-80v85h-196l-8 84l196 242h88v-256h55v-70h-55zM248 475v161l-129 -161h129z" />
    <glyph glyph-name="five.num" 
d="M205 312c-66 0 -115 24 -159 59l51 67c37 -28 71 -44 110 -44c41 0 71 22 71 57s-29 56 -74 56c-28 0 -58 -6 -76 -15l-55 33l16 203h257v-80h-184l-7 -76c16 5 44 9 68 9c80 0 143 -42 143 -126c0 -87 -63 -143 -161 -143z" />
    <glyph glyph-name="six.num" 
d="M212 312c-46 0 -85 17 -110 42c-31 31 -53 74 -53 159v2c0 136 60 223 179 223c55 0 88 -14 122 -40l-42 -70c-24 19 -49 31 -82 31c-47 0 -80 -39 -85 -97c23 15 47 24 87 24c73 0 136 -43 136 -130c0 -86 -64 -144 -152 -144zM210 387c39 0 69 26 69 64
c0 41 -27 66 -69 66c-43 0 -71 -23 -71 -66v-1c0 -36 32 -64 71 -63z" />
    <glyph glyph-name="seven.num" 
d="M183 321h-99l174 325h-190v82h291v-68z" />
    <glyph glyph-name="eight.num" 
d="M210 312c-92 0 -156 47 -156 122c0 48 23 80 65 100c-32 18 -55 46 -55 91c0 64 57 113 146 113c88 0 145 -49 145 -113c0 -46 -23 -73 -55 -91c40 -21 66 -51 66 -99c0 -77 -66 -123 -156 -123zM210 669c-38 0 -64 -23 -64 -53c0 -33 27 -54 64 -54c36 0 63 20 63 54
c0 30 -26 53 -63 53zM210 495c-42 0 -74 -20 -74 -56c0 -35 28 -58 74 -58c44 0 72 22 72 58s-31 56 -72 56z" />
    <glyph glyph-name="nine.num" 
d="M210 530c43 0 71 24 71 67v1c0 38 -32 67 -71 66c-39 0 -69 -27 -69 -67c0 -41 27 -67 69 -67zM208 738c46 0 85 -16 110 -41c31 -31 53 -75 53 -159v-2c0 -136 -60 -224 -179 -224c-55 0 -95 18 -129 43l42 71c24 -20 56 -34 89 -34c46 0 79 36 84 92
c-23 -14 -44 -24 -84 -24c-73 0 -138 44 -138 132c0 86 64 146 152 146z" />
    <glyph glyph-name="zero.den" 
d="M209 -10c-95 0 -169 80 -169 210v5c0 130 75 211 170 211c94 0 170 -81 170 -210v-5c0 -131 -77 -211 -171 -211zM209 333c-43 0 -78 -40 -78 -126v-8c0 -85 35 -127 79 -127c43 0 79 41 79 127v8c0 85 -37 126 -80 126z" />
    <glyph glyph-name="one.den" horiz-adv-x="342" 
d="M240 0h-87v318l-79 -29l-25 72l126 50h65v-411z" />
    <glyph glyph-name="one.den_alt" 
d="M370 0h-296v76h110v242l-94 -35l-25 72l141 56h65v-335h99v-76z" />
    <glyph glyph-name="two.den" 
d="M57 0v75l139 114c49 40 70 63 70 96c0 31 -25 49 -56 49c-34 0 -62 -20 -90 -56l-63 51c40 54 82 87 158 87c86 0 143 -50 143 -123c0 -57 -24 -91 -86 -140l-96 -76h184v-77h-303z" />
    <glyph glyph-name="three.den" 
d="M206 -10c-71 0 -120 26 -161 63l51 65c31 -28 71 -49 111 -49c33 0 63 21 63 52c0 34 -31 52 -77 52h-48l-14 55l110 99h-169v78h280v-68l-117 -100c69 -6 124 -41 124 -113c0 -80 -59 -134 -153 -134z" />
    <glyph glyph-name="four.den" 
d="M327 84v-86h-80v86h-196l-8 83l196 243h88v-257h55v-69h-55zM248 152v162l-129 -162h129z" />
    <glyph glyph-name="five.den" 
d="M205 -10c-66 0 -115 24 -159 59l51 67c37 -29 71 -45 110 -45c41 0 71 22 71 57s-29 56 -74 56c-28 0 -58 -6 -76 -15l-55 34l16 202h257v-79h-184l-7 -77c16 6 44 9 68 9c80 0 143 -42 143 -126c0 -86 -63 -142 -161 -142z" />
    <glyph glyph-name="six.den" 
d="M212 -10c-46 0 -85 16 -110 41c-31 31 -53 75 -53 159v2c0 136 60 224 179 224c55 0 88 -15 122 -40l-42 -71c-24 20 -49 31 -82 31c-47 0 -80 -38 -85 -96c23 14 47 24 87 24c73 0 136 -43 136 -130s-64 -144 -152 -144zM210 64c39 0 69 26 69 65c0 40 -27 65 -69 65
c-43 0 -71 -23 -71 -65v-1c0 -37 32 -65 71 -64z" />
    <glyph glyph-name="seven.den" 
d="M183 -2h-99l174 326h-190v81h291v-68z" />
    <glyph glyph-name="eight.den" 
d="M210 -10c-92 0 -156 46 -156 121c0 49 23 80 65 100c-32 18 -55 47 -55 92c0 63 57 113 146 113c88 0 145 -50 145 -113c0 -46 -23 -73 -55 -92c40 -21 66 -50 66 -99c0 -77 -66 -122 -156 -122zM210 346c-38 0 -64 -22 -64 -52c0 -33 27 -55 64 -55c36 0 63 21 63 55
c0 30 -26 52 -63 52zM210 173c-42 0 -74 -21 -74 -57c0 -34 28 -58 74 -58c44 0 72 23 72 58c0 36 -31 57 -72 57z" />
    <glyph glyph-name="nine.den" 
d="M210 207c43 0 71 24 71 68v1c0 37 -32 66 -71 65c-39 0 -69 -27 -69 -66c0 -42 27 -68 69 -68zM208 416c46 0 85 -17 110 -42c31 -31 53 -74 53 -159v-2c0 -136 -60 -223 -179 -223c-55 0 -95 17 -129 43l42 70c24 -19 56 -34 89 -34c46 0 79 37 84 93
c-23 -15 -44 -24 -84 -24c-73 0 -138 44 -138 132c0 85 64 146 152 146z" />
    <glyph glyph-name="fraction" unicode="&#x2044;" horiz-adv-x="112" 
d="M-233 0l264 381l230 347h84l-264 -381l-230 -347h-84z" />
    <glyph glyph-name="onehalf" unicode="&#xbd;" horiz-adv-x="867" 
d="M242 323h-87v318l-79 -30l-25 73l126 49h65v-410zM121 0l264 381l230 347h84l-264 -381l-230 -347h-84zM511 0v75l139 114c49 40 70 63 70 96c0 31 -25 49 -56 49c-34 0 -62 -20 -90 -56l-63 51c40 54 82 87 158 87c86 0 143 -50 143 -123c0 -57 -24 -91 -86 -140
l-96 -76h184v-77h-303z" />
    <glyph glyph-name="onehalf.alt" horiz-adv-x="945" 
d="M367 323h-296v76h110v242l-94 -36l-25 73l141 55h65v-334h99v-76zM204 0l264 381l230 347h84l-264 -381l-230 -347h-84zM589 0v75l139 114c49 40 70 63 70 96c0 31 -25 49 -56 49c-34 0 -62 -20 -90 -56l-63 51c40 54 82 87 158 87c86 0 143 -50 143 -123
c0 -57 -24 -91 -86 -140l-96 -76h184v-77h-303z" />
    <glyph glyph-name="onethird" unicode="&#x2153;" horiz-adv-x="867" 
d="M242 323h-87v318l-79 -30l-25 73l126 49h65v-410zM110 0l264 381l230 347h84l-264 -381l-230 -347h-84zM660 -10c-71 0 -120 26 -161 63l51 65c31 -28 71 -49 111 -49c33 0 63 21 63 52c0 34 -31 52 -77 52h-48l-14 55l110 99h-169v78h280v-68l-117 -100
c69 -6 124 -41 124 -113c0 -80 -59 -134 -153 -134z" />
    <glyph glyph-name="onethird.alt" horiz-adv-x="945" 
d="M367 323h-296v76h110v242l-94 -36l-25 73l141 55h65v-334h99v-76zM193 0l264 381l230 347h84l-264 -381l-230 -347h-84zM738 -10c-71 0 -120 26 -161 63l51 65c31 -28 71 -49 111 -49c33 0 63 21 63 52c0 34 -31 52 -77 52h-48l-14 55l110 99h-169v78h280v-68l-117 -100
c69 -6 124 -41 124 -113c0 -80 -59 -134 -153 -134z" />
    <glyph glyph-name="twothirds" unicode="&#x2154;" horiz-adv-x="945" 
d="M49 323v75l139 114c49 40 70 63 70 95c0 31 -25 50 -56 50c-34 0 -62 -20 -90 -56l-63 51c40 54 82 86 158 86c86 0 143 -50 143 -123c0 -56 -24 -90 -86 -140l-96 -76h184v-76h-303zM183 0l264 381l230 347h84l-264 -381l-230 -347h-84zM738 -10c-71 0 -120 26 -161 63
l51 65c31 -28 71 -49 111 -49c33 0 63 21 63 52c0 34 -31 52 -77 52h-48l-14 55l110 99h-169v78h280v-68l-117 -100c69 -6 124 -41 124 -113c0 -80 -59 -134 -153 -134z" />
    <glyph glyph-name="onequarter" unicode="&#xbc;" horiz-adv-x="867" 
d="M242 323h-87v318l-79 -30l-25 73l126 49h65v-410zM131 0l264 381l230 347h84l-264 -381l-230 -347h-84zM771 84v-86h-80v86h-196l-8 83l196 243h88v-257h55v-69h-55zM692 152v162l-129 -162h129z" />
    <glyph glyph-name="onequarter.alt" horiz-adv-x="945" 
d="M367 323h-296v76h110v242l-94 -36l-25 73l141 55h65v-334h99v-76zM209 0l264 381l230 347h84l-264 -381l-230 -347h-84zM849 84v-86h-80v86h-196l-8 83l196 243h88v-257h55v-69h-55zM770 152v162l-129 -162h129z" />
    <glyph glyph-name="threequarters" unicode="&#xbe;" horiz-adv-x="945" 
d="M204 0l264 381l230 347h84l-264 -381l-230 -347h-84zM208 312c-71 0 -120 27 -161 64l51 65c31 -28 71 -49 111 -49c33 0 63 20 63 52c0 34 -31 52 -77 52h-48l-14 55l110 98h-169v79h280v-68l-117 -101c69 -5 124 -40 124 -112c0 -80 -59 -135 -153 -135zM849 84v-86
h-80v86h-196l-8 83l196 243h88v-257h55v-69h-55zM770 152v162l-129 -162h129z" />
    <glyph glyph-name="onefifth" unicode="&#x2155;" horiz-adv-x="867" 
d="M242 323h-87v318l-79 -30l-25 73l126 49h65v-410zM115 0l264 381l230 347h84l-264 -381l-230 -347h-84zM659 -10c-66 0 -115 24 -159 59l51 67c37 -29 71 -45 110 -45c41 0 71 22 71 57s-29 56 -74 56c-28 0 -58 -6 -76 -15l-55 34l16 202h257v-79h-184l-7 -77
c16 6 44 9 68 9c80 0 143 -42 143 -126c0 -86 -63 -142 -161 -142z" />
    <glyph glyph-name="onefifth.alt" horiz-adv-x="945" 
d="M367 323h-296v76h110v242l-94 -36l-25 73l141 55h65v-334h99v-76zM199 0l264 381l230 347h84l-264 -381l-230 -347h-84zM737 -10c-66 0 -115 24 -159 59l51 67c37 -29 71 -45 110 -45c41 0 71 22 71 57s-29 56 -74 56c-28 0 -58 -6 -76 -15l-55 34l16 202h257v-79h-184
l-7 -77c16 6 44 9 68 9c80 0 143 -42 143 -126c0 -86 -63 -142 -161 -142z" />
    <glyph glyph-name="twofifths" unicode="&#x2156;" horiz-adv-x="945" 
d="M49 323v75l139 114c49 40 70 63 70 95c0 31 -25 50 -56 50c-34 0 -62 -20 -90 -56l-63 51c40 54 82 86 158 86c86 0 143 -50 143 -123c0 -56 -24 -90 -86 -140l-96 -76h184v-76h-303zM193 0l264 381l230 347h84l-264 -381l-230 -347h-84zM737 -10c-66 0 -115 24 -159 59
l51 67c37 -29 71 -45 110 -45c41 0 71 22 71 57s-29 56 -74 56c-28 0 -58 -6 -76 -15l-55 34l16 202h257v-79h-184l-7 -77c16 6 44 9 68 9c80 0 143 -42 143 -126c0 -86 -63 -142 -161 -142z" />
    <glyph glyph-name="threefifths" unicode="&#x2157;" horiz-adv-x="945" 
d="M178 0l264 381l230 347h84l-264 -381l-230 -347h-84zM198 312c-71 0 -120 27 -161 64l51 65c31 -28 71 -49 111 -49c33 0 63 20 63 52c0 34 -31 52 -77 52h-48l-14 55l110 98h-169v79h280v-68l-117 -101c69 -5 124 -40 124 -112c0 -80 -59 -135 -153 -135zM737 -10
c-66 0 -115 24 -159 59l51 67c37 -29 71 -45 110 -45c41 0 71 22 71 57s-29 56 -74 56c-28 0 -58 -6 -76 -15l-55 34l16 202h257v-79h-184l-7 -77c16 6 44 9 68 9c80 0 143 -42 143 -126c0 -86 -63 -142 -161 -142z" />
    <glyph glyph-name="fourfifths" unicode="&#x2158;" horiz-adv-x="945" 
d="M319 406v-85h-80v85h-196l-8 84l196 242h88v-256h55v-70h-55zM193 0l264 381l230 347h84l-264 -381l-230 -347h-84zM240 475v161l-129 -161h129zM737 -10c-66 0 -115 24 -159 59l51 67c37 -29 71 -45 110 -45c41 0 71 22 71 57s-29 56 -74 56c-28 0 -58 -6 -76 -15
l-55 34l16 202h257v-79h-184l-7 -77c16 6 44 9 68 9c80 0 143 -42 143 -126c0 -86 -63 -142 -161 -142z" />
    <glyph glyph-name="onesixth" unicode="&#x2159;" horiz-adv-x="867" 
d="M242 323h-87v318l-79 -30l-25 73l126 49h65v-410zM121 0l264 381l230 347h84l-264 -381l-230 -347h-84zM666 -10c-46 0 -85 16 -110 41c-31 31 -53 75 -53 159v2c0 136 60 224 179 224c55 0 88 -15 122 -40l-42 -71c-24 20 -49 31 -82 31c-47 0 -80 -38 -85 -96
c23 14 47 24 87 24c73 0 136 -43 136 -130s-64 -144 -152 -144zM664 64c39 0 69 26 69 65c0 40 -27 65 -69 65c-43 0 -71 -23 -71 -65v-1c0 -37 32 -65 71 -64z" />
    <glyph glyph-name="onesixth.alt" horiz-adv-x="945" 
d="M367 323h-296v76h110v242l-94 -36l-25 73l141 55h65v-334h99v-76zM199 0l264 381l230 347h84l-264 -381l-230 -347h-84zM744 -10c-46 0 -85 16 -110 41c-31 31 -53 75 -53 159v2c0 136 60 224 179 224c55 0 88 -15 122 -40l-42 -71c-24 20 -49 31 -82 31
c-47 0 -80 -38 -85 -96c23 14 47 24 87 24c73 0 136 -43 136 -130s-64 -144 -152 -144zM742 64c39 0 69 26 69 65c0 40 -27 65 -69 65c-43 0 -71 -23 -71 -65v-1c0 -37 32 -65 71 -64z" />
    <glyph glyph-name="fivesixths" unicode="&#x215a;" horiz-adv-x="945" 
d="M183 0l264 381l230 347h84l-264 -381l-230 -347h-84zM197 312c-66 0 -115 24 -159 59l51 67c37 -28 71 -44 110 -44c41 0 71 22 71 57s-29 56 -74 56c-28 0 -58 -6 -76 -15l-55 33l16 203h257v-80h-184l-7 -76c16 5 44 9 68 9c80 0 143 -42 143 -126
c0 -87 -63 -143 -161 -143zM744 -10c-46 0 -85 16 -110 41c-31 31 -53 75 -53 159v2c0 136 60 224 179 224c55 0 88 -15 122 -40l-42 -71c-24 20 -49 31 -82 31c-47 0 -80 -38 -85 -96c23 14 47 24 87 24c73 0 136 -43 136 -130s-64 -144 -152 -144zM742 64
c39 0 69 26 69 65c0 40 -27 65 -69 65c-43 0 -71 -23 -71 -65v-1c0 -37 32 -65 71 -64z" />
    <glyph glyph-name="oneeighth" unicode="&#x215b;" horiz-adv-x="867" 
d="M242 323h-87v318l-79 -30l-25 73l126 49h65v-410zM116 0l264 381l230 347h84l-264 -381l-230 -347h-84zM664 -10c-92 0 -156 46 -156 121c0 49 23 80 65 100c-32 18 -55 47 -55 92c0 63 57 113 146 113c88 0 145 -50 145 -113c0 -46 -23 -73 -55 -92
c40 -21 66 -50 66 -99c0 -77 -66 -122 -156 -122zM664 346c-38 0 -64 -22 -64 -52c0 -33 27 -55 64 -55c36 0 63 21 63 55c0 30 -26 52 -63 52zM664 173c-42 0 -74 -21 -74 -57c0 -34 28 -58 74 -58c44 0 72 23 72 58c0 36 -31 57 -72 57z" />
    <glyph glyph-name="oneeighth.alt" horiz-adv-x="945" 
d="M367 323h-296v76h110v242l-94 -36l-25 73l141 55h65v-334h99v-76zM199 0l264 381l230 347h84l-264 -381l-230 -347h-84zM742 -10c-92 0 -156 46 -156 121c0 49 23 80 65 100c-32 18 -55 47 -55 92c0 63 57 113 146 113c88 0 145 -50 145 -113c0 -46 -23 -73 -55 -92
c40 -21 66 -50 66 -99c0 -77 -66 -122 -156 -122zM742 346c-38 0 -64 -22 -64 -52c0 -33 27 -55 64 -55c36 0 63 21 63 55c0 30 -26 52 -63 52zM742 173c-42 0 -74 -21 -74 -57c0 -34 28 -58 74 -58c44 0 72 23 72 58c0 36 -31 57 -72 57z" />
    <glyph glyph-name="threeeighths" unicode="&#x215c;" horiz-adv-x="945" 
d="M183 0l264 381l230 347h84l-264 -381l-230 -347h-84zM198 312c-71 0 -120 27 -161 64l51 65c31 -28 71 -49 111 -49c33 0 63 20 63 52c0 34 -31 52 -77 52h-48l-14 55l110 98h-169v79h280v-68l-117 -101c69 -5 124 -40 124 -112c0 -80 -59 -135 -153 -135zM742 -10
c-92 0 -156 46 -156 121c0 49 23 80 65 100c-32 18 -55 47 -55 92c0 63 57 113 146 113c88 0 145 -50 145 -113c0 -46 -23 -73 -55 -92c40 -21 66 -50 66 -99c0 -77 -66 -122 -156 -122zM742 346c-38 0 -64 -22 -64 -52c0 -33 27 -55 64 -55c36 0 63 21 63 55
c0 30 -26 52 -63 52zM742 173c-42 0 -74 -21 -74 -57c0 -34 28 -58 74 -58c44 0 72 23 72 58c0 36 -31 57 -72 57z" />
    <glyph glyph-name="fiveeighths" unicode="&#x215d;" horiz-adv-x="945" 
d="M183 0l264 381l230 347h84l-264 -381l-230 -347h-84zM197 312c-66 0 -115 24 -159 59l51 67c37 -28 71 -44 110 -44c41 0 71 22 71 57s-29 56 -74 56c-28 0 -58 -6 -76 -15l-55 33l16 203h257v-80h-184l-7 -76c16 5 44 9 68 9c80 0 143 -42 143 -126
c0 -87 -63 -143 -161 -143zM742 -10c-92 0 -156 46 -156 121c0 49 23 80 65 100c-32 18 -55 47 -55 92c0 63 57 113 146 113c88 0 145 -50 145 -113c0 -46 -23 -73 -55 -92c40 -21 66 -50 66 -99c0 -77 -66 -122 -156 -122zM742 346c-38 0 -64 -22 -64 -52
c0 -33 27 -55 64 -55c36 0 63 21 63 55c0 30 -26 52 -63 52zM742 173c-42 0 -74 -21 -74 -57c0 -34 28 -58 74 -58c44 0 72 23 72 58c0 36 -31 57 -72 57z" />
    <glyph glyph-name="seveneighths" unicode="&#x215e;" horiz-adv-x="945" 
d="M152 0l264 381l230 347h84l-264 -381l-230 -347h-84zM185 321h-99l174 325h-190v82h291v-68zM742 -10c-92 0 -156 46 -156 121c0 49 23 80 65 100c-32 18 -55 47 -55 92c0 63 57 113 146 113c88 0 145 -50 145 -113c0 -46 -23 -73 -55 -92c40 -21 66 -50 66 -99
c0 -77 -66 -122 -156 -122zM742 346c-38 0 -64 -22 -64 -52c0 -33 27 -55 64 -55c36 0 63 21 63 55c0 30 -26 52 -63 52zM742 173c-42 0 -74 -21 -74 -57c0 -34 28 -58 74 -58c44 0 72 23 72 58c0 36 -31 57 -72 57z" />
    <glyph glyph-name="zero.tab" horiz-adv-x="630" 
d="M314 -12c-163 0 -268 141 -268 367v16c0 227 106 369 269 369c162 0 269 -141 269 -367v-16c0 -227 -108 -369 -270 -369zM314 610c-73 0 -121 -75 -121 -238v-15c0 -162 49 -239 122 -239s122 76 122 238v15c0 162 -50 239 -123 239z" />
    <glyph glyph-name="one.tab" horiz-adv-x="630" 
d="M587 0h-508v124h191v453l-168 -62l-36 125l247 93h103v-609h171v-124z" />
    <glyph glyph-name="two.tab" horiz-adv-x="630" 
d="M570 0h-518v120l236 208c87 78 122 119 122 178c0 62 -43 96 -103 96c-59 0 -100 -32 -154 -100l-101 90c69 95 139 146 265 146c151 0 247 -87 247 -219v-2c0 -104 -53 -163 -134 -235l-171 -150h311v-132z" />
    <glyph glyph-name="three.tab" horiz-adv-x="630" 
d="M308 -12c-121 0 -205 43 -273 110l94 110c54 -51 107 -84 181 -84c62 0 112 36 112 95v2c0 62 -53 94 -145 94h-69l-27 94l191 188h-298v131h486v-118l-196 -187c110 -12 208 -63 208 -195v-3c0 -137 -104 -237 -264 -237z" />
    <glyph glyph-name="three.tab_alt" horiz-adv-x="630" 
d="M314 -12c-111 0 -206 46 -273 119l98 99c48 -51 104 -84 181 -84c70 0 112 37 112 95c0 59 -53 89 -142 89h-76v124h86c76 0 119 37 119 91c0 50 -42 85 -107 85c-72 0 -115 -34 -161 -85l-98 90c57 73 137 129 261 129c157 0 255 -77 255 -202c0 -81 -48 -133 -106 -163
c68 -29 118 -73 118 -170c0 -131 -107 -217 -267 -217z" />
    <glyph glyph-name="four.tab" horiz-adv-x="630" 
d="M376 0v153h-324l-25 140l317 439h171v-460h89v-119h-89v-153h-139zM378 270v303l-218 -303h218z" />
    <glyph glyph-name="five.tab" horiz-adv-x="630" 
d="M301 -12c-114 0 -195 42 -264 100l84 113c60 -48 116 -80 183 -80c73 0 126 37 126 107v3c0 63 -48 103 -134 103c-54 0 -95 -13 -128 -27l-89 58l24 363h442v-134h-318l-10 -145c31 9 62 14 104 14c137 0 257 -67 257 -227v-2c0 -149 -115 -246 -277 -246z" />
    <glyph glyph-name="six.tab" horiz-adv-x="630" 
d="M350 471c123 0 230 -78 230 -228v-4c0 -149 -112 -251 -257 -251c-83 0 -144 29 -184 68c-54 54 -86 128 -86 284v4c0 239 96 396 297 396c83 0 150 -26 202 -70l-67 -118c-44 32 -83 53 -138 53c-109 0 -139 -108 -144 -182h1c36 29 86 48 146 48zM317 114
c69 0 117 49 117 118v1c0 69 -46 117 -117 116c-72 0 -117 -47 -117 -117v-1c0 -68 48 -118 117 -117z" />
    <glyph glyph-name="seven.tab" horiz-adv-x="630" 
d="M408 592h-340v136h511v-118l-311 -610h-170z" />
    <glyph glyph-name="eight.tab" horiz-adv-x="630" 
d="M315 -10c-153 0 -266 83 -266 209v3c0 89 40 142 114 176c-56 34 -95 83 -95 160v2c0 112 102 198 247 198c144 0 246 -86 246 -198v-2c0 -77 -39 -126 -95 -160c71 -36 114 -85 114 -173v-2c0 -134 -113 -213 -265 -213zM315 428c61 0 104 38 104 95v2
c0 51 -41 91 -104 91c-64 0 -105 -39 -105 -90v-3c0 -55 43 -95 105 -95zM315 112c76 0 120 41 120 99v2c0 61 -51 97 -120 97c-70 0 -121 -36 -121 -97v-2c0 -58 44 -99 121 -99z" />
    <glyph glyph-name="nine.tab" horiz-adv-x="630" 
d="M313 614c-69 0 -117 -50 -117 -121v-1c0 -71 46 -120 117 -119c72 0 117 48 117 120v1c0 70 -48 121 -117 120zM280 250c-123 0 -230 80 -230 232v4c0 152 112 254 257 254c83 0 144 -29 184 -68c54 -54 86 -128 86 -284v-4c0 -239 -96 -396 -297 -396
c-88 0 -160 30 -213 74l68 119c48 -35 93 -58 148 -58c105 0 137 102 143 175h-1c-36 -30 -86 -48 -145 -48z" />
    <glyph glyph-name="dollar.tab" horiz-adv-x="630" 
d="M205 528c0 -34 18 -62 86 -85l21 171h-1c-70 0 -107 -35 -106 -85v-1zM447 203c0 35 -20 63 -85 86l-21 -174h1c66 2 106 31 105 87v1zM431 811l-12 -92c55 -12 105 -34 148 -62l-56 -111c-35 22 -73 42 -112 54l-21 -180c135 -40 201 -104 201 -207v-1
c0 -133 -102 -213 -247 -214v-1l-16 -120h-99l16 131c-72 15 -138 47 -194 87l63 109c46 -35 98 -63 150 -78l23 187c-138 40 -202 98 -202 204v1c0 131 103 213 247 212h1l10 81h100z" />
    <glyph glyph-name="sterling.tab" horiz-adv-x="630" 
d="M134 407v84c0 79 19 137 67 184c40 40 97 63 173 63c102 0 167 -45 210 -102l-100 -98c-32 40 -64 61 -107 61c-28 0 -48 -9 -65 -26s-27 -44 -27 -83v-83h222v-124h-222v-153h297v-130h-523v97l75 26v160h-74v124h74z" />
    <glyph glyph-name="Euro.tab" horiz-adv-x="630" 
d="M607 93c-52 -61 -121 -105 -219 -105c-136 0 -237 91 -272 243h-82v97h71v38c0 12 0 25 1 38h-72v98h84c38 145 139 238 280 238c93 0 157 -38 204 -93l-85 -101c-34 38 -72 64 -121 64c-59 0 -106 -37 -129 -108h173v-98h-189c-1 -12 -1 -24 -1 -36v-6
c0 -12 0 -23 1 -34h189v-97h-176c23 -74 71 -113 130 -113c53 0 88 25 126 67z" />
    <glyph glyph-name="yen.tab" horiz-adv-x="630" 
d="M82 196h162v78h-162v98h138l-210 356h163l144 -269l144 269h159l-211 -356h139v-98h-161v-78h161v-99h-161v-97h-143v97h-162v99z" />
    <glyph glyph-name="cent.tab" horiz-adv-x="630" 
d="M200 361c0 -67 31 -115 78 -138l61 307h-1c-77 -5 -139 -67 -138 -167v-2zM478 734l-20 -99c48 -16 83 -43 114 -78l-81 -90c-20 21 -39 37 -61 47l-60 -305h1c46 5 86 29 122 64l79 -80c-53 -60 -126 -102 -219 -104h-1l-19 -95h-105l22 110c-107 36 -185 132 -185 259
v2c0 161 120 285 286 285h6l17 84h104z" />
    <glyph glyph-name="numbersign.tab" horiz-adv-x="630" 
d="M260 453l-25 -174h134l25 174h-134zM33 283h90l25 166h-84v122h102l23 157h115l-23 -157h127l24 157h115l-23 -157h73v-122h-91l-25 -166h85v-122h-103l-23 -161h-115l23 161h-127l-24 -161h-115l23 161h-72v122z" />
    <glyph glyph-name="paragraph.tab" horiz-adv-x="630" 
d="M379 0v242h-29c-174 0 -303 80 -303 242v1c0 151 116 244 287 243h198v-728h-153z" />
    <glyph glyph-name="section.tab" horiz-adv-x="630" 
d="M234 432c-33 0 -55 -16 -55 -45v-1c0 -28 25 -44 95 -62c83 -24 100 -28 122 -28c33 0 55 16 55 45v1c0 28 -25 44 -95 62c-83 24 -100 28 -122 28zM319 -10c-95 0 -170 30 -227 84l73 90c50 -42 98 -64 152 -64c45 0 63 18 63 41v1c0 23 -17 38 -117 66
c-153 44 -212 78 -212 156v1c0 63 45 103 109 119c-29 25 -49 54 -49 104v1c0 80 78 150 200 149c95 0 170 -30 227 -84l-73 -90c-50 42 -98 64 -152 64c-45 0 -63 -18 -63 -41v-1c0 -23 17 -38 117 -66c153 -44 212 -78 212 -156v-1c0 -63 -45 -103 -109 -119
c29 -25 49 -54 49 -104v-1c0 -80 -78 -150 -200 -149z" />
    <glyph glyph-name="degree.tab" horiz-adv-x="630" 
d="M314 311c-117 0 -217 96 -217 214v1c0 115 102 213 219 212c117 0 217 -96 217 -213v-1c0 -116 -102 -214 -219 -213zM316 395c76 0 127 58 127 130v1c0 69 -53 129 -129 128c-76 0 -127 -58 -127 -129v-1c0 -70 53 -130 129 -129z" />
    <glyph glyph-name="percent.tab" horiz-adv-x="630" 
d="M154 734c74 0 125 -71 125 -187v-10c0 -116 -51 -187 -125 -187c-73 0 -124 71 -124 187v10c0 116 51 187 124 187zM456 728h78l-197 -377l-163 -351h-78l197 377zM154 654c-24 0 -41 -29 -41 -103v-18c0 -74 17 -103 41 -103c25 0 42 29 42 103v18c0 74 -17 103 -42 103
zM476 378c73 0 124 -71 124 -187v-10c0 -116 -51 -187 -124 -187c-74 0 -125 71 -125 187v10c0 116 51 187 125 187zM476 298c-25 0 -42 -29 -42 -103v-18c0 -74 17 -103 42 -103c24 0 41 29 41 103v18c0 74 -17 103 -41 103z" />
    <glyph glyph-name="quotedbl.tab" horiz-adv-x="630" 
d="M99 400l41 328h168v-5l-132 -323h-77zM352 400l41 328h169v-5l-133 -323h-77z" />
    <glyph glyph-name="quotesingle.tab" horiz-adv-x="315" 
d="M67 400l42 328h170v-5l-132 -323h-80z" />
    <glyph glyph-name="period.tab" horiz-adv-x="315" 
d="M74 0v166h168v-166h-168z" />
    <glyph glyph-name="comma.tab" horiz-adv-x="315" 
d="M53 -165l-13 63c70 8 104 44 99 102h-65v166h168v-141c0 -133 -69 -187 -189 -190z" />
    <glyph glyph-name="colon.tab" horiz-adv-x="315" 
d="M76 393v163h164v-163h-164zM76 0v162h164v-162h-164z" />
    <glyph glyph-name="semicolon.tab" horiz-adv-x="315" 
d="M76 393v163h164v-163h-164zM53 -165l-13 63c70 8 104 44 99 102h-63v162h164v-137c0 -133 -67 -187 -187 -190z" />
    <glyph glyph-name="twodotleader.tab" horiz-adv-x="630" 
d="M79 0v158h160v-158h-160zM391 0v158h160v-158h-160z" />
    <glyph glyph-name="periodcentered.tab" horiz-adv-x="315" 
d="M74 238v167h168v-167h-168z" />
    <glyph glyph-name="slash.tab" horiz-adv-x="630" 
d="M624 830l-504 -963h-129l504 963h129z" />
    <glyph glyph-name="bar.tab" horiz-adv-x="315" 
d="M98 -133v963h120v-963h-120z" />
    <glyph glyph-name="underscore.tab" horiz-adv-x="630" 
d="M1 -166v116h628v-116h-628z" />
    <glyph glyph-name="plus.tab" horiz-adv-x="630" 
d="M566 300l-184 1l1 -186h-136l1 186l-184 -1v132l184 -1l-1 186h136l-1 -186l184 1v-132z" />
    <glyph glyph-name="minus.tab" horiz-adv-x="630" 
d="M566 296h-502v140h502v-140z" />
    <glyph glyph-name="divide.tab" horiz-adv-x="630" 
d="M236 515v146h158v-146h-158zM566 302h-502v128h502v-128zM236 71v146h158v-146h-158z" />
    <glyph glyph-name="equal.tab" horiz-adv-x="630" 
d="M549 430h-468v133h468v-133zM549 169h-468v133h468v-133z" />
    <glyph glyph-name="multiply.tab" horiz-adv-x="630" 
d="M467 119l-153 157l-153 -157l-93 93l157 153l-157 153l95 95l153 -157l153 157l93 -93l-157 -153l157 -153z" />
    <glyph glyph-name="less.tab" horiz-adv-x="630" 
d="M542 76l-473 221v138l473 221v-142l-333 -147l333 -147v-144z" />
    <glyph glyph-name="greater.tab" horiz-adv-x="630" 
d="M561 297l-473 -221v142l333 147l-333 147v144l473 -221v-138z" />
    <glyph glyph-name="plusminus.tab" horiz-adv-x="630" 
d="M566 393l-184 1l1 -181h-136l1 181l-184 -1v132l184 -1l-1 181h136l-1 -181l184 1v-132zM566 0h-502v126h502v-126z" />
    <glyph glyph-name="baht" unicode="&#xe3f;" horiz-adv-x="683" 
d="M338 -123h-97l10 123h-178v728h248l9 83h97l-9 -85c121 -10 204 -76 204 -186v-1c0 -89 -52 -135 -110 -161c76 -33 127 -78 127 -175v-1c0 -134 -106 -202 -262 -202h-29zM210 422h89l16 180h-105v-180zM483 514c0 49 -31 80 -86 87l-16 -179c63 4 102 33 102 91v1z
M210 126h61l18 186h-79v-186zM377 312h-7l-16 -186h27c74 0 118 32 118 94v1c0 56 -40 92 -122 91z" />
    <glyph glyph-name="colonmonetary" unicode="&#x20a1;" horiz-adv-x="652" 
d="M309 138c24 -8 50 -12 78 -12l60 465c-20 7 -41 11 -63 11c-6 0 -11 0 -16 -1zM186 355c0 -85 24 -144 64 -181l52 411c-70 -32 -116 -108 -116 -221v-9zM472 811h70l-14 -109c31 -12 58 -29 82 -48l-54 -131c-16 13 -32 26 -49 38l-55 -424c33 12 59 33 88 60l75 -100
c-53 -49 -105 -81 -176 -93l-16 -127h-70l15 123c-25 1 -49 4 -72 9l-17 -132h-70l20 156c-109 53 -182 168 -182 326v9c0 194 113 325 269 354l12 89h70l-11 -83c26 0 51 -3 73 -7z" />
    <glyph glyph-name="florin" unicode="&#x192;" horiz-adv-x="564" 
d="M107 -5c-25 0 -42 1 -60 5v123c13 -2 27 -3 39 -3c43 0 65 18 73 64l31 176h-73v125h95l15 81c20 106 71 167 194 167c41 0 75 -4 101 -12v-126c-25 6 -49 10 -71 10c-46 0 -70 -22 -79 -72l-8 -48h122v-125h-144l-36 -199c-21 -121 -82 -166 -199 -166z" />
    <glyph glyph-name="naira" unicode="&#x20a6;" horiz-adv-x="880" 
d="M281 503v-206h130l-125 206h-5zM594 241h5v194h-123zM848 208h-107v-208h-152l-128 208h-177v-208h-145v208h-106v93h106v130h-106v93h106v204h163l125 -204h169v204h145v-204h107v-93h-107v-130h107v-93z" />
    <glyph glyph-name="peso" unicode="&#x20b1;" horiz-adv-x="798" 
d="M139 0v423h-107v88h107v217h262c155 0 256 -90 275 -217h100v-88h-100c-21 -142 -143 -222 -291 -222h-93v-201h-153zM288 597v-91h234c-15 59 -65 91 -138 91h-96zM386 330c76 0 123 40 137 98h-235v-98h98z" />
    <glyph glyph-name="R_p" horiz-adv-x="1265" 
d="M226 370h120c74 0 120 41 120 111v4c0 78 -49 111 -123 111h-117v-226zM970 114c63 0 113 59 113 158v12c0 98 -50 159 -113 159c-62 0 -114 -62 -114 -159v-12c0 -97 52 -158 114 -158zM83 0v728h269c159 0 260 -84 260 -237v-4c0 -110 -57 -180 -139 -215l158 -272
h-165l-138 243h-102v-243h-143zM716 -166v722h142v-79c33 48 78 90 153 90c112 0 214 -92 214 -281v-16c0 -188 -101 -280 -214 -280c-76 0 -121 41 -153 84v-240h-142z" />
    <glyph glyph-name="rupee" unicode="&#x20a8;" horiz-adv-x="1160" 
d="M226 370h120c74 0 120 41 120 111v4c0 78 -49 111 -123 111h-117v-226zM83 0v728h269c159 0 260 -84 260 -237v-4c0 -110 -57 -180 -139 -215l158 -272h-165l-138 243h-102v-243h-143zM911 -10c-85 0 -164 26 -233 75l60 100c58 -40 118 -62 176 -62c42 0 71 19 71 47v2
c0 28 -16 41 -109 71c-111 36 -173 76 -173 167v3c0 108 89 170 201 170c66 0 137 -20 196 -57l-53 -104c-50 30 -99 48 -146 48c-42 0 -68 -19 -68 -44v-2c0 -28 19 -43 109 -73c113 -37 172 -77 172 -167v-2c0 -114 -92 -172 -203 -172z" />
    <glyph glyph-name="won" unicode="&#x20a9;" horiz-adv-x="1172" 
d="M582 549l-61 -243h129l-60 243h-8zM812 170h6l53 251h-122zM358 170h6l61 251h-120zM1094 728l-56 -214h97v-97h-123l-28 -106h151v-98h-177l-56 -215h-174l-57 215h-170l-57 -215h-174l-57 215h-176v98h151l-28 106h-123v97h97l-56 214h165l46 -214h156l57 216h172
l55 -216h158l46 214h161z" />
    <glyph glyph-name="hryvnia" unicode="&#x20b4;" horiz-adv-x="679" 
d="M52 442l8 64l293 -36c40 35 57 55 57 84c0 31 -21 55 -70 55c-50 0 -95 -20 -152 -64l-79 102c71 58 143 93 245 93c137 0 222 -79 222 -176c0 -42 -16 -79 -47 -116l117 -14l-8 -64l-170 21l-74 -66l233 -28l-8 -65l-291 35c-54 -46 -67 -67 -67 -93
c0 -35 28 -56 78 -56c53 0 107 24 165 68l79 -102c-69 -57 -153 -96 -257 -96c-148 0 -231 81 -231 175c0 44 17 85 55 126l-117 15l8 64l172 -21l74 66z" />
    <glyph glyph-name="numero" unicode="&#x2116;" horiz-adv-x="1185" 
d="M927 288c-116 0 -195 92 -195 219v6c0 126 79 219 196 219c116 0 196 -93 196 -219v-6c0 -127 -80 -219 -197 -219zM928 382c53 0 88 53 88 123v7c0 71 -35 126 -89 126c-52 0 -87 -53 -87 -123v-7c0 -71 35 -126 88 -126zM78 0v728h133l287 -436v436h142v-728h-124
l-296 452v-452h-142zM741 133v84h372v-84h-372z" />
    <glyph glyph-name="sheqel" unicode="&#x20aa;" horiz-adv-x="663" 
d="M357 353c0 52 -28 80 -81 80h-99v-433h-113v556h236c84 0 133 -49 133 -133v-203h-76v133zM245 145l-28 192h76l21 -135c8 -55 39 -79 94 -79h78v433h113v-556h-192c-98 0 -149 46 -162 145z" />
    <glyph glyph-name="Delta" unicode="&#x2206;" horiz-adv-x="826" 
d="M62 0l-12 111l283 622h160l283 -622l-12 -111h-702zM411 564l-186 -428h372z" />
    <glyph glyph-name="Omega" unicode="&#x2126;" horiz-adv-x="913" 
d="M457 740c235 0 375 -145 375 -335v-1c0 -128 -69 -212 -152 -273h169v-131h-322v129c79 55 144 125 144 255v1c0 126 -80 215 -216 214c-133 0 -213 -87 -213 -210v-1c0 -123 59 -198 143 -259v-129h-321v131h168c-84 64 -151 145 -151 274v1c0 178 139 335 376 334z" />
    <glyph glyph-name="mu" unicode="&#xb5;" horiz-adv-x="704" 
d="M676 122v-117c-21 -6 -45 -11 -82 -11c-68 0 -111 21 -134 69c-31 -48 -75 -70 -124 -70c-51 0 -107 24 -129 76h-2c9 -38 20 -76 20 -124v-111h-149v722h152v-315c0 -77 38 -119 102 -119c65 0 106 42 106 119v315h152v-385c2 -39 21 -52 55 -52c13 0 24 1 33 3z" />
    <glyph glyph-name="asciicircum" unicode="^" horiz-adv-x="528" 
d="M57 513l155 215h104l155 -215h-111l-97 125l-97 -125h-109z" />
    <glyph glyph-name="asciitilde" unicode="~" horiz-adv-x="535" 
d="M352 244c-35 0 -67 13 -93 23c-24 10 -45 18 -62 18c-32 0 -44 -17 -59 -51l-81 25c24 87 56 141 126 141c35 0 68 -12 94 -23c23 -9 44 -18 61 -18c32 0 44 17 59 51l81 -25c-23 -86 -55 -141 -126 -141z" />
    <glyph glyph-name="hcoslug" horiz-adv-x="694" 
d="M644 700v-800h-594v800h594zM247 428c0 17 11 29 27 29c17 0 29 -15 29 -38c0 -17 -7 -33 -18 -50c-23 22 -38 36 -38 59zM312 342c19 13 33 24 42 34c23 -23 18 -47 -1 -80c-13 15 -25 30 -41 46zM261 219c-30 0 -52 23 -52 54c0 15 5 29 16 40c18 -17 46 -47 74 -82
c-11 -9 -23 -12 -38 -12zM382 264c15 20 31 33 46 42c9 -15 25 -25 43 -25c28 0 50 23 50 54s-22 52 -50 52c-25 0 -44 -14 -60 -38c-2 27 -22 38 -49 37c6 10 9 21 9 34c0 35 -33 74 -95 74c-67 0 -109 -42 -109 -85c0 -29 10 -47 31 -69c-53 -18 -82 -49 -82 -91
c0 -53 49 -93 109 -93c42 0 76 14 104 45c33 -34 55 -45 85 -45c43 0 78 36 80 94l-7 2c-10 -17 -22 -29 -43 -29c-20 0 -37 12 -62 41zM286 124l-12 -2v-9h-7v-7h7v-20c0 -8 4 -13 12 -13s12 4 14 13l-5 2c-1 -5 -3 -7 -5 -7c-3 0 -4 2 -4 5v20h13v7h-13v11zM174 94
c0 -13 9 -21 21 -21s21 9 21 21s-9 20 -21 20s-21 -8 -21 -20zM203 94c0 -12 -3 -16 -8 -16s-8 4 -8 16c0 11 3 15 8 15s8 -4 8 -15zM219 81v-7h22v7h-4v15c0 6 3 10 7 10s6 -3 6 -7v-18h-4v-7h22v7h-6v19c0 8 -3 14 -12 14c-7 0 -11 -4 -14 -11v10h-17v-7h6v-25h-6zM379 93
c0 -8 -2 -13 -7 -13c-6 0 -8 5 -8 13c0 7 2 13 8 13c5 0 7 -5 7 -13zM125 81v-7h30v7h-10v16h4c5 0 5 -1 6 -8h7v23h-7c-1 -7 -1 -8 -6 -8h-4v18h12c7 0 9 -2 11 -13h8v20h-51v-7h7v-41h-7zM302 88v-14h7l1 4c3 -2 6 -5 13 -5c9 0 14 6 14 13c0 16 -24 10 -24 18
c0 2 2 4 5 4c4 0 7 -3 10 -7h7v13h-6l-2 -5c-2 3 -6 5 -11 5c-9 0 -14 -6 -14 -12c0 -16 24 -11 24 -19c0 -2 -2 -4 -5 -4c-5 0 -8 3 -12 9h-7zM352 125v-52h6l4 8c3 -5 7 -8 14 -8c12 0 16 12 16 21c0 12 -6 20 -15 20c-6 0 -11 -3 -13 -9v27h-18v-7h6zM405 65
c3 3 2 10 -5 10c-4 0 -7 -3 -7 -7c0 -5 4 -9 11 -9c9 0 14 6 18 16l13 31h5v7h-17v-7h5l-8 -20l-9 20h6v7h-25v-7h5s12 -23 16 -33c-1 -5 -4 -8 -8 -8zM294 39v3c0 10 3 12 6 12c2 0 3 -1 3 -1s-1 -1 -1 -3c0 -4 3 -6 6 -6v-5h-14zM464 33h-18v-7h6c-1 -3 -4 -7 -6 -9
c-4 4 -7 8 -12 13c7 3 11 6 11 12s-5 12 -14 12c-10 0 -17 -7 -17 -14c0 -5 2 -8 6 -12c-7 -2 -13 -7 -13 -15s6 -14 18 -14c6 0 11 2 15 6c4 -5 7 -6 12 -6c8 0 11 5 13 12l-5 1c-1 -4 -2 -5 -4 -5s-4 2 -6 5c3 4 6 8 9 14h5v7zM469 27c0 -17 11 -28 29 -28
c15 0 23 9 24 23h-8c-1 -9 -6 -16 -14 -16c-10 0 -16 7 -16 22c0 16 6 22 14 22s11 -4 15 -16h8v22h-8l-1 -6c-4 4 -9 7 -16 7c-14 0 -27 -12 -27 -30zM431 33c-4 4 -6 7 -6 10s2 5 5 5c4 0 6 -3 6 -6c0 -4 -2 -7 -5 -9zM340 18h26c1 13 -5 22 -19 22c-11 0 -20 -9 -20 -21
s8 -20 21 -20c11 0 16 6 18 14h-7c-1 -5 -4 -7 -9 -7c-7 0 -10 3 -10 12zM525 20c0 -13 9 -21 21 -21s21 9 21 21s-9 20 -21 20s-21 -8 -21 -20zM189 20c0 -13 9 -21 21 -21s21 9 21 21s-9 20 -21 20s-21 -8 -21 -20zM247 18h26c1 13 -5 22 -19 22c-11 0 -20 -9 -20 -21
s8 -20 21 -20c11 0 16 6 18 14h-7c-1 -5 -4 -7 -9 -7c-7 0 -10 3 -10 12zM340 23c0 9 3 12 7 12c5 0 7 -4 7 -12h-14zM554 20c0 -12 -3 -16 -8 -16s-8 4 -8 16c0 11 3 15 8 15s8 -4 8 -15zM218 20c0 -12 -3 -16 -8 -16s-8 4 -8 16c0 11 3 15 8 15s8 -4 8 -15zM247 23
c0 9 3 12 7 12c5 0 7 -4 7 -12h-14zM368 7v-7h26v7h-8v16c2 5 5 9 7 9v-1c0 -4 3 -6 6 -6c4 0 7 3 7 7c0 5 -3 8 -8 8s-9 -3 -12 -11v10h-18v-7h6v-25h-6zM276 7v-7h23v7h-5v25h14v-25h-5v-7h23v7h-6v52l-10 -2c-2 1 -6 2 -9 2c-10 0 -19 -6 -19 -19v-1h-7v-7h7v-25h-6z
M124 7v-7h29v7h-8v18h22v-18h-8v-7h29v7h-8v41h8v7h-29v-7h8v-16h-22v16h8v7h-29v-7h8v-41h-8zM437 9c-3 -2 -6 -3 -8 -3c-6 0 -10 4 -10 10c0 4 2 7 4 9c5 -5 9 -10 14 -16zM583 6c0 4 -3 7 -7 7s-7 -3 -7 -7s3 -7 7 -7s7 3 7 7z" />
    <glyph glyph-name="space" unicode=" " horiz-adv-x="320" 
 />
    <glyph glyph-name="uni00A0" unicode="&#xa0;" horiz-adv-x="320" 
 />
    <glyph glyph-name="emspace" unicode="&#x2003;" horiz-adv-x="1000" 
 />
    <glyph glyph-name="enspace" unicode="&#x2002;" horiz-adv-x="500" 
 />
    <glyph glyph-name="threeperemspace" unicode="&#x2004;" horiz-adv-x="333" 
 />
    <glyph glyph-name="fourperemspace" unicode="&#x2005;" horiz-adv-x="250" 
 />
    <glyph glyph-name="thinspace" unicode="&#x2009;" horiz-adv-x="133" 
 />
    <glyph glyph-name="hairspace" unicode="&#x200a;" horiz-adv-x="75" 
 />
    <glyph glyph-name="space.tab" horiz-adv-x="315" 
 />
    <glyph glyph-name="figurespace" unicode="&#x2007;" horiz-adv-x="630" 
 />
    <glyph glyph-name="NUL" horiz-adv-x="0" 
 />
    <glyph glyph-name="acute" unicode="&#xb4;" horiz-adv-x="528" 
d="M161 619l114 181l132 -57l-134 -124h-112z" />
    <glyph glyph-name="hungarumlaut" unicode="&#x2dd;" horiz-adv-x="528" 
d="M53 619l112 181l129 -57l-134 -124h-107zM242 619l114 181l129 -57l-135 -124h-108z" />
    <glyph glyph-name="grave" unicode="`" horiz-adv-x="528" 
d="M255 619l-134 124l132 57l114 -181h-112z" />
    <glyph glyph-name="caron.alt" horiz-adv-x="528" 
d="M212 615l11 213h110v-3l-61 -210h-60z" />
    <glyph glyph-name="circumflex" unicode="&#x2c6;" horiz-adv-x="528" 
d="M66 619l126 161h144l126 -161h-117l-82 69l-82 -69h-115z" />
    <glyph glyph-name="caron" unicode="&#x2c7;" horiz-adv-x="528" 
d="M462 780l-126 -161h-144l-126 161h117l82 -69l82 69h115z" />
    <glyph glyph-name="breve" unicode="&#x2d8;" horiz-adv-x="528" 
d="M264 617c-108 0 -183 59 -192 162h102c13 -37 38 -63 90 -63s77 26 90 63h102c-9 -103 -84 -162 -192 -162z" />
    <glyph glyph-name="tilde" unicode="&#x2dc;" horiz-adv-x="528" 
d="M348 619c-34 0 -67 12 -93 23c-24 9 -45 17 -61 17c-32 0 -45 -17 -59 -51l-82 25c24 87 56 141 127 141c34 0 67 -12 93 -23c24 -9 45 -18 61 -18c32 0 45 18 59 52l82 -25c-24 -87 -56 -141 -127 -141z" />
    <glyph glyph-name="macron" unicode="&#xaf;" horiz-adv-x="528" 
d="M79 625v106h370v-106h-370z" />
    <glyph glyph-name="dieresis" unicode="&#xa8;" horiz-adv-x="528" 
d="M84 619v137h147v-137h-147zM297 619v137h147v-137h-147z" />
    <glyph glyph-name="dotaccent" unicode="&#x2d9;" horiz-adv-x="528" 
d="M188 619v137h152v-137h-152z" />
    <glyph glyph-name="ring" unicode="&#x2da;" horiz-adv-x="528" 
d="M264 617c-69 0 -125 53 -125 120s56 121 125 121s125 -54 125 -121s-56 -120 -125 -120zM264 668c38 0 69 32 69 69c0 38 -31 69 -69 69s-69 -31 -69 -69c0 -37 31 -69 69 -69z" />
    <glyph glyph-name="commaaccent" unicode="&#x326;" horiz-adv-x="528" 
d="M189 -299l-8 46c54 5 81 31 78 74h-65v117h140v-99c0 -97 -51 -136 -145 -138z" />
    <glyph glyph-name="cedilla" unicode="&#xb8;" horiz-adv-x="528" 
d="M257 -178l-128 53l100 145h109z" />
    <glyph glyph-name="ogonek" unicode="&#x2db;" horiz-adv-x="528" 
d="M372 -103v-68c-16 -2 -31 -2 -44 -2c-90 0 -139 39 -139 89c0 34 18 63 46 95l101 -1c-27 -28 -37 -50 -37 -70c0 -30 27 -44 73 -43z" />
    <glyph glyph-name="uni0384" unicode="&#x384;" horiz-adv-x="528" 
d="M175 619l74 187l128 -57l-104 -130h-98z" />
    <glyph glyph-name="uni0385" unicode="&#x385;" horiz-adv-x="528" 
d="M194 619l48 213l122 -27l-87 -186h-83zM38 619v135h129v-135h-129zM361 619v135h129v-135h-129z" />
    <glyph glyph-name="uni0387" unicode="&#x387;" horiz-adv-x="312" 
d="M75 394v162h162v-162h-162z" />
    <glyph glyph-name="descendercyrillic" horiz-adv-x="528" 
d="M192 11h100c30 -29 48 -57 48 -90c0 -57 -49 -94 -139 -94c-13 0 -30 1 -46 3v67h4c43 -2 71 13 71 43c0 20 -10 42 -38 71z" />
    <glyph glyph-name="acute.cap" horiz-adv-x="528" 
d="M155 786l124 161l132 -58l-140 -103h-116z" />
    <glyph glyph-name="hungarumlaut.cap" horiz-adv-x="528" 
d="M238 786l124 161l127 -58l-139 -103h-112zM44 786l124 161l127 -58l-140 -103h-111z" />
    <glyph glyph-name="grave.cap" horiz-adv-x="528" 
d="M371 786h-116l-140 103l132 58z" />
    <glyph glyph-name="circumflex.cap" horiz-adv-x="528" 
d="M61 786l131 150h144l131 -150h-122l-82 58l-82 -58h-120z" />
    <glyph glyph-name="caron.cap" horiz-adv-x="528" 
d="M467 936l-131 -150h-144l-131 150h122l82 -58l82 58h120z" />
    <glyph glyph-name="breve.cap" horiz-adv-x="528" 
d="M264 784c-108 0 -185 54 -194 152h104c13 -33 38 -52 90 -52s77 19 90 52h104c-9 -98 -86 -152 -194 -152z" />
    <glyph glyph-name="tilde.cap" horiz-adv-x="528" 
d="M351 786c-34 0 -69 12 -99 24c-25 9 -45 16 -61 16c-32 0 -45 -17 -60 -51l-82 26c24 86 57 140 128 140c34 0 69 -12 99 -24c25 -9 45 -17 61 -17c32 0 45 18 60 51l81 -25c-23 -86 -56 -140 -127 -140z" />
    <glyph glyph-name="macron.cap" horiz-adv-x="528" 
d="M69 792v108h390v-108h-390z" />
    <glyph glyph-name="dieresis.cap" horiz-adv-x="528" 
d="M78 786v129h148v-129h-148zM302 786v129h148v-129h-148z" />
    <glyph glyph-name="dotaccent.cap" horiz-adv-x="528" 
d="M188 786v129h152v-129h-152z" />
    <glyph glyph-name="ring.cap" horiz-adv-x="528" 
d="M264 784c-69 0 -128 46 -128 113s59 114 128 114s128 -47 128 -114s-59 -113 -128 -113zM264 839c40 0 66 26 66 58c0 33 -26 59 -66 59s-66 -26 -66 -59c0 -32 26 -58 66 -58z" />
    <glyph glyph-name="uni0384.cap" horiz-adv-x="528" 
d="M188 512l11 216h146l-79 -216h-78z" />
    <glyph glyph-name="commaaccent.rot" horiz-adv-x="528" 
d="M339 856l8 -46c-54 -6 -81 -31 -78 -74h65v-117h-140v98c0 97 51 136 145 139z" />
    <glyph glyph-name="acute.altlc" horiz-adv-x="528" 
d="M158 893l122 151l130 -58l-140 -93h-112z" />
    <glyph glyph-name="acute.altuc" horiz-adv-x="528" 
d="M154 915l130 141l131 -58l-145 -83h-116z" />
    <glyph glyph-name="caron.alt.cap" horiz-adv-x="528" 
d="M212 615l11 213h110v-3l-61 -210h-60z" />
    <glyph glyph-name="cedilla.cap" horiz-adv-x="528" 
d="M257 -178l-128 53l100 145h109z" />
    <glyph glyph-name="commaaccent.cap" horiz-adv-x="528" 
d="M189 -299l-8 46c54 5 81 31 78 74h-65v117h140v-99c0 -97 -51 -136 -145 -138z" />
    <glyph glyph-name="ogonek.cap" horiz-adv-x="528" 
d="M372 -103v-68c-16 -2 -31 -2 -44 -2c-90 0 -139 39 -139 89c0 34 18 63 46 95l101 -1c-27 -28 -37 -50 -37 -70c0 -30 27 -44 73 -43z" />
    <glyph glyph-name="uni0385.cap" horiz-adv-x="528" 
d="M194 619l48 213l122 -27l-87 -186h-83zM38 619v135h129v-135h-129zM361 619v135h129v-135h-129z" />
    </font>
</defs>
</svg>
