<?xml version="1.0" standalone="no"?>
<!DOCTYPE svg PUBLIC "-//W3C//DTD SVG 1.1//EN" "http://www.w3.org/Graphics/SVG/1.1/DTD/svg11.dtd" >
<svg xmlns="http://www.w3.org/2000/svg" xmlns:xlink="http://www.w3.org/1999/xlink" version="1.1">
<metadata>
Created by FontForge 20190801 at Tue Apr 21 18:02:58 2015
 By Jimmy Wärting
Copyright C 2010, 2014 Hoefler &#38; Co. http:www.typography.com
</metadata>
<defs>
<font id="GothamSSm-Black" horiz-adv-x="630" >
  <font-face 
    font-family="Gotham SSm"
    font-weight="450"
    font-stretch="normal"
    units-per-em="1000"
    panose-1="0 0 0 0 0 0 0 0 0 0"
    ascent="800"
    descent="-200"
    x-height="562"
    cap-height="728"
    bbox="-234 -323 1300 1079"
    underline-thickness="50"
    underline-position="-100"
    stemh="168"
    stemv="192"
    unicode-range="U+0020-FB04"
  />
<missing-glyph horiz-adv-x="500" 
d="M0 -200v1000h500v-1000h-500zM71 750l179 -390l179 390h-358zM450 676l-172 -376l172 -376v752zM50 -76l172 376l-172 376v-752zM250 240l-179 -390h358z" />
    <glyph glyph-name="f_f" unicode="ff" horiz-adv-x="839" 
d="M510 0v408h-66v150h66v17c0 64 15 111 47 144c33 33 79 47 144 47c58 0 95 -6 125 -15v-138c-23 7 -45 12 -73 12c-37 0 -57 -17 -57 -55v-15h129v-147h-125v-408h-190zM94 0v408h-66v150h66v17c0 64 15 111 47 144c33 33 79 47 144 47c58 0 95 -6 125 -15v-138
c-23 7 -45 12 -73 12c-37 0 -57 -17 -57 -55v-15h129v-147h-125v-408h-190z" />
    <glyph glyph-name="fi" unicode="fi" horiz-adv-x="736" 
d="M477 615v144h197v-144h-197zM94 0v408h-66v150h66v17c0 64 15 111 47 144c33 33 79 47 144 47c58 0 95 -6 125 -15v-138c-23 7 -45 12 -73 12c-37 0 -57 -17 -57 -55v-15h129v-147h-125v-408h-190zM481 0v562h189v-562h-189z" />
    <glyph glyph-name="fl" unicode="fl" horiz-adv-x="736" 
d="M481 0v759h189v-759h-189zM94 0v408h-66v150h66v17c0 64 15 111 47 144c33 33 79 47 144 47c58 0 95 -6 125 -15v-138c-23 7 -45 12 -73 12c-37 0 -57 -17 -57 -55v-15h129v-147h-125v-408h-190z" />
    <glyph glyph-name="f_f_i" unicode="ffi" horiz-adv-x="1152" 
d="M893 615v144h197v-144h-197zM510 0v408h-66v150h66v17c0 64 15 111 47 144c33 33 79 47 144 47c58 0 95 -6 125 -15v-138c-23 7 -45 12 -73 12c-37 0 -57 -17 -57 -55v-15h129v-147h-125v-408h-190zM94 0v408h-66v150h66v17c0 64 15 111 47 144c33 33 79 47 144 47
c58 0 95 -6 125 -15v-138c-23 7 -45 12 -73 12c-37 0 -57 -17 -57 -55v-15h129v-147h-125v-408h-190zM897 0v562h189v-562h-189z" />
    <glyph glyph-name="f_f_l" unicode="ffl" horiz-adv-x="1152" 
d="M897 0v759h189v-759h-189zM510 0v408h-66v150h66v17c0 64 15 111 47 144c33 33 79 47 144 47c58 0 95 -6 125 -15v-138c-23 7 -45 12 -73 12c-37 0 -57 -17 -57 -55v-15h129v-147h-125v-408h-190zM94 0v408h-66v150h66v17c0 64 15 111 47 144c33 33 79 47 144 47
c58 0 95 -6 125 -15v-138c-23 7 -45 12 -73 12c-37 0 -57 -17 -57 -55v-15h129v-147h-125v-408h-190z" />
    <glyph glyph-name=".notdef" horiz-adv-x="500" 
d="M0 -200v1000h500v-1000h-500zM71 750l179 -390l179 390h-358zM450 676l-172 -376l172 -376v752zM50 -76l172 376l-172 376v-752zM250 240l-179 -390h358z" />
    <glyph glyph-name="A" unicode="A" horiz-adv-x="834" 
d="M330 291h169l-84 212zM14 0l310 733h185l310 -733h-206l-55 137h-287l-55 -137h-202z" />
    <glyph glyph-name="B" unicode="B" horiz-adv-x="753" 
d="M73 0v728h366c90 0 155 -23 197 -65c30 -30 48 -70 48 -119v-3c0 -83 -47 -132 -110 -160c88 -31 144 -80 144 -178v-2c0 -127 -104 -201 -276 -201h-369zM493 503v2c0 42 -33 65 -95 65h-136v-133h131c63 0 100 21 100 66zM524 229c0 41 -32 68 -102 68h-160v-139h162
c64 0 100 24 100 69v2z" />
    <glyph glyph-name="C" unicode="C" horiz-adv-x="769" 
d="M422 -14c-209 0 -375 160 -375 376v2c0 211 161 378 383 378c146 0 239 -59 304 -143l-142 -118c-44 51 -94 85 -164 85c-107 0 -181 -90 -181 -200v-2c0 -113 74 -202 181 -202c77 0 123 35 169 88l142 -107c-70 -91 -160 -157 -317 -157z" />
    <glyph glyph-name="D" unicode="D" horiz-adv-x="808" 
d="M73 0v728h282c253 0 405 -151 405 -360v-2c0 -209 -153 -366 -408 -366h-279zM357 556h-91v-384h91c123 0 205 71 205 190v2c0 120 -82 192 -205 192z" />
    <glyph glyph-name="E" unicode="E" horiz-adv-x="703" 
d="M73 0v728h578v-165h-387v-119h348v-155h-348v-124h392v-165h-583z" />
    <glyph glyph-name="F" unicode="F" horiz-adv-x="684" 
d="M73 0v728h576v-171h-383v-130h345v-163h-345v-264h-193z" />
    <glyph glyph-name="G" unicode="G" horiz-adv-x="811" 
d="M440 -14c-227 0 -393 156 -393 376v2c0 211 165 378 390 378c128 0 216 -38 293 -104l-115 -139c-53 44 -104 70 -179 70c-107 0 -190 -91 -190 -205v-2c0 -121 83 -208 201 -208c52 0 92 11 124 33v91h-146v146h330v-325c-76 -64 -182 -113 -315 -113z" />
    <glyph glyph-name="H" unicode="H" horiz-adv-x="799" 
d="M73 0v728h193v-276h267v276h193v-728h-193v280h-267v-280h-193z" />
    <glyph glyph-name="I" unicode="I" horiz-adv-x="350" 
d="M78 0v728h194v-728h-194z" />
    <glyph glyph-name="J" unicode="J" horiz-adv-x="595" 
d="M262 -12c-124 0 -201 52 -252 120l124 121c37 -44 72 -69 118 -69c53 0 86 35 86 106v462h193v-465c0 -90 -23 -155 -71 -203c-47 -47 -116 -72 -198 -72z" />
    <glyph glyph-name="K" unicode="K" horiz-adv-x="767" 
d="M73 0v728h193v-300l259 300h231l-280 -312l290 -416h-232l-192 278l-76 -82v-196h-193z" />
    <glyph glyph-name="L" unicode="L" horiz-adv-x="650" 
d="M73 0v728h193v-557h355v-171h-548z" />
    <glyph glyph-name="M" unicode="M" horiz-adv-x="911" 
d="M73 0v728h205l177 -287l178 287h205v-728h-193v430l-190 -291h-4l-188 289v-428h-190z" />
    <glyph glyph-name="N" unicode="N" horiz-adv-x="825" 
d="M73 0v728h180l308 -397v397h191v-728h-168l-320 412v-412h-191z" />
    <glyph glyph-name="O" unicode="O" horiz-adv-x="876" 
d="M437 -14c-225 0 -390 167 -390 376v2c0 209 167 378 392 378s390 -167 390 -376v-2c0 -209 -167 -378 -392 -378zM439 161c115 0 191 92 191 201v2c0 109 -78 203 -193 203c-114 0 -191 -92 -191 -201v-2c0 -109 78 -203 193 -203z" />
    <glyph glyph-name="P" unicode="P" horiz-adv-x="707" 
d="M73 0v728h310c181 0 297 -96 297 -255v-2c0 -171 -132 -261 -309 -261h-105v-210h-193zM266 365h103c73 0 118 40 118 98v2c0 65 -46 98 -120 98h-101v-198z" />
    <glyph glyph-name="Q" unicode="Q" horiz-adv-x="876" 
d="M840 92l-102 -114l-81 72c-62 -41 -137 -64 -220 -64c-225 0 -390 167 -390 376v2c0 209 167 378 392 378s390 -167 390 -376v-2c0 -77 -23 -149 -64 -209zM439 158c28 0 54 5 77 15l-103 89l101 114l104 -93c8 24 13 50 13 78v2c0 109 -79 204 -194 204
c-114 0 -191 -94 -191 -203v-2c0 -109 78 -204 193 -204z" />
    <glyph glyph-name="Q.alt" horiz-adv-x="876" 
d="M642 -95l-97 96c-34 -9 -70 -14 -108 -14c-225 0 -390 166 -390 375v2c0 209 167 378 392 378s390 -167 390 -376v-2c0 -102 -40 -194 -107 -262l189 -193v-4h-269zM439 161c115 0 191 92 191 201v2c0 109 -78 203 -193 203c-114 0 -191 -92 -191 -201v-2
c0 -109 78 -203 193 -203z" />
    <glyph glyph-name="R" unicode="R" horiz-adv-x="757" 
d="M266 377h140c70 0 111 36 111 90v2c0 60 -43 91 -113 91h-138v-183zM73 0v728h342c107 0 183 -28 232 -78c42 -41 64 -97 64 -168v-3c0 -113 -60 -186 -151 -224l175 -255h-224l-148 223h-97v-223h-193z" />
    <glyph glyph-name="S" unicode="S" horiz-adv-x="684" 
d="M354 -12c-126 0 -246 40 -335 119l109 130c71 -56 148 -87 232 -87c57 0 88 20 88 54v2c0 33 -24 50 -128 75c-154 35 -268 78 -268 227v2c0 134 107 230 277 230c119 0 215 -34 293 -96l-97 -138c-66 47 -137 72 -201 72c-51 0 -77 -22 -77 -50v-2c0 -37 26 -51 133 -77
c163 -36 263 -90 263 -225v-2c0 -148 -117 -234 -289 -234z" />
    <glyph glyph-name="T" unicode="T" horiz-adv-x="692" 
d="M249 0v557h-218v171h630v-171h-218v-557h-194z" />
    <glyph glyph-name="U" unicode="U" horiz-adv-x="796" 
d="M396 -13c-204 0 -332 106 -332 331v410h195v-406c0 -108 54 -160 139 -160s139 50 139 154v412h195v-405c0 -232 -132 -336 -336 -336z" />
    <glyph glyph-name="V" unicode="V" horiz-adv-x="796" 
d="M309 -5l-295 733h215l171 -471l171 471h211l-295 -733h-178z" />
    <glyph glyph-name="W" unicode="W" horiz-adv-x="1171" 
d="M267 -5l-244 733h205l131 -436l145 438h167l145 -438l131 436h201l-244 -733h-169l-150 430l-149 -430h-169z" />
    <glyph glyph-name="X" unicode="X" horiz-adv-x="769" 
d="M522 728h217l-240 -355l251 -373h-223l-144 226l-146 -226h-217l250 370l-240 358h223l133 -212z" />
    <glyph glyph-name="Y" unicode="Y" horiz-adv-x="758" 
d="M283 0v275l-278 453h221l154 -271l157 271h217l-278 -449v-279h-193z" />
    <glyph glyph-name="Z" unicode="Z" horiz-adv-x="736" 
d="M51 0v141l372 423h-360v164h623v-141l-372 -423h372v-164h-635z" />
    <glyph glyph-name="a" unicode="a" 
d="M287 108c61 0 104 38 104 94v26c-22 10 -51 17 -82 17c-60 0 -95 -28 -95 -72v-2c0 -39 31 -63 73 -63zM221 -12c-107 0 -189 62 -189 173v2c0 118 89 177 221 177c53 0 102 -10 136 -22v9c0 61 -38 94 -114 94c-60 0 -105 -11 -155 -31l-41 136c63 26 129 43 226 43
c98 0 165 -23 209 -67c42 -42 60 -101 60 -179v-323h-186v59c-39 -43 -92 -71 -167 -71z" />
    <glyph glyph-name="a.alt" horiz-adv-x="710" 
d="M345 147c66 0 119 54 119 133v2c0 78 -53 133 -119 133s-120 -54 -120 -133v-2c0 -79 54 -133 120 -133zM289 -12c-133 0 -250 109 -250 291v2c0 183 116 292 249 292c85 0 136 -38 173 -81v70h189v-562h-189v76c-39 -48 -88 -88 -172 -88z" />
    <glyph glyph-name="b" unicode="b" horiz-adv-x="710" 
d="M422 -12c-85 0 -135 38 -172 81v-69h-189v759h189v-273c38 48 88 87 171 87c133 0 250 -109 250 -290v-2c0 -184 -116 -293 -249 -293zM366 147c65 0 119 54 119 133v2c0 78 -54 133 -119 133c-66 0 -119 -55 -119 -133v-2c0 -78 53 -133 119 -133z" />
    <glyph glyph-name="c" unicode="c" horiz-adv-x="600" 
d="M331 -13c-170 0 -294 132 -294 291v2c0 159 123 293 300 293c113 0 187 -47 236 -119l-126 -101c-29 37 -60 60 -109 60c-68 0 -116 -59 -116 -131v-2c0 -75 48 -133 118 -133c49 0 80 22 112 58l124 -95c-52 -74 -124 -123 -245 -123z" />
    <glyph glyph-name="d" unicode="d" horiz-adv-x="710" 
d="M345 147c66 0 119 54 119 133v2c0 78 -53 133 -119 133s-120 -54 -120 -133v-2c0 -79 54 -133 120 -133zM289 -12c-133 0 -250 109 -250 291v2c0 183 116 292 249 292c85 0 136 -38 173 -81v267h189v-759h-189v76c-39 -48 -88 -88 -172 -88z" />
    <glyph glyph-name="e" unicode="e" horiz-adv-x="639" 
d="M337 -13c-175 0 -300 118 -300 291v2c0 163 117 293 283 293c192 0 281 -143 281 -307c0 -12 -1 -27 -2 -40h-379c16 -63 62 -96 125 -96c49 0 86 18 127 57l105 -88c-54 -68 -131 -112 -240 -112zM218 327h204c-8 64 -45 105 -102 105c-55 0 -92 -42 -102 -105z" />
    <glyph glyph-name="f" unicode="f" horiz-adv-x="424" 
d="M94 0v408h-66v150h66v17c0 64 15 111 47 144c33 33 79 47 144 47c58 0 95 -6 125 -15v-138c-23 7 -45 12 -73 12c-37 0 -57 -17 -57 -55v-15h129v-147h-125v-408h-190z" />
    <glyph glyph-name="g" unicode="g" horiz-adv-x="710" 
d="M344 197c70 0 120 47 120 113v2c0 65 -51 113 -120 113s-119 -48 -119 -114v-2c0 -66 50 -112 119 -112zM331 -168c-104 0 -195 22 -274 63l62 128c60 -33 119 -52 195 -52c100 0 149 49 149 141v23c-41 -49 -92 -86 -174 -86c-137 0 -250 98 -250 261v2
c0 163 115 261 244 261c85 0 135 -34 178 -79v68h189v-429c0 -102 -23 -174 -72 -223c-52 -52 -131 -78 -247 -78z" />
    <glyph glyph-name="h" unicode="h" horiz-adv-x="665" 
d="M61 0v759h189v-275c36 47 87 89 167 89c120 0 192 -79 192 -207v-366h-190v306c0 64 -32 99 -83 99c-50 0 -86 -35 -86 -99v-306h-189z" />
    <glyph glyph-name="i" unicode="i" horiz-adv-x="321" 
d="M62 615v144h197v-144h-197zM66 0v562h189v-562h-189z" />
    <glyph glyph-name="j" unicode="j" horiz-adv-x="322" 
d="M62 615v144h197v-144h-197zM59 -170c-31 0 -55 4 -79 8v129c10 -1 19 -2 28 -2c37 0 58 18 58 66v531h189v-540c0 -139 -71 -192 -196 -192z" />
    <glyph glyph-name="k" unicode="k" horiz-adv-x="633" 
d="M61 0v759h189v-389l160 192h216l-199 -224l205 -338h-211l-119 200l-52 -60v-140h-189z" />
    <glyph glyph-name="l" unicode="l" horiz-adv-x="321" 
d="M66 0v759h189v-759h-189z" />
    <glyph glyph-name="m" unicode="m" horiz-adv-x="1013" 
d="M61 0v562h189v-78c36 47 88 89 167 89c75 0 131 -32 161 -90c49 56 107 90 187 90c119 0 192 -74 192 -205v-368h-190v307c0 64 -31 98 -80 98s-84 -34 -84 -98v-307h-189v307c0 64 -31 98 -81 98c-49 0 -83 -34 -83 -98v-307h-189z" />
    <glyph glyph-name="n" unicode="n" horiz-adv-x="665" 
d="M61 0v562h189v-79c36 46 87 90 167 90c120 0 192 -79 192 -207v-366h-190v306c0 64 -32 99 -83 99c-50 0 -86 -35 -86 -99v-306h-189z" />
    <glyph glyph-name="o" unicode="o" horiz-adv-x="692" 
d="M345 -13c-178 0 -308 131 -308 291v2c0 160 131 293 310 293c178 0 308 -131 308 -291v-2c0 -160 -131 -293 -310 -293zM347 147c75 0 123 60 123 131v2c0 72 -52 133 -125 133c-76 0 -123 -60 -123 -131v-2c0 -72 52 -133 125 -133z" />
    <glyph glyph-name="p" unicode="p" horiz-adv-x="710" 
d="M366 147c65 0 119 54 119 133v2c0 78 -54 133 -119 133c-66 0 -119 -55 -119 -133v-2c0 -78 53 -133 119 -133zM61 -166v728h189v-76c38 48 88 87 171 87c133 0 250 -109 250 -290v-2c0 -184 -116 -293 -249 -293c-85 0 -135 38 -172 81v-235h-189z" />
    <glyph glyph-name="q" unicode="q" horiz-adv-x="710" 
d="M461 -166v242c-39 -48 -88 -88 -172 -88c-133 0 -250 109 -250 291v2c0 183 116 292 249 292c85 0 136 -38 173 -81v70h189v-728h-189zM345 147c66 0 119 54 119 133v2c0 78 -53 133 -119 133s-120 -54 -120 -133v-2c0 -79 54 -133 120 -133z" />
    <glyph glyph-name="r" unicode="r" horiz-adv-x="451" 
d="M61 0v562h189v-114c32 77 84 127 178 123v-199h-15c-103 0 -163 -60 -163 -191v-181h-189z" />
    <glyph glyph-name="s" unicode="s" horiz-adv-x="540" 
d="M278 -12c-91 0 -183 27 -260 84l73 116c63 -43 132 -65 189 -65c37 0 54 12 54 32v2c0 25 -37 35 -96 52c-105 28 -193 65 -193 177v2c0 118 95 184 221 184c80 0 163 -24 227 -65l-66 -122c-57 33 -120 53 -163 53c-32 0 -48 -13 -48 -30v-2c0 -24 37 -35 96 -54
c104 -29 193 -68 193 -175v-2c0 -124 -93 -187 -227 -187z" />
    <glyph glyph-name="t" unicode="t" horiz-adv-x="452" 
d="M277 -11c-114 0 -183 49 -183 182v237h-67v154h67v142h189v-142h131v-154h-131v-201c0 -39 17 -55 53 -55c27 0 52 6 76 19v-149c-35 -20 -81 -33 -135 -33z" />
    <glyph glyph-name="u" unicode="u" horiz-adv-x="665" 
d="M248 -12c-120 0 -192 79 -192 207v367h190v-306c0 -65 33 -99 83 -99s86 34 86 99v306h189v-562h-189v78c-36 -47 -87 -90 -167 -90z" />
    <glyph glyph-name="v" unicode="v" horiz-adv-x="653" 
d="M240 -4l-224 566h200l111 -338l113 338h196l-223 -566h-173z" />
    <glyph glyph-name="w" unicode="w" horiz-adv-x="903" 
d="M191 -4l-172 566h187l77 -295l90 297h157l92 -298l79 296h183l-174 -566h-164l-95 302l-97 -302h-163z" />
    <glyph glyph-name="x" unicode="x" horiz-adv-x="620" 
d="M223 562l88 -146l88 146h200l-186 -277l191 -285h-204l-92 152l-93 -152h-200l191 283l-186 279h203z" />
    <glyph glyph-name="y" unicode="y" horiz-adv-x="654" 
d="M332 214l109 348h194l-207 -554c-47 -128 -99 -178 -208 -178c-67 0 -122 19 -172 47l59 133c30 -17 61 -28 82 -28c22 0 36 6 49 25l-220 555h198z" />
    <glyph glyph-name="z" unicode="z" horiz-adv-x="594" 
d="M41 0v126l266 285h-256v151h504v-126l-266 -285h266v-151h-514z" />
    <glyph glyph-name="uni0391" unicode="&#x391;" horiz-adv-x="834" 
d="M330 291h169l-84 212zM14 0l310 733h185l310 -733h-206l-55 137h-287l-55 -137h-202z" />
    <glyph glyph-name="uni0392" unicode="&#x392;" horiz-adv-x="753" 
d="M73 0v728h366c90 0 155 -23 197 -65c30 -30 48 -70 48 -119v-3c0 -83 -47 -132 -110 -160c88 -31 144 -80 144 -178v-2c0 -127 -104 -201 -276 -201h-369zM493 503v2c0 42 -33 65 -95 65h-136v-133h131c63 0 100 21 100 66zM524 229c0 41 -32 68 -102 68h-160v-139h162
c64 0 100 24 100 69v2z" />
    <glyph glyph-name="uni0393" unicode="&#x393;" horiz-adv-x="650" 
d="M73 0v728h548v-169h-355v-559h-193z" />
    <glyph glyph-name="uni0394" unicode="&#x394;" horiz-adv-x="827" 
d="M56 0l-21 145l275 588h208l274 -588l-20 -145h-716zM411 537l-161 -369h321z" />
    <glyph glyph-name="uni0395" unicode="&#x395;" horiz-adv-x="703" 
d="M73 0v728h578v-165h-387v-119h348v-155h-348v-124h392v-165h-583z" />
    <glyph glyph-name="uni0396" unicode="&#x396;" horiz-adv-x="736" 
d="M51 0v141l372 423h-360v164h623v-141l-372 -423h372v-164h-635z" />
    <glyph glyph-name="uni0397" unicode="&#x397;" horiz-adv-x="799" 
d="M73 0v728h193v-276h267v276h193v-728h-193v280h-267v-280h-193z" />
    <glyph glyph-name="uni0398" unicode="&#x398;" horiz-adv-x="878" 
d="M438 -14c-225 0 -391 167 -391 376v2c0 209 168 378 393 378s391 -167 391 -376v-2c0 -209 -168 -378 -393 -378zM440 158c122 0 200 86 200 204v2c0 118 -79 206 -202 206s-200 -86 -200 -204v-2c0 -118 79 -206 202 -206zM567 441v-149h-256v149h256z" />
    <glyph glyph-name="uni0399" unicode="&#x399;" horiz-adv-x="350" 
d="M78 0v728h194v-728h-194z" />
    <glyph glyph-name="uni039A" unicode="&#x39a;" horiz-adv-x="767" 
d="M73 0v728h193v-300l259 300h231l-280 -312l290 -416h-232l-192 278l-76 -82v-196h-193z" />
    <glyph glyph-name="uni039B" unicode="&#x39b;" horiz-adv-x="814" 
d="M495 733l304 -733h-214l-181 465l-180 -465h-210l305 733h176z" />
    <glyph glyph-name="uni039C" unicode="&#x39c;" horiz-adv-x="911" 
d="M73 0v728h205l177 -287l178 287h205v-728h-193v430l-190 -291h-4l-188 289v-428h-190z" />
    <glyph glyph-name="uni039D" unicode="&#x39d;" horiz-adv-x="825" 
d="M73 0v728h180l308 -397v397h191v-728h-168l-320 412v-412h-191z" />
    <glyph glyph-name="uni039E" unicode="&#x39e;" horiz-adv-x="695" 
d="M643 561h-591v167h591v-167zM618 288h-542v157h542v-157zM648 0h-601v167h601v-167z" />
    <glyph glyph-name="uni039E.alt" horiz-adv-x="786" 
d="M739 161v-161h-692v161h254v129h-225v153h225v124h-249v161h682v-161h-250v-124h226v-153h-226v-129h255z" />
    <glyph glyph-name="uni039F" unicode="&#x39f;" horiz-adv-x="876" 
d="M437 -14c-225 0 -390 167 -390 376v2c0 209 167 378 392 378s390 -167 390 -376v-2c0 -209 -167 -378 -392 -378zM439 161c115 0 191 92 191 201v2c0 109 -78 203 -193 203c-114 0 -191 -92 -191 -201v-2c0 -109 78 -203 193 -203z" />
    <glyph glyph-name="uni03A0" unicode="&#x3a0;" horiz-adv-x="794" 
d="M73 0v728h648v-728h-193v556h-262v-556h-193z" />
    <glyph glyph-name="uni03A1" unicode="&#x3a1;" horiz-adv-x="707" 
d="M73 0v728h310c181 0 297 -96 297 -255v-2c0 -171 -132 -261 -309 -261h-105v-210h-193zM266 365h103c73 0 118 40 118 98v2c0 65 -46 98 -120 98h-101v-198z" />
    <glyph glyph-name="uni03A3" unicode="&#x3a3;" horiz-adv-x="723" 
d="M529 364l-211 -201l358 1v-164h-623v139l234 224l-231 226v139h614v-164l-348 1z" />
    <glyph glyph-name="uni03A4" unicode="&#x3a4;" horiz-adv-x="692" 
d="M249 0v557h-218v171h630v-171h-218v-557h-194z" />
    <glyph glyph-name="uni03A5" unicode="&#x3a5;" horiz-adv-x="758" 
d="M283 0v275l-278 453h221l154 -271l157 271h217l-278 -449v-279h-193z" />
    <glyph glyph-name="uni03A6" unicode="&#x3a6;" horiz-adv-x="1036" 
d="M421 -12v70c-240 4 -378 127 -378 306v1c0 176 137 303 378 308v67h194v-67c240 -4 378 -127 378 -307v-1c0 -176 -137 -302 -378 -307v-70h-194zM798 366c0 80 -58 144 -187 145v-292c129 0 187 66 187 146v1zM239 365c0 -82 57 -146 187 -146v292
c-130 0 -187 -65 -187 -145v-1z" />
    <glyph glyph-name="uni03A7" unicode="&#x3a7;" horiz-adv-x="769" 
d="M522 728h217l-240 -355l251 -373h-223l-144 226l-146 -226h-217l250 370l-240 358h223l133 -212z" />
    <glyph glyph-name="uni03A8" unicode="&#x3a8;" horiz-adv-x="940" 
d="M880 728v-256c0 -208 -115 -317 -312 -329v-143h-196v143c-198 11 -312 120 -312 325v260h191v-256c0 -102 40 -146 126 -152v408h187v-407c85 6 125 49 125 147v260h191z" />
    <glyph glyph-name="uni03A9" unicode="&#x3a9;" horiz-adv-x="894" 
d="M449 742c241 0 381 -147 381 -331v-1c0 -119 -63 -198 -140 -254l156 1v-157h-341v155c72 52 126 115 126 224v1c0 108 -67 188 -184 187c-114 0 -183 -78 -183 -186v-1c0 -103 49 -170 126 -225v-155h-341v157l154 -1c-76 58 -138 135 -138 255v1c0 175 142 331 384 330
z" />
    <glyph glyph-name="uni03B1" unicode="&#x3b1;" horiz-adv-x="763" 
d="M345 147c66 0 119 54 119 133v2c0 78 -53 133 -119 133s-120 -54 -120 -133v-2c0 -79 54 -133 120 -133zM739 146v-138c-23 -8 -58 -15 -101 -15c-79 0 -128 27 -152 87c-41 -55 -101 -92 -188 -92c-143 0 -259 109 -259 291v2c0 183 116 292 249 292
c85 0 136 -38 173 -81v70h189v-362c0 -42 19 -57 56 -57c12 0 22 1 33 3z" />
    <glyph glyph-name="uni03B2" unicode="&#x3b2;" horiz-adv-x="701" 
d="M246 476v-41h81c82 0 128 37 128 95c0 47 -33 84 -94 84c-75 0 -115 -53 -115 -138zM331 313h-85v-13c0 -112 55 -157 136 -157c63 0 95 36 95 80c0 57 -42 90 -146 90zM248 -166h-187v636c0 186 106 298 303 298c181 0 273 -96 273 -213v-1c0 -88 -44 -151 -128 -177
c96 -27 155 -80 155 -181v-1c0 -120 -88 -206 -224 -205c-91 0 -153 35 -192 82v-238z" />
    <glyph glyph-name="uni03B3" unicode="&#x3b3;" horiz-adv-x="653" 
d="M636 562l-215 -543v-185h-189v184l-216 544h201l110 -336l112 336h197z" />
    <glyph glyph-name="uni03B4" unicode="&#x3b4;" horiz-adv-x="683" 
d="M580 612l-210 4l84 -58c127 -89 190 -168 190 -291c0 -160 -118 -280 -305 -280c-178 0 -302 116 -302 275c0 122 58 197 190 274l-109 90v133h462v-147zM351 437h-1c-96 -59 -131 -109 -130 -170c0 -68 48 -123 119 -123c73 0 121 57 121 122c0 59 -23 98 -109 171z" />
    <glyph glyph-name="uni03B5" unicode="&#x3b5;" horiz-adv-x="611" 
d="M438 221h-132c-57 0 -81 -15 -81 -42v-1c0 -29 29 -46 92 -46c67 0 140 20 203 52l63 -125c-79 -45 -171 -71 -275 -71c-175 0 -269 64 -269 166v1c0 65 44 106 105 128c-60 24 -93 64 -93 121v1c0 96 87 167 267 167c110 0 190 -24 261 -68l-71 -127
c-48 30 -116 51 -182 51c-61 0 -89 -19 -89 -44v-1c0 -29 21 -42 73 -42h128v-120z" />
    <glyph glyph-name="uni03B6" unicode="&#x3b6;" horiz-adv-x="592" 
d="M380 -141v125l-84 12c-178 26 -261 92 -261 217c0 88 34 146 116 230l161 164h-236v152h477v-141l-281 -288c-36 -38 -49 -61 -49 -93c0 -46 35 -69 103 -79l228 -33v-266h-174z" />
    <glyph glyph-name="uni03B7" unicode="&#x3b7;" horiz-adv-x="665" 
d="M609 -166h-190v472c0 64 -32 99 -83 99c-50 0 -86 -35 -86 -99v-306h-189v562h189v-79c36 46 87 90 167 90c120 0 192 -79 192 -207v-532z" />
    <glyph glyph-name="uni03B8" unicode="&#x3b8;" horiz-adv-x="705" 
d="M351 -13c-184 0 -305 149 -305 376v27c0 227 124 376 308 376c183 0 305 -149 305 -376v-26c0 -227 -124 -377 -308 -377zM352 612c-72 0 -120 -57 -127 -163h254c-8 106 -56 163 -127 163zM353 142c71 0 120 57 127 165h-255c7 -108 55 -165 128 -165z" />
    <glyph glyph-name="uni03B9" unicode="&#x3b9;" horiz-adv-x="361" 
d="M58 182v380h190v-362c0 -42 19 -57 56 -57c12 0 22 1 33 3v-139c-24 -7 -61 -15 -104 -15c-118 0 -175 58 -175 190z" />
    <glyph glyph-name="uni03BA" unicode="&#x3ba;" horiz-adv-x="638" 
d="M250 562v-207l165 207h220l-201 -236l203 -326h-213l-115 191l-59 -70v-121h-189v562h189z" />
    <glyph glyph-name="uni03BB" unicode="&#x3bb;" horiz-adv-x="665" 
d="M97 600v149c33 11 67 17 111 17c113 0 166 -44 209 -158l234 -608h-197l-119 341l-122 -341h-194l227 544l-9 23c-13 30 -34 45 -72 45c-21 0 -43 -4 -68 -12z" />
    <glyph glyph-name="uni03BC" unicode="&#x3bc;" horiz-adv-x="728" 
d="M705 146v-138c-24 -9 -55 -15 -98 -15c-71 0 -119 23 -144 76c-26 -50 -67 -74 -116 -74c-47 0 -97 21 -121 74h-3c13 -49 22 -85 22 -138v-97h-184v728h189v-311c0 -65 33 -99 86 -99c54 0 90 34 90 99v311h189v-368c2 -38 22 -51 56 -51c12 0 22 1 34 3z" />
    <glyph glyph-name="uni03BD" unicode="&#x3bd;" horiz-adv-x="653" 
d="M240 -4l-224 566h200l111 -338l113 338h196l-223 -566h-173z" />
    <glyph glyph-name="uni03BE" unicode="&#x3be;" horiz-adv-x="595" 
d="M595 680l-97 -134c-44 37 -89 61 -146 61c-62 0 -98 -35 -98 -81c0 -53 46 -84 122 -84h99v-143h-133c-76 0 -117 -28 -117 -72c0 -45 37 -65 98 -73l225 -31v-264h-174v125l-83 11c-167 24 -253 82 -253 207c0 90 50 145 143 176c-64 31 -111 79 -111 172
c0 124 101 218 277 218c113 0 190 -39 248 -88z" />
    <glyph glyph-name="uni03BF" unicode="&#x3bf;" horiz-adv-x="692" 
d="M345 -13c-178 0 -308 131 -308 291v2c0 160 131 293 310 293c178 0 308 -131 308 -291v-2c0 -160 -131 -293 -310 -293zM347 147c75 0 123 60 123 131v2c0 72 -52 133 -125 133c-76 0 -123 -60 -123 -131v-2c0 -72 52 -133 125 -133z" />
    <glyph glyph-name="uni03C0" unicode="&#x3c0;" horiz-adv-x="779" 
d="M28 562h710v-163h-90v-199c0 -42 19 -57 56 -57c12 0 22 1 34 3v-139c-25 -7 -62 -15 -105 -15c-118 0 -174 58 -174 190v217h-154v-399h-190v399h-87v163z" />
    <glyph glyph-name="uni03C1" unicode="&#x3c1;" horiz-adv-x="703" 
d="M358 147c66 0 120 54 120 133v2c0 78 -54 133 -120 133s-119 -55 -119 -133v-2c0 -78 53 -133 119 -133zM53 -166v420c0 196 114 319 307 319c182 0 304 -124 304 -294v-2c0 -172 -117 -289 -249 -289c-85 0 -136 36 -172 81v-235h-190z" />
    <glyph glyph-name="uni03C3" unicode="&#x3c3;" horiz-adv-x="729" 
d="M703 408l-139 2c54 -41 81 -91 81 -159v-1c0 -142 -121 -264 -302 -263c-181 0 -306 126 -306 287v1c0 160 128 287 324 287h342v-154zM344 147c76 0 119 55 119 124v1c0 71 -43 129 -121 129c-77 0 -120 -58 -120 -127v-1c0 -70 48 -126 122 -126z" />
    <glyph glyph-name="uni03C2" unicode="&#x3c2;" horiz-adv-x="603" 
d="M380 -141v128l-57 8c-186 27 -286 124 -286 289v1c0 157 117 289 297 288c117 0 190 -47 242 -121l-126 -105c-29 38 -63 66 -115 66c-69 0 -113 -57 -113 -122v-1c0 -84 54 -126 165 -140l167 -24v-267h-174z" />
    <glyph glyph-name="uni03C4" unicode="&#x3c4;" horiz-adv-x="618" 
d="M581 399h-186v-186c0 -53 24 -72 72 -72c19 0 46 4 66 9v-140c-31 -10 -72 -19 -123 -19c-138 0 -204 60 -204 202v206h-175v163h550v-163z" />
    <glyph glyph-name="uni03C5" unicode="&#x3c5;" horiz-adv-x="665" 
d="M331 -13c-168 0 -277 84 -277 259v316h190v-311c0 -67 29 -102 89 -102s88 34 88 101v312h190v-313c0 -180 -111 -262 -280 -262z" />
    <glyph glyph-name="uni03C6" unicode="&#x3c6;" horiz-adv-x="917" 
d="M551 -166h-185v165c-208 8 -329 125 -329 280v1c0 155 121 274 329 283v196h185v-196c207 -8 329 -125 329 -281v-1c0 -155 -121 -274 -329 -282v-165zM219 282c0 -77 58 -127 153 -129v256c-99 -2 -153 -53 -153 -126v-1zM698 281c0 76 -59 126 -153 128v-256
c99 1 153 52 153 127v1z" />
    <glyph glyph-name="uni03C7" unicode="&#x3c7;" horiz-adv-x="669" 
d="M226 562l109 -203l111 203h204l-210 -350l229 -378h-208l-128 234l-129 -234h-205l229 377l-210 351h208z" />
    <glyph glyph-name="uni03C8" unicode="&#x3c8;" horiz-adv-x="901" 
d="M543 -166h-186v164c-193 4 -303 110 -303 282v282h188v-276c0 -80 46 -123 118 -126v599h181v-599c71 3 118 46 118 125v277h187v-279c0 -178 -114 -281 -303 -285v-164z" />
    <glyph glyph-name="uni03C9" unicode="&#x3c9;" horiz-adv-x="950" 
d="M383 458h184v-181c0 -87 35 -122 78 -122c49 0 77 37 77 123c0 91 -37 174 -125 284h200c68 -82 111 -171 111 -289c0 -174 -87 -283 -235 -283c-102 0 -163 55 -199 136c-36 -81 -96 -136 -199 -136c-148 0 -233 108 -233 282c0 118 43 208 111 290h198
c-87 -110 -124 -192 -124 -283c0 -86 29 -124 78 -124c43 0 78 35 78 122v181z" />
    <glyph glyph-name="uni0410" unicode="&#x410;" horiz-adv-x="834" 
d="M330 291h169l-84 212zM14 0l310 733h185l310 -733h-206l-55 137h-287l-55 -137h-202z" />
    <glyph glyph-name="uni0411" unicode="&#x411;" horiz-adv-x="737" 
d="M73 0v728h568v-163h-379v-114h169c173 0 270 -78 270 -217v-1c0 -140 -94 -233 -282 -233h-346zM262 157h150c60 0 96 27 96 72v1c0 43 -32 69 -97 69h-149v-142z" />
    <glyph glyph-name="uni0412" unicode="&#x412;" horiz-adv-x="753" 
d="M73 0v728h366c90 0 155 -23 197 -65c30 -30 48 -70 48 -119v-3c0 -83 -47 -132 -110 -160c88 -31 144 -80 144 -178v-2c0 -127 -104 -201 -276 -201h-369zM493 503v2c0 42 -33 65 -95 65h-136v-133h131c63 0 100 21 100 66zM524 229c0 41 -32 68 -102 68h-160v-139h162
c64 0 100 24 100 69v2z" />
    <glyph glyph-name="uni0413" unicode="&#x413;" horiz-adv-x="650" 
d="M73 0v728h548v-169h-355v-559h-193z" />
    <glyph glyph-name="uni0414" unicode="&#x414;" horiz-adv-x="922" 
d="M459 533l-147 -368h292zM29 172h86l241 561h210l240 -561h87v-327h-179v155h-506v-155h-179v327z" />
    <glyph glyph-name="uni0415" unicode="&#x415;" horiz-adv-x="703" 
d="M73 0v728h578v-165h-387v-119h348v-155h-348v-124h392v-165h-583z" />
    <glyph glyph-name="uni0401" unicode="&#x401;" horiz-adv-x="703" 
d="M166 779v142h167v-142h-167zM395 779v142h167v-142h-167zM73 0v728h578v-165h-387v-119h348v-155h-348v-124h392v-165h-583z" />
    <glyph glyph-name="uni0416" unicode="&#x416;" horiz-adv-x="1156" 
d="M18 728h230l211 -280h26l-3 280h192l-2 -280h25l215 280h226l-286 -355l305 -373h-231l-225 284h-29l2 -284h-192l3 284h-35l-224 -284h-226l303 365z" />
    <glyph glyph-name="uni0417" unicode="&#x417;" horiz-adv-x="711" 
d="M138 499l-95 134c83 64 179 109 318 109c188 0 292 -81 292 -200v-1c0 -89 -43 -134 -125 -167c86 -25 143 -69 143 -169v-1c0 -122 -111 -218 -321 -218c-139 0 -240 43 -318 104l96 140c68 -48 142 -79 222 -79c77 0 125 26 125 73v1c0 43 -41 70 -120 69h-147v146h148
c68 0 103 28 103 69v1c0 42 -38 67 -106 67c-77 0 -153 -33 -215 -78z" />
    <glyph glyph-name="uni0418" unicode="&#x418;" horiz-adv-x="825" 
d="M752 0h-193v427l-317 -427h-169v728h193v-412l306 412h180v-728z" />
    <glyph glyph-name="uni0419" unicode="&#x419;" horiz-adv-x="825" 
d="M413 777c-114 0 -191 54 -203 157h116c13 -31 38 -48 87 -48s74 17 87 48h116c-12 -103 -89 -157 -203 -157zM752 0h-193v427l-317 -427h-169v728h193v-412l306 412h180v-728z" />
    <glyph glyph-name="uni041A" unicode="&#x41a;" horiz-adv-x="773" 
d="M73 0v728h193l-1 -278h40l227 278h232l-306 -353l322 -375h-241l-233 282h-41l1 -282h-193z" />
    <glyph glyph-name="uni041B" unicode="&#x41b;" horiz-adv-x="814" 
d="M495 733l304 -733h-214l-181 465l-180 -465h-210l305 733h176z" />
    <glyph glyph-name="uni041C" unicode="&#x41c;" horiz-adv-x="911" 
d="M73 0v728h205l177 -287l178 287h205v-728h-193v430l-190 -291h-4l-188 289v-428h-190z" />
    <glyph glyph-name="uni041D" unicode="&#x41d;" horiz-adv-x="799" 
d="M73 0v728h193v-276h267v276h193v-728h-193v280h-267v-280h-193z" />
    <glyph glyph-name="uni041E" unicode="&#x41e;" horiz-adv-x="876" 
d="M437 -14c-225 0 -390 167 -390 376v2c0 209 167 378 392 378s390 -167 390 -376v-2c0 -209 -167 -378 -392 -378zM439 161c115 0 191 92 191 201v2c0 109 -78 203 -193 203c-114 0 -191 -92 -191 -201v-2c0 -109 78 -203 193 -203z" />
    <glyph glyph-name="uni041F" unicode="&#x41f;" horiz-adv-x="794" 
d="M73 0v728h648v-728h-193v556h-262v-556h-193z" />
    <glyph glyph-name="uni0420" unicode="&#x420;" horiz-adv-x="707" 
d="M73 0v728h310c181 0 297 -96 297 -255v-2c0 -171 -132 -261 -309 -261h-105v-210h-193zM266 365h103c73 0 118 40 118 98v2c0 65 -46 98 -120 98h-101v-198z" />
    <glyph glyph-name="uni0421" unicode="&#x421;" horiz-adv-x="769" 
d="M422 -14c-209 0 -375 160 -375 376v2c0 211 161 378 383 378c146 0 239 -59 304 -143l-142 -118c-44 51 -94 85 -164 85c-107 0 -181 -90 -181 -200v-2c0 -113 74 -202 181 -202c77 0 123 35 169 88l142 -107c-70 -91 -160 -157 -317 -157z" />
    <glyph glyph-name="uni0422" unicode="&#x422;" horiz-adv-x="692" 
d="M249 0v557h-218v171h630v-171h-218v-557h-194z" />
    <glyph glyph-name="uni0423" unicode="&#x423;" horiz-adv-x="779" 
d="M371 0h-216l141 247l-281 481h220l167 -301l156 301h216z" />
    <glyph glyph-name="uni0424" unicode="&#x424;" horiz-adv-x="1036" 
d="M421 -12v70c-240 4 -378 127 -378 306v1c0 176 137 303 378 308v67h194v-67c240 -4 378 -127 378 -307v-1c0 -176 -137 -302 -378 -307v-70h-194zM798 366c0 80 -58 144 -187 145v-292c129 0 187 66 187 146v1zM239 365c0 -82 57 -146 187 -146v292
c-130 0 -187 -65 -187 -145v-1z" />
    <glyph glyph-name="uni0424.bgr" horiz-adv-x="1034" 
d="M420 -104v103c-229 16 -373 164 -373 363v2c0 197 145 347 373 365v103h194v-103c229 -16 373 -165 373 -363v-2c0 -197 -145 -349 -373 -365v-103h-194zM794 364c0 104 -68 186 -187 196v-393c121 9 187 89 187 195v2zM241 364c0 -104 66 -185 186 -196v392
c-120 -10 -186 -89 -186 -194v-2z" />
    <glyph glyph-name="uni0425" unicode="&#x425;" horiz-adv-x="769" 
d="M522 728h217l-240 -355l251 -373h-223l-144 226l-146 -226h-217l250 370l-240 358h223l133 -212z" />
    <glyph glyph-name="uni0426" unicode="&#x426;" horiz-adv-x="846" 
d="M642 -155v155h-569v728h193v-556h262v556h193v-556h100v-327h-179z" />
    <glyph glyph-name="uni0427" unicode="&#x427;" horiz-adv-x="760" 
d="M493 0v222c-49 -9 -101 -15 -146 -15c-186 0 -288 94 -288 265v256h194v-230c0 -82 38 -116 121 -116c41 0 81 5 119 14v332h194v-728h-194z" />
    <glyph glyph-name="uni0428" unicode="&#x428;" horiz-adv-x="1180" 
d="M73 0v728h193v-556h227v556h194v-556h227v556h193v-728h-1034z" />
    <glyph glyph-name="uni0429" unicode="&#x429;" horiz-adv-x="1235" 
d="M73 0v728h193v-556h227v556h194v-556h227v556h193v-556h103v-327h-179v155h-958z" />
    <glyph glyph-name="uni042A" unicode="&#x42a;" horiz-adv-x="882" 
d="M244 0v563h-213v165h406v-220h112c182 0 302 -84 302 -249v-1c0 -162 -116 -258 -308 -258h-299zM437 163h102c72 0 119 33 119 94v2c0 60 -43 93 -118 93h-103v-189z" />
    <glyph glyph-name="uni042B" unicode="&#x42b;" horiz-adv-x="1030" 
d="M763 0v728h194v-728h-194zM73 0v728h193v-220h112c182 0 302 -84 302 -249v-1c0 -162 -116 -258 -308 -258h-299zM266 165h102c73 0 119 32 119 95v1c0 59 -43 93 -118 92h-103v-188z" />
    <glyph glyph-name="uni042C" unicode="&#x42c;" horiz-adv-x="711" 
d="M73 0v728h193v-220h112c182 0 302 -84 302 -249v-1c0 -162 -116 -258 -308 -258h-299zM266 163h102c72 0 119 33 119 94v2c0 60 -43 93 -118 93h-103v-189z" />
    <glyph glyph-name="uni042D" unicode="&#x42d;" horiz-adv-x="764" 
d="M38 634c75 63 164 108 306 108c228 0 373 -161 373 -376v-2c0 -211 -150 -378 -382 -378c-125 0 -221 39 -303 109l105 139c58 -47 116 -77 195 -77c94 0 165 51 187 135l-308 -1v150l307 -2c-23 82 -90 132 -181 132c-84 0 -144 -31 -200 -75z" />
    <glyph glyph-name="uni042E" unicode="&#x42e;" horiz-adv-x="1173" 
d="M73 0v728h193v-276h112c38 164 184 290 370 290c219 0 378 -171 378 -376v-2c0 -205 -161 -378 -380 -378c-188 0 -333 127 -369 294h-111v-280h-193zM748 161c109 0 179 91 179 201v2c0 110 -72 203 -181 203s-179 -91 -179 -201v-2c0 -110 72 -203 181 -203z" />
    <glyph glyph-name="uni042F" unicode="&#x42f;" horiz-adv-x="757" 
d="M491 377v183h-138c-69 1 -113 -32 -113 -91v-1c0 -57 42 -91 112 -91h139zM200 255c-98 37 -154 116 -154 218v1c0 169 126 254 315 254h323v-728h-193v223h-93l-151 -223h-225z" />
    <glyph glyph-name="uni0430" unicode="&#x430;" 
d="M287 108c61 0 104 38 104 94v26c-22 10 -51 17 -82 17c-60 0 -95 -28 -95 -72v-2c0 -39 31 -63 73 -63zM221 -12c-107 0 -189 62 -189 173v2c0 118 89 177 221 177c53 0 102 -10 136 -22v9c0 61 -38 94 -114 94c-60 0 -105 -11 -155 -31l-41 136c63 26 129 43 226 43
c98 0 165 -23 209 -67c42 -42 60 -101 60 -179v-323h-186v59c-39 -43 -92 -71 -167 -71z" />
    <glyph glyph-name="uni0431" unicode="&#x431;" horiz-adv-x="695" 
d="M349 -13c-89 0 -165 33 -213 81c-60 60 -95 144 -95 275v1c0 233 98 370 320 397l215 29l22 -163l-215 -28c-111 -14 -166 -60 -178 -140c45 40 108 71 196 71c165 0 256 -99 256 -245v-1c0 -158 -125 -278 -308 -277zM352 143c73 0 121 53 121 124v1
c0 65 -43 117 -116 116c-77 0 -124 -55 -124 -122c0 -68 47 -119 119 -119z" />
    <glyph glyph-name="uni0432" unicode="&#x432;" horiz-adv-x="643" 
d="M61 0v562h326c126 0 200 -56 200 -144c0 -71 -39 -106 -95 -128c70 -21 116 -57 116 -133c0 -102 -85 -157 -223 -157h-324zM404 388c0 30 -21 49 -66 49h-93v-100h92c47 0 67 20 67 51zM422 177c0 33 -22 52 -70 52h-107v-105h108c45 0 69 19 69 53z" />
    <glyph glyph-name="uni0432.bgr" horiz-adv-x="692" 
d="M52 290v180c0 186 106 298 303 298c173 0 273 -92 273 -215v-1c0 -93 -52 -149 -128 -174c96 -27 155 -81 155 -182v-1c0 -122 -115 -210 -289 -209c-187 0 -314 90 -314 304zM237 476v-41h81c82 0 128 37 128 95c0 47 -33 84 -94 84c-75 0 -115 -53 -115 -138zM322 313
h-85v-27c0 -96 45 -146 129 -146c65 0 102 36 102 83c0 57 -42 90 -146 90z" />
    <glyph glyph-name="uni0433" unicode="&#x433;" horiz-adv-x="538" 
d="M61 0v562h451v-164h-262v-398h-189z" />
    <glyph glyph-name="uni0433.bgr" horiz-adv-x="559" 
d="M247 -12c-133 0 -213 62 -213 171v1c0 97 62 145 200 188c83 26 110 36 110 58v1c0 18 -12 31 -47 31c-53 0 -122 -24 -184 -58l-63 122c73 43 166 70 252 70c140 0 213 -66 213 -171v-1c0 -101 -66 -140 -200 -183c-95 -30 -111 -42 -111 -62v-1c0 -19 16 -31 50 -31
c60 0 136 26 209 72l68 -118c-80 -53 -179 -89 -284 -89z" />
    <glyph glyph-name="uni0434" unicode="&#x434;" horiz-adv-x="751" 
d="M374 392l-95 -235h189zM267 565h216l176 -401h70v-305h-172v143h-364v-143h-171v305h68z" />
    <glyph glyph-name="uni0434.bgr" horiz-adv-x="710" 
d="M344 197c70 0 120 47 120 113v2c0 65 -51 113 -120 113s-119 -48 -119 -114v-2c0 -66 50 -112 119 -112zM331 -168c-104 0 -195 22 -274 63l62 128c60 -33 119 -52 195 -52c100 0 149 49 149 141v23c-41 -49 -92 -86 -174 -86c-137 0 -250 98 -250 261v2
c0 163 115 261 244 261c85 0 135 -34 178 -79v68h189v-429c0 -102 -23 -174 -72 -223c-52 -52 -131 -78 -247 -78z" />
    <glyph glyph-name="uni0435" unicode="&#x435;" horiz-adv-x="639" 
d="M337 -13c-175 0 -300 118 -300 291v2c0 163 117 293 283 293c192 0 281 -143 281 -307c0 -12 -1 -27 -2 -40h-379c16 -63 62 -96 125 -96c49 0 86 18 127 57l105 -88c-54 -68 -131 -112 -240 -112zM218 327h204c-8 64 -45 105 -102 105c-55 0 -92 -42 -102 -105z" />
    <glyph glyph-name="uni0451" unicode="&#x451;" horiz-adv-x="639" 
d="M130 616v146h165v-146h-165zM347 616v146h165v-146h-165zM337 -13c-175 0 -300 118 -300 291v2c0 163 117 293 283 293c192 0 281 -143 281 -307c0 -12 -1 -27 -2 -40h-379c16 -63 62 -96 125 -96c49 0 86 18 127 57l105 -88c-54 -68 -131 -112 -240 -112zM218 327h204
c-8 64 -45 105 -102 105c-55 0 -92 -42 -102 -105z" />
    <glyph glyph-name="uni0436" unicode="&#x436;" horiz-adv-x="973" 
d="M580 562l-3 -202h31l143 202h213l-209 -275l216 -287h-215l-147 203h-32l3 -203h-187l3 203h-34l-147 -203h-213l215 276l-208 286h215l141 -202h31l-3 202h187z" />
    <glyph glyph-name="uni0436.bgr" horiz-adv-x="973" 
d="M580 759l-3 -399h31l143 202h213l-209 -275l216 -287h-215l-147 203h-32l3 -203h-187l3 203h-34l-147 -203h-213l215 276l-208 286h215l141 -202h31l-3 399h187z" />
    <glyph glyph-name="uni0437" unicode="&#x437;" horiz-adv-x="607" 
d="M29 59l70 126c56 -33 127 -53 194 -53c64 0 92 18 92 47v1c0 26 -24 42 -80 41h-131v120h129c49 0 70 14 70 43v1c0 26 -29 44 -82 43c-69 0 -128 -19 -182 -53l-74 120c69 48 152 78 266 78c160 0 259 -65 259 -163v-1c0 -60 -33 -100 -98 -124c69 -21 109 -63 109 -130
v-1c0 -97 -102 -167 -273 -167c-113 0 -199 28 -269 72z" />
    <glyph glyph-name="uni0438" unicode="&#x438;" horiz-adv-x="680" 
d="M61 0v562h187v-282l197 282h174v-562h-187v290l-203 -290h-168z" />
    <glyph glyph-name="uni0438.bgr" horiz-adv-x="665" 
d="M248 -12c-120 0 -192 79 -192 207v367h190v-306c0 -65 33 -99 83 -99s86 34 86 99v306h189v-562h-189v78c-36 -47 -87 -90 -167 -90z" />
    <glyph glyph-name="uni0439" unicode="&#x439;" horiz-adv-x="680" 
d="M340 610c-114 0 -193 63 -203 172h114c12 -37 37 -61 89 -61s77 24 89 61h114c-10 -109 -89 -172 -203 -172zM61 0v562h187v-282l197 282h174v-562h-187v290l-203 -290h-168z" />
    <glyph glyph-name="uni0439.bgr" horiz-adv-x="665" 
d="M330 610c-114 0 -193 63 -203 172h114c12 -37 37 -61 89 -61s77 24 89 61h114c-10 -109 -89 -172 -203 -172zM248 -12c-120 0 -192 79 -192 207v367h190v-306c0 -65 33 -99 83 -99s86 34 86 99v306h189v-562h-189v78c-36 -47 -87 -90 -167 -90z" />
    <glyph glyph-name="uni043A" unicode="&#x43a;" horiz-adv-x="649" 
d="M250 562v-201h31l141 201h222l-215 -275l220 -287h-220l-146 202h-33v-202h-189v562h189z" />
    <glyph glyph-name="uni043A.bgr" horiz-adv-x="649" 
d="M250 760v-399h31l141 201h222l-215 -275l220 -287h-220l-146 202h-33v-202h-189v760h189z" />
    <glyph glyph-name="uni043B" unicode="&#x43b;" horiz-adv-x="680" 
d="M428 566l237 -566h-201l-125 335l-126 -335h-198l237 566h176z" />
    <glyph glyph-name="uni043C" unicode="&#x43c;" horiz-adv-x="769" 
d="M61 0v562h188l135 -210l137 210h187v-562h-180v301l-143 -216h-3l-141 213v-298h-180z" />
    <glyph glyph-name="uni043D" unicode="&#x43d;" horiz-adv-x="680" 
d="M61 0v562h189v-197h180v197h189v-562h-189v200h-180v-200h-189z" />
    <glyph glyph-name="uni043E" unicode="&#x43e;" horiz-adv-x="692" 
d="M345 -13c-178 0 -308 131 -308 291v2c0 160 131 293 310 293c178 0 308 -131 308 -291v-2c0 -160 -131 -293 -310 -293zM347 147c75 0 123 60 123 131v2c0 72 -52 133 -125 133c-76 0 -123 -60 -123 -131v-2c0 -72 52 -133 125 -133z" />
    <glyph glyph-name="uni043F" unicode="&#x43f;" horiz-adv-x="680" 
d="M61 0v562h558v-562h-189v398h-180v-398h-189z" />
    <glyph glyph-name="uni043F.bgr" horiz-adv-x="665" 
d="M61 0v562h189v-79c36 46 87 90 167 90c120 0 192 -79 192 -207v-366h-190v306c0 64 -32 99 -83 99c-50 0 -86 -35 -86 -99v-306h-189z" />
    <glyph glyph-name="uni0440" unicode="&#x440;" horiz-adv-x="710" 
d="M366 147c65 0 119 54 119 133v2c0 78 -54 133 -119 133c-66 0 -119 -55 -119 -133v-2c0 -78 53 -133 119 -133zM61 -166v728h189v-76c38 48 88 87 171 87c133 0 250 -109 250 -290v-2c0 -184 -116 -293 -249 -293c-85 0 -135 38 -172 81v-235h-189z" />
    <glyph glyph-name="uni0441" unicode="&#x441;" horiz-adv-x="600" 
d="M331 -13c-170 0 -294 132 -294 291v2c0 159 123 293 300 293c113 0 187 -47 236 -119l-126 -101c-29 37 -60 60 -109 60c-68 0 -116 -59 -116 -131v-2c0 -75 48 -133 118 -133c49 0 80 22 112 58l124 -95c-52 -74 -124 -123 -245 -123z" />
    <glyph glyph-name="uni0442" unicode="&#x442;" horiz-adv-x="607" 
d="M209 0v399h-178v163h545v-163h-178v-399h-189z" />
    <glyph glyph-name="uni0442.bgr" horiz-adv-x="1013" 
d="M61 0v562h189v-78c36 47 88 89 167 89c75 0 131 -32 161 -90c49 56 107 90 187 90c119 0 192 -74 192 -205v-368h-190v307c0 64 -31 98 -80 98s-84 -34 -84 -98v-307h-189v307c0 64 -31 98 -81 98c-49 0 -83 -34 -83 -98v-307h-189z" />
    <glyph glyph-name="uni0443" unicode="&#x443;" horiz-adv-x="654" 
d="M332 214l109 348h194l-207 -554c-47 -128 -99 -178 -208 -178c-67 0 -122 19 -172 47l59 133c30 -17 61 -28 82 -28c22 0 36 6 49 25l-220 555h198z" />
    <glyph glyph-name="uni0444" unicode="&#x444;" horiz-adv-x="917" 
d="M551 -166h-185v165c-208 8 -329 125 -329 280v1c0 155 121 274 329 283v196h185v-196c207 -8 329 -125 329 -281v-1c0 -155 -121 -274 -329 -282v-165zM219 282c0 -77 58 -127 153 -129v256c-99 -2 -153 -53 -153 -126v-1zM698 281c0 76 -59 126 -153 128v-256
c99 1 153 52 153 127v1z" />
    <glyph glyph-name="uni0445" unicode="&#x445;" horiz-adv-x="620" 
d="M223 562l88 -146l88 146h200l-186 -277l191 -285h-204l-92 152l-93 -152h-200l191 283l-186 279h203z" />
    <glyph glyph-name="uni0446" unicode="&#x446;" horiz-adv-x="719" 
d="M523 -141v141h-462v562h189v-398h180v398h189v-398h76v-305h-172z" />
    <glyph glyph-name="uni0446.bgr" horiz-adv-x="704" 
d="M248 -12c-120 0 -192 79 -192 207v367h190v-306c0 -65 33 -99 83 -99s86 34 86 99v306h189v-398h76v-305h-172v141h-93v78c-36 -47 -87 -90 -167 -90z" />
    <glyph glyph-name="uni0447" unicode="&#x447;" horiz-adv-x="646" 
d="M396 0v156c-30 -7 -71 -14 -111 -14c-143 0 -237 60 -237 221v199h188v-181c0 -52 28 -73 84 -73c31 0 53 5 76 11v243h189v-562h-189z" />
    <glyph glyph-name="uni0448" unicode="&#x448;" horiz-adv-x="1018" 
d="M61 0v562h189v-398h164v398h189v-398h165v398h189v-562h-896z" />
    <glyph glyph-name="uni0448.bgr" horiz-adv-x="1013" 
d="M952 562v-562h-189v78c-36 -47 -88 -90 -167 -90c-74 0 -131 33 -161 91c-49 -56 -107 -91 -187 -91c-119 0 -192 74 -192 206v368h190v-307c0 -64 31 -98 80 -98s84 34 84 98v307h189v-307c0 -64 31 -98 81 -98c49 0 83 34 83 98v307h189z" />
    <glyph glyph-name="uni0449" unicode="&#x449;" horiz-adv-x="1056" 
d="M61 0v562h189v-398h164v398h189v-398h165v398h189v-398h75v-305h-172v141h-799z" />
    <glyph glyph-name="uni0449.bgr" horiz-adv-x="1052" 
d="M856 -141v141h-93v78c-36 -47 -88 -90 -167 -90c-74 0 -131 33 -161 91c-49 -56 -107 -91 -187 -91c-119 0 -192 74 -192 206v368h190v-307c0 -64 31 -98 80 -98s84 34 84 98v307h189v-307c0 -64 31 -98 81 -98c49 0 83 34 83 98v307h189v-398h76v-305h-172z" />
    <glyph glyph-name="uni044A" unicode="&#x44a;" horiz-adv-x="734" 
d="M26 562h343v-150h95c152 0 243 -74 243 -202v-1c0 -121 -90 -209 -252 -209h-273v406h-156v156zM368 275v-133h74c51 0 82 24 82 67v1c0 39 -28 65 -81 65h-75z" />
    <glyph glyph-name="uni044B" unicode="&#x44b;" horiz-adv-x="898" 
d="M648 0v562h189v-562h-189zM248 562v-150h95c152 0 243 -74 243 -202v-1c0 -121 -90 -209 -252 -209h-273v562h187zM247 275v-133h74c51 0 82 24 82 67v1c0 39 -29 65 -81 65h-75z" />
    <glyph glyph-name="uni044C" unicode="&#x44c;" horiz-adv-x="613" 
d="M248 562v-150h95c152 0 243 -74 243 -202v-1c0 -121 -90 -209 -252 -209h-273v562h187zM247 275v-133h74c51 0 82 24 82 67v1c0 39 -29 65 -81 65h-75z" />
    <glyph glyph-name="uni044D" unicode="&#x44d;" horiz-adv-x="612" 
d="M107 189c51 -37 98 -54 161 -54c58 0 111 30 128 85l-225 -2v126l225 -3c-17 55 -67 84 -128 84s-108 -19 -159 -53l-75 123c68 49 141 78 244 78c181 0 297 -122 297 -292v-1c0 -167 -120 -293 -302 -293c-105 0 -179 30 -245 77z" />
    <glyph glyph-name="uni044E" unicode="&#x44e;" horiz-adv-x="953" 
d="M250 200v-200h-189v562h189v-197h78c36 119 148 208 289 208c172 0 299 -131 299 -291v-2c0 -160 -128 -293 -301 -293c-143 0 -255 90 -289 213h-76zM617 147c72 0 116 60 116 131v2c0 72 -49 133 -118 133c-72 0 -117 -60 -117 -131v-2c0 -72 49 -133 119 -133z" />
    <glyph glyph-name="uni044E.bgr" horiz-adv-x="953" 
d="M615 -13c-143 0 -255 90 -289 213h-76v-200h-189v759h189v-394h78c36 119 148 208 289 208c172 0 299 -131 299 -291v-2c0 -160 -128 -293 -301 -293zM617 147c72 0 116 60 116 131v2c0 72 -49 133 -118 133c-72 0 -117 -60 -117 -131v-2c0 -72 49 -133 119 -133z" />
    <glyph glyph-name="uni044F" unicode="&#x44f;" horiz-adv-x="649" 
d="M402 426h-95c-47 0 -77 -24 -77 -64v-1c0 -37 28 -63 76 -62h96v127zM401 170h-52l-116 -170h-207l138 196c-73 30 -117 87 -117 169v1c0 127 96 197 246 196h295v-562h-187v170z" />
    <glyph glyph-name="Aacute" unicode="&#xc1;" horiz-adv-x="834" 
d="M342 789l115 167l178 -57l-151 -110h-142zM330 291h169l-84 212zM14 0l310 733h185l310 -733h-206l-55 137h-287l-55 -137h-202z" />
    <glyph glyph-name="aacute" unicode="&#xe1;" 
d="M246 616l109 190l173 -59l-149 -131h-133zM287 108c61 0 104 38 104 94v26c-22 10 -51 17 -82 17c-60 0 -95 -28 -95 -72v-2c0 -39 31 -63 73 -63zM221 -12c-107 0 -189 62 -189 173v2c0 118 89 177 221 177c53 0 102 -10 136 -22v9c0 61 -38 94 -114 94
c-60 0 -105 -11 -155 -31l-41 136c63 26 129 43 226 43c98 0 165 -23 209 -67c42 -42 60 -101 60 -179v-323h-186v59c-39 -43 -92 -71 -167 -71z" />
    <glyph glyph-name="aacute.alt" horiz-adv-x="710" 
d="M292 616l109 190l173 -59l-149 -131h-133zM345 147c66 0 119 54 119 133v2c0 78 -53 133 -119 133s-120 -54 -120 -133v-2c0 -79 54 -133 120 -133zM289 -12c-133 0 -250 109 -250 291v2c0 183 116 292 249 292c85 0 136 -38 173 -81v70h189v-562h-189v76
c-39 -48 -88 -88 -172 -88z" />
    <glyph glyph-name="Abreve" unicode="&#x102;" horiz-adv-x="834" 
d="M417 787c-114 0 -191 54 -203 157h116c13 -31 38 -48 87 -48s74 17 87 48h116c-12 -103 -89 -157 -203 -157zM330 291h169l-84 212zM14 0l310 733h185l310 -733h-206l-55 137h-287l-55 -137h-202z" />
    <glyph glyph-name="abreve" unicode="&#x103;" 
d="M318 613c-114 0 -193 63 -203 172h114c12 -37 37 -61 89 -61s77 24 89 61h114c-10 -109 -89 -172 -203 -172zM287 108c61 0 104 38 104 94v26c-22 10 -51 17 -82 17c-60 0 -95 -28 -95 -72v-2c0 -39 31 -63 73 -63zM221 -12c-107 0 -189 62 -189 173v2
c0 118 89 177 221 177c53 0 102 -10 136 -22v9c0 61 -38 94 -114 94c-60 0 -105 -11 -155 -31l-41 136c63 26 129 43 226 43c98 0 165 -23 209 -67c42 -42 60 -101 60 -179v-323h-186v59c-39 -43 -92 -71 -167 -71z" />
    <glyph glyph-name="abreve.alt" horiz-adv-x="710" 
d="M365 613c-114 0 -193 63 -203 172h114c12 -37 37 -61 89 -61s77 24 89 61h114c-10 -109 -89 -172 -203 -172zM345 147c66 0 119 54 119 133v2c0 78 -53 133 -119 133s-120 -54 -120 -133v-2c0 -79 54 -133 120 -133zM289 -12c-133 0 -250 109 -250 291v2
c0 183 116 292 249 292c85 0 136 -38 173 -81v70h189v-562h-189v76c-39 -48 -88 -88 -172 -88z" />
    <glyph glyph-name="Acircumflex" unicode="&#xc2;" horiz-adv-x="834" 
d="M203 786l129 155h170l129 -155h-133l-82 56l-82 -56h-131zM330 291h169l-84 212zM14 0l310 733h185l310 -733h-206l-55 137h-287l-55 -137h-202z" />
    <glyph glyph-name="acircumflex" unicode="&#xe2;" 
d="M107 616l132 169h158l132 -169h-126l-86 64l-86 -64h-124zM287 108c61 0 104 38 104 94v26c-22 10 -51 17 -82 17c-60 0 -95 -28 -95 -72v-2c0 -39 31 -63 73 -63zM221 -12c-107 0 -189 62 -189 173v2c0 118 89 177 221 177c53 0 102 -10 136 -22v9c0 61 -38 94 -114 94
c-60 0 -105 -11 -155 -31l-41 136c63 26 129 43 226 43c98 0 165 -23 209 -67c42 -42 60 -101 60 -179v-323h-186v59c-39 -43 -92 -71 -167 -71z" />
    <glyph glyph-name="acircumflex.alt" horiz-adv-x="710" 
d="M154 616l132 169h158l132 -169h-126l-86 64l-86 -64h-124zM345 147c66 0 119 54 119 133v2c0 78 -53 133 -119 133s-120 -54 -120 -133v-2c0 -79 54 -133 120 -133zM289 -12c-133 0 -250 109 -250 291v2c0 183 116 292 249 292c85 0 136 -38 173 -81v70h189v-562h-189v76
c-39 -48 -88 -88 -172 -88z" />
    <glyph glyph-name="Adieresis" unicode="&#xc4;" horiz-adv-x="834" 
d="M219 789v142h167v-142h-167zM448 789v142h167v-142h-167zM330 291h169l-84 212zM14 0l310 733h185l310 -733h-206l-55 137h-287l-55 -137h-202z" />
    <glyph glyph-name="adieresis" unicode="&#xe4;" 
d="M127 616v146h165v-146h-165zM344 616v146h165v-146h-165zM287 108c61 0 104 38 104 94v26c-22 10 -51 17 -82 17c-60 0 -95 -28 -95 -72v-2c0 -39 31 -63 73 -63zM221 -12c-107 0 -189 62 -189 173v2c0 118 89 177 221 177c53 0 102 -10 136 -22v9c0 61 -38 94 -114 94
c-60 0 -105 -11 -155 -31l-41 136c63 26 129 43 226 43c98 0 165 -23 209 -67c42 -42 60 -101 60 -179v-323h-186v59c-39 -43 -92 -71 -167 -71z" />
    <glyph glyph-name="adieresis.alt" horiz-adv-x="710" 
d="M174 616v146h165v-146h-165zM391 616v146h165v-146h-165zM345 147c66 0 119 54 119 133v2c0 78 -53 133 -119 133s-120 -54 -120 -133v-2c0 -79 54 -133 120 -133zM289 -12c-133 0 -250 109 -250 291v2c0 183 116 292 249 292c85 0 136 -38 173 -81v70h189v-562h-189v76
c-39 -48 -88 -88 -172 -88z" />
    <glyph glyph-name="Agrave" unicode="&#xc0;" horiz-adv-x="834" 
d="M492 789h-142l-151 110l178 57zM330 291h169l-84 212zM14 0l310 733h185l310 -733h-206l-55 137h-287l-55 -137h-202z" />
    <glyph glyph-name="agrave" unicode="&#xe0;" 
d="M258 616l-149 131l173 59l109 -190h-133zM287 108c61 0 104 38 104 94v26c-22 10 -51 17 -82 17c-60 0 -95 -28 -95 -72v-2c0 -39 31 -63 73 -63zM221 -12c-107 0 -189 62 -189 173v2c0 118 89 177 221 177c53 0 102 -10 136 -22v9c0 61 -38 94 -114 94
c-60 0 -105 -11 -155 -31l-41 136c63 26 129 43 226 43c98 0 165 -23 209 -67c42 -42 60 -101 60 -179v-323h-186v59c-39 -43 -92 -71 -167 -71z" />
    <glyph glyph-name="agrave.alt" horiz-adv-x="710" 
d="M304 616l-149 131l173 59l109 -190h-133zM345 147c66 0 119 54 119 133v2c0 78 -53 133 -119 133s-120 -54 -120 -133v-2c0 -79 54 -133 120 -133zM289 -12c-133 0 -250 109 -250 291v2c0 183 116 292 249 292c85 0 136 -38 173 -81v70h189v-562h-189v76
c-39 -48 -88 -88 -172 -88z" />
    <glyph glyph-name="Amacron" unicode="&#x100;" horiz-adv-x="834" 
d="M212 796v120h410v-120h-410zM330 291h169l-84 212zM14 0l310 733h185l310 -733h-206l-55 137h-287l-55 -137h-202z" />
    <glyph glyph-name="amacron" unicode="&#x101;" 
d="M125 623v116h386v-116h-386zM287 108c61 0 104 38 104 94v26c-22 10 -51 17 -82 17c-60 0 -95 -28 -95 -72v-2c0 -39 31 -63 73 -63zM221 -12c-107 0 -189 62 -189 173v2c0 118 89 177 221 177c53 0 102 -10 136 -22v9c0 61 -38 94 -114 94c-60 0 -105 -11 -155 -31
l-41 136c63 26 129 43 226 43c98 0 165 -23 209 -67c42 -42 60 -101 60 -179v-323h-186v59c-39 -43 -92 -71 -167 -71z" />
    <glyph glyph-name="amacron.alt" horiz-adv-x="710" 
d="M172 623v116h386v-116h-386zM345 147c66 0 119 54 119 133v2c0 78 -53 133 -119 133s-120 -54 -120 -133v-2c0 -79 54 -133 120 -133zM289 -12c-133 0 -250 109 -250 291v2c0 183 116 292 249 292c85 0 136 -38 173 -81v70h189v-562h-189v76c-39 -48 -88 -88 -172 -88z
" />
    <glyph glyph-name="Aogonek" unicode="&#x104;" horiz-adv-x="834" 
d="M826 -89v-82c-20 -2 -40 -4 -58 -4c-98 0 -154 38 -154 91c0 30 14 57 40 84h-41l-55 137h-287l-55 -137h-202l310 733h185l310 -733h-44c-17 -19 -23 -36 -23 -51c0 -27 24 -40 74 -38zM330 291h169l-84 212z" />
    <glyph glyph-name="aogonek" unicode="&#x105;" 
d="M579 -89v-82c-20 -2 -40 -4 -58 -4c-98 0 -154 38 -154 91c0 30 14 57 40 84h-19v59c-39 -43 -92 -71 -167 -71c-107 0 -189 62 -189 173v2c0 118 89 177 221 177c53 0 102 -10 136 -22v9c0 61 -38 94 -114 94c-60 0 -105 -11 -155 -31l-41 136c63 26 129 43 226 43
c98 0 165 -23 209 -67c42 -42 60 -101 60 -179v-323h-46c-17 -19 -23 -36 -23 -51c0 -27 24 -40 74 -38zM287 108c61 0 104 38 104 94v26c-22 10 -51 17 -82 17c-60 0 -95 -28 -95 -72v-2c0 -39 31 -63 73 -63z" />
    <glyph glyph-name="aogonek.alt" horiz-adv-x="710" 
d="M659 -89v-82c-20 -2 -40 -4 -58 -4c-98 0 -154 38 -154 91c0 30 14 57 40 84h-26v76c-39 -48 -88 -88 -172 -88c-133 0 -250 109 -250 291v2c0 183 116 292 249 292c85 0 136 -38 173 -81v70h189v-562h-42c-17 -19 -23 -36 -23 -51c0 -27 24 -40 74 -38zM345 147
c66 0 119 54 119 133v2c0 78 -53 133 -119 133s-120 -54 -120 -133v-2c0 -79 54 -133 120 -133z" />
    <glyph glyph-name="Aring" unicode="&#xc5;" horiz-adv-x="834" 
d="M417 705c44 0 73 29 73 65c0 37 -29 66 -73 66s-73 -29 -73 -66c0 -36 29 -65 73 -65zM330 291h169l-84 212zM14 0l291 689c-19 22 -31 49 -31 81c0 74 64 128 143 128s143 -54 143 -128c0 -32 -12 -59 -32 -81l291 -689h-206l-55 137h-287l-55 -137h-202z" />
    <glyph glyph-name="aring" unicode="&#xe5;" 
d="M318 616c-75 0 -135 58 -135 130c0 73 60 130 135 130s135 -57 135 -130c0 -72 -60 -130 -135 -130zM318 675c39 0 71 32 71 71c0 40 -32 72 -71 72s-71 -32 -71 -72c0 -39 32 -71 71 -71zM287 108c61 0 104 38 104 94v26c-22 10 -51 17 -82 17c-60 0 -95 -28 -95 -72v-2
c0 -39 31 -63 73 -63zM221 -12c-107 0 -189 62 -189 173v2c0 118 89 177 221 177c53 0 102 -10 136 -22v9c0 61 -38 94 -114 94c-60 0 -105 -11 -155 -31l-41 136c63 26 129 43 226 43c98 0 165 -23 209 -67c42 -42 60 -101 60 -179v-323h-186v59c-39 -43 -92 -71 -167 -71z
" />
    <glyph glyph-name="aring.alt" horiz-adv-x="710" 
d="M365 616c-75 0 -135 58 -135 130c0 73 60 130 135 130s135 -57 135 -130c0 -72 -60 -130 -135 -130zM365 675c39 0 71 32 71 71c0 40 -32 72 -71 72s-71 -32 -71 -72c0 -39 32 -71 71 -71zM345 147c66 0 119 54 119 133v2c0 78 -53 133 -119 133s-120 -54 -120 -133v-2
c0 -79 54 -133 120 -133zM289 -12c-133 0 -250 109 -250 291v2c0 183 116 292 249 292c85 0 136 -38 173 -81v70h189v-562h-189v76c-39 -48 -88 -88 -172 -88z" />
    <glyph glyph-name="aring.alt2" 
d="M248 640c0 -39 31 -71 70 -71c40 0 71 32 71 71c0 40 -31 72 -71 72c-39 0 -70 -32 -70 -72zM287 108c61 0 104 38 104 94v26c-22 10 -51 17 -82 17c-60 0 -95 -28 -95 -72v-2c0 -39 31 -63 73 -63zM221 -12c-107 0 -189 62 -189 173v2c0 118 89 177 221 177
c53 0 102 -10 136 -22v9c0 61 -38 94 -114 94c-60 0 -105 -11 -155 -31l-41 136c41 16 82 30 133 37c-19 21 -29 48 -29 77c0 73 60 130 135 130c76 0 136 -57 136 -130c0 -32 -14 -62 -36 -85c39 -10 71 -29 96 -53c42 -42 60 -101 60 -179v-323h-186v59
c-39 -43 -92 -71 -167 -71z" />
    <glyph glyph-name="Aringacute" unicode="&#x1fa;" horiz-adv-x="834" 
d="M338 924l123 155l174 -59l-162 -96h-135zM417 705c44 0 73 29 73 65c0 37 -29 66 -73 66s-73 -29 -73 -66c0 -36 29 -65 73 -65zM330 291h169l-84 212zM14 0l291 689c-19 22 -31 49 -31 81c0 74 64 128 143 128s143 -54 143 -128c0 -32 -12 -59 -32 -81l291 -689h-206
l-55 137h-287l-55 -137h-202z" />
    <glyph glyph-name="aringacute" unicode="&#x1fb;" 
d="M244 911l119 164l169 -59l-155 -105h-133zM318 616c-75 0 -135 58 -135 130c0 73 60 130 135 130s135 -57 135 -130c0 -72 -60 -130 -135 -130zM318 675c39 0 71 32 71 71c0 40 -32 72 -71 72s-71 -32 -71 -72c0 -39 32 -71 71 -71zM287 108c61 0 104 38 104 94v26
c-22 10 -51 17 -82 17c-60 0 -95 -28 -95 -72v-2c0 -39 31 -63 73 -63zM221 -12c-107 0 -189 62 -189 173v2c0 118 89 177 221 177c53 0 102 -10 136 -22v9c0 61 -38 94 -114 94c-60 0 -105 -11 -155 -31l-41 136c63 26 129 43 226 43c98 0 165 -23 209 -67
c42 -42 60 -101 60 -179v-323h-186v59c-39 -43 -92 -71 -167 -71z" />
    <glyph glyph-name="aringacute.alt" horiz-adv-x="710" 
d="M291 911l119 164l169 -59l-155 -105h-133zM365 616c-75 0 -135 58 -135 130c0 73 60 130 135 130s135 -57 135 -130c0 -72 -60 -130 -135 -130zM365 675c39 0 71 32 71 71c0 40 -32 72 -71 72s-71 -32 -71 -72c0 -39 32 -71 71 -71zM345 147c66 0 119 54 119 133v2
c0 78 -53 133 -119 133s-120 -54 -120 -133v-2c0 -79 54 -133 120 -133zM289 -12c-133 0 -250 109 -250 291v2c0 183 116 292 249 292c85 0 136 -38 173 -81v70h189v-562h-189v76c-39 -48 -88 -88 -172 -88z" />
    <glyph glyph-name="aringacute.alt2" 
d="M244 806l119 164l169 -59l-155 -105h-133zM248 640c0 -39 31 -71 70 -71c40 0 71 32 71 71c0 40 -31 72 -71 72c-39 0 -70 -32 -70 -72zM287 108c61 0 104 38 104 94v26c-22 10 -51 17 -82 17c-60 0 -95 -28 -95 -72v-2c0 -39 31 -63 73 -63zM221 -12
c-107 0 -189 62 -189 173v2c0 118 89 177 221 177c53 0 102 -10 136 -22v9c0 61 -38 94 -114 94c-60 0 -105 -11 -155 -31l-41 136c41 16 82 30 133 37c-19 21 -29 48 -29 77c0 73 60 130 135 130c76 0 136 -57 136 -130c0 -32 -14 -62 -36 -85c39 -10 71 -29 96 -53
c42 -42 60 -101 60 -179v-323h-186v59c-39 -43 -92 -71 -167 -71z" />
    <glyph glyph-name="Atilde" unicode="&#xc3;" horiz-adv-x="834" 
d="M515 789c-35 0 -72 12 -105 23c-27 10 -50 18 -65 18c-30 0 -42 -16 -56 -49l-92 26c22 99 59 152 130 152c35 0 72 -12 105 -24c27 -9 50 -17 65 -17c30 0 42 16 56 49l92 -26c-22 -100 -59 -152 -130 -152zM330 291h169l-84 212zM14 0l310 733h185l310 -733h-206
l-55 137h-287l-55 -137h-202z" />
    <glyph glyph-name="atilde" unicode="&#xe3;" 
d="M411 616c-34 0 -69 12 -96 22s-49 18 -65 18c-29 0 -40 -16 -54 -49l-92 26c22 100 57 152 129 152c34 0 69 -12 96 -22s49 -18 65 -18c29 0 40 16 54 49l92 -26c-22 -100 -57 -152 -129 -152zM287 108c61 0 104 38 104 94v26c-22 10 -51 17 -82 17
c-60 0 -95 -28 -95 -72v-2c0 -39 31 -63 73 -63zM221 -12c-107 0 -189 62 -189 173v2c0 118 89 177 221 177c53 0 102 -10 136 -22v9c0 61 -38 94 -114 94c-60 0 -105 -11 -155 -31l-41 136c63 26 129 43 226 43c98 0 165 -23 209 -67c42 -42 60 -101 60 -179v-323h-186v59
c-39 -43 -92 -71 -167 -71z" />
    <glyph glyph-name="atilde.alt" horiz-adv-x="710" 
d="M458 616c-34 0 -69 12 -96 22s-49 18 -65 18c-29 0 -40 -16 -54 -49l-92 26c22 100 57 152 129 152c34 0 69 -12 96 -22s49 -18 65 -18c29 0 40 16 54 49l92 -26c-22 -100 -57 -152 -129 -152zM345 147c66 0 119 54 119 133v2c0 78 -53 133 -119 133s-120 -54 -120 -133
v-2c0 -79 54 -133 120 -133zM289 -12c-133 0 -250 109 -250 291v2c0 183 116 292 249 292c85 0 136 -38 173 -81v70h189v-562h-189v76c-39 -48 -88 -88 -172 -88z" />
    <glyph glyph-name="Cacute" unicode="&#x106;" horiz-adv-x="769" 
d="M345 789l115 167l178 -57l-151 -110h-142zM422 -14c-209 0 -375 160 -375 376v2c0 211 161 378 383 378c146 0 239 -59 304 -143l-142 -118c-44 51 -94 85 -164 85c-107 0 -181 -90 -181 -200v-2c0 -113 74 -202 181 -202c77 0 123 35 169 88l142 -107
c-70 -91 -160 -157 -317 -157z" />
    <glyph glyph-name="cacute" unicode="&#x107;" horiz-adv-x="600" 
d="M260 616l109 190l173 -59l-149 -131h-133zM331 -13c-170 0 -294 132 -294 291v2c0 159 123 293 300 293c113 0 187 -47 236 -119l-126 -101c-29 37 -60 60 -109 60c-68 0 -116 -59 -116 -131v-2c0 -75 48 -133 118 -133c49 0 80 22 112 58l124 -95
c-52 -74 -124 -123 -245 -123z" />
    <glyph glyph-name="Ccaron" unicode="&#x10c;" horiz-adv-x="769" 
d="M634 944l-129 -155h-170l-129 155h133l82 -56l82 56h131zM422 -14c-209 0 -375 160 -375 376v2c0 211 161 378 383 378c146 0 239 -59 304 -143l-142 -118c-44 51 -94 85 -164 85c-107 0 -181 -90 -181 -200v-2c0 -113 74 -202 181 -202c77 0 123 35 169 88l142 -107
c-70 -91 -160 -157 -317 -157z" />
    <glyph glyph-name="ccaron" unicode="&#x10d;" horiz-adv-x="600" 
d="M544 785l-132 -169h-158l-132 169h126l86 -64l86 64h124zM331 -13c-170 0 -294 132 -294 291v2c0 159 123 293 300 293c113 0 187 -47 236 -119l-126 -101c-29 37 -60 60 -109 60c-68 0 -116 -59 -116 -131v-2c0 -75 48 -133 118 -133c49 0 80 22 112 58l124 -95
c-52 -74 -124 -123 -245 -123z" />
    <glyph glyph-name="Ccedilla" unicode="&#xc7;" horiz-adv-x="769" 
d="M398 -180l-151 64l82 113c-163 39 -282 182 -282 365v2c0 211 161 378 383 378c146 0 239 -59 304 -143l-142 -118c-44 51 -94 85 -164 85c-107 0 -181 -90 -181 -200v-2c0 -113 74 -202 181 -202c77 0 123 35 169 88l142 -107c-65 -84 -146 -146 -281 -156z" />
    <glyph glyph-name="ccedilla" unicode="&#xe7;" horiz-adv-x="600" 
d="M305 -180l-151 64l84 117c-120 38 -201 148 -201 277v2c0 159 123 293 300 293c113 0 187 -47 236 -119l-126 -101c-29 37 -60 60 -109 60c-68 0 -116 -59 -116 -131v-2c0 -75 48 -133 118 -133c49 0 80 22 112 58l124 -95c-47 -67 -110 -113 -210 -121z" />
    <glyph glyph-name="Cdotaccent" unicode="&#x10a;" horiz-adv-x="769" 
d="M334 789v142h172v-142h-172zM422 -14c-209 0 -375 160 -375 376v2c0 211 161 378 383 378c146 0 239 -59 304 -143l-142 -118c-44 51 -94 85 -164 85c-107 0 -181 -90 -181 -200v-2c0 -113 74 -202 181 -202c77 0 123 35 169 88l142 -107c-70 -91 -160 -157 -317 -157z
" />
    <glyph glyph-name="cdotaccent" unicode="&#x10b;" horiz-adv-x="600" 
d="M248 616v146h170v-146h-170zM331 -13c-170 0 -294 132 -294 291v2c0 159 123 293 300 293c113 0 187 -47 236 -119l-126 -101c-29 37 -60 60 -109 60c-68 0 -116 -59 -116 -131v-2c0 -75 48 -133 118 -133c49 0 80 22 112 58l124 -95c-52 -74 -124 -123 -245 -123z" />
    <glyph glyph-name="Dcaron" unicode="&#x10e;" horiz-adv-x="808" 
d="M604 934l-129 -155h-170l-129 155h133l82 -56l82 56h131zM73 0v728h282c253 0 405 -151 405 -360v-2c0 -209 -153 -366 -408 -366h-279zM357 556h-91v-384h91c123 0 205 71 205 190v2c0 120 -82 192 -205 192z" />
    <glyph glyph-name="dcaron" unicode="&#x10f;" horiz-adv-x="710" 
d="M699 566l11 222h132v-4l-67 -218h-76zM345 147c66 0 119 54 119 133v2c0 78 -53 133 -119 133s-120 -54 -120 -133v-2c0 -79 54 -133 120 -133zM289 -12c-133 0 -250 109 -250 291v2c0 183 116 292 249 292c85 0 136 -38 173 -81v267h189v-759h-189v76
c-39 -48 -88 -88 -172 -88z" />
    <glyph glyph-name="Dcroat" unicode="&#x110;" horiz-adv-x="855" 
d="M120 0v301h-82v131h82v296h282c253 0 406 -151 406 -360v-2c0 -209 -154 -366 -409 -366h-279zM448 302h-139v-135h95c125 0 205 74 205 195v2c0 122 -80 197 -205 197h-95v-131h139v-128z" />
    <glyph glyph-name="dcroat" unicode="&#x111;" horiz-adv-x="710" 
d="M345 147c66 0 119 54 119 133v2c0 78 -53 133 -119 133s-120 -54 -120 -133v-2c0 -79 54 -133 120 -133zM304 618v92h157v49h189v-49h66v-92h-66v-618h-189v76c-39 -48 -88 -88 -172 -88c-133 0 -250 109 -250 291v2c0 183 116 292 249 292c85 0 136 -38 173 -81v126
h-157z" />
    <glyph glyph-name="Eacute" unicode="&#xc9;" horiz-adv-x="703" 
d="M289 779l115 167l178 -57l-151 -110h-142zM73 0v728h578v-165h-387v-119h348v-155h-348v-124h392v-165h-583z" />
    <glyph glyph-name="eacute" unicode="&#xe9;" horiz-adv-x="639" 
d="M248 616l109 190l173 -59l-149 -131h-133zM337 -13c-175 0 -300 118 -300 291v2c0 163 117 293 283 293c192 0 281 -143 281 -307c0 -12 -1 -27 -2 -40h-379c16 -63 62 -96 125 -96c49 0 86 18 127 57l105 -88c-54 -68 -131 -112 -240 -112zM218 327h204
c-8 64 -45 105 -102 105c-55 0 -92 -42 -102 -105z" />
    <glyph glyph-name="Ebreve" unicode="&#x114;" horiz-adv-x="703" 
d="M365 777c-114 0 -191 54 -203 157h116c13 -31 38 -48 87 -48s74 17 87 48h116c-12 -103 -89 -157 -203 -157zM73 0v728h578v-165h-387v-119h348v-155h-348v-124h392v-165h-583z" />
    <glyph glyph-name="ebreve" unicode="&#x115;" horiz-adv-x="639" 
d="M321 613c-114 0 -193 63 -203 172h114c12 -37 37 -61 89 -61s77 24 89 61h114c-10 -109 -89 -172 -203 -172zM337 -13c-175 0 -300 118 -300 291v2c0 163 117 293 283 293c192 0 281 -143 281 -307c0 -12 -1 -27 -2 -40h-379c16 -63 62 -96 125 -96c49 0 86 18 127 57
l105 -88c-54 -68 -131 -112 -240 -112zM218 327h204c-8 64 -45 105 -102 105c-55 0 -92 -42 -102 -105z" />
    <glyph glyph-name="Ecaron" unicode="&#x11a;" horiz-adv-x="703" 
d="M578 934l-129 -155h-170l-129 155h133l82 -56l82 56h131zM73 0v728h578v-165h-387v-119h348v-155h-348v-124h392v-165h-583z" />
    <glyph glyph-name="ecaron" unicode="&#x11b;" horiz-adv-x="639" 
d="M532 785l-132 -169h-158l-132 169h126l86 -64l86 64h124zM337 -13c-175 0 -300 118 -300 291v2c0 163 117 293 283 293c192 0 281 -143 281 -307c0 -12 -1 -27 -2 -40h-379c16 -63 62 -96 125 -96c49 0 86 18 127 57l105 -88c-54 -68 -131 -112 -240 -112zM218 327h204
c-8 64 -45 105 -102 105c-55 0 -92 -42 -102 -105z" />
    <glyph glyph-name="Ecircumflex" unicode="&#xca;" horiz-adv-x="703" 
d="M150 779l129 155h170l129 -155h-133l-82 56l-82 -56h-131zM73 0v728h578v-165h-387v-119h348v-155h-348v-124h392v-165h-583z" />
    <glyph glyph-name="ecircumflex" unicode="&#xea;" horiz-adv-x="639" 
d="M110 616l132 169h158l132 -169h-126l-86 64l-86 -64h-124zM337 -13c-175 0 -300 118 -300 291v2c0 163 117 293 283 293c192 0 281 -143 281 -307c0 -12 -1 -27 -2 -40h-379c16 -63 62 -96 125 -96c49 0 86 18 127 57l105 -88c-54 -68 -131 -112 -240 -112zM218 327h204
c-8 64 -45 105 -102 105c-55 0 -92 -42 -102 -105z" />
    <glyph glyph-name="Edieresis" unicode="&#xcb;" horiz-adv-x="703" 
d="M166 779v142h167v-142h-167zM395 779v142h167v-142h-167zM73 0v728h578v-165h-387v-119h348v-155h-348v-124h392v-165h-583z" />
    <glyph glyph-name="edieresis" unicode="&#xeb;" horiz-adv-x="639" 
d="M130 616v146h165v-146h-165zM347 616v146h165v-146h-165zM337 -13c-175 0 -300 118 -300 291v2c0 163 117 293 283 293c192 0 281 -143 281 -307c0 -12 -1 -27 -2 -40h-379c16 -63 62 -96 125 -96c49 0 86 18 127 57l105 -88c-54 -68 -131 -112 -240 -112zM218 327h204
c-8 64 -45 105 -102 105c-55 0 -92 -42 -102 -105z" />
    <glyph glyph-name="Edotaccent" unicode="&#x116;" horiz-adv-x="703" 
d="M278 779v142h172v-142h-172zM73 0v728h578v-165h-387v-119h348v-155h-348v-124h392v-165h-583z" />
    <glyph glyph-name="edotaccent" unicode="&#x117;" horiz-adv-x="639" 
d="M236 616v146h170v-146h-170zM337 -13c-175 0 -300 118 -300 291v2c0 163 117 293 283 293c192 0 281 -143 281 -307c0 -12 -1 -27 -2 -40h-379c16 -63 62 -96 125 -96c49 0 86 18 127 57l105 -88c-54 -68 -131 -112 -240 -112zM218 327h204c-8 64 -45 105 -102 105
c-55 0 -92 -42 -102 -105z" />
    <glyph glyph-name="Egrave" unicode="&#xc8;" horiz-adv-x="703" 
d="M440 779h-142l-151 110l178 57zM73 0v728h578v-165h-387v-119h348v-155h-348v-124h392v-165h-583z" />
    <glyph glyph-name="egrave" unicode="&#xe8;" horiz-adv-x="639" 
d="M260 616l-149 131l173 59l109 -190h-133zM337 -13c-175 0 -300 118 -300 291v2c0 163 117 293 283 293c192 0 281 -143 281 -307c0 -12 -1 -27 -2 -40h-379c16 -63 62 -96 125 -96c49 0 86 18 127 57l105 -88c-54 -68 -131 -112 -240 -112zM218 327h204
c-8 64 -45 105 -102 105c-55 0 -92 -42 -102 -105z" />
    <glyph glyph-name="Emacron" unicode="&#x112;" horiz-adv-x="703" 
d="M159 786v120h410v-120h-410zM73 0v728h578v-165h-387v-119h348v-155h-348v-124h392v-165h-583z" />
    <glyph glyph-name="emacron" unicode="&#x113;" horiz-adv-x="639" 
d="M128 623v116h386v-116h-386zM337 -13c-175 0 -300 118 -300 291v2c0 163 117 293 283 293c192 0 281 -143 281 -307c0 -12 -1 -27 -2 -40h-379c16 -63 62 -96 125 -96c49 0 86 18 127 57l105 -88c-54 -68 -131 -112 -240 -112zM218 327h204c-8 64 -45 105 -102 105
c-55 0 -92 -42 -102 -105z" />
    <glyph glyph-name="Eogonek" unicode="&#x118;" horiz-adv-x="703" 
d="M73 0v728h578v-165h-387v-119h348v-155h-348v-124h392v-165h-52c-17 -19 -23 -36 -23 -51c0 -27 24 -40 74 -38v-82c-20 -2 -40 -4 -58 -4c-98 0 -154 38 -154 91c0 30 14 57 40 84h-410z" />
    <glyph glyph-name="eogonek" unicode="&#x119;" horiz-adv-x="639" 
d="M472 187l105 -88c-22 -26 -39 -43 -65 -68c-37 -34 -49 -57 -49 -77c0 -32 24 -45 75 -43v-82c-21 -2 -40 -4 -60 -4c-96 0 -153 37 -153 88c0 25 12 50 36 75c-7 0 -17 -1 -24 -1c-175 0 -300 118 -300 291v2c0 163 117 293 283 293c192 0 281 -143 281 -307
c0 -12 -1 -27 -2 -40h-379c16 -63 62 -96 125 -96c49 0 86 18 127 57zM218 327h204c-8 64 -45 105 -102 105c-55 0 -92 -42 -102 -105z" />
    <glyph glyph-name="Gbreve" unicode="&#x11e;" horiz-adv-x="811" 
d="M429 787c-114 0 -191 54 -203 157h116c13 -31 38 -48 87 -48s74 17 87 48h116c-12 -103 -89 -157 -203 -157zM440 -14c-227 0 -393 156 -393 376v2c0 211 165 378 390 378c128 0 216 -38 293 -104l-115 -139c-53 44 -104 70 -179 70c-107 0 -190 -91 -190 -205v-2
c0 -121 83 -208 201 -208c52 0 92 11 124 33v91h-146v146h330v-325c-76 -64 -182 -113 -315 -113z" />
    <glyph glyph-name="gbreve" unicode="&#x11f;" horiz-adv-x="710" 
d="M365 613c-114 0 -193 63 -203 172h114c12 -37 37 -61 89 -61s77 24 89 61h114c-10 -109 -89 -172 -203 -172zM344 197c70 0 120 47 120 113v2c0 65 -51 113 -120 113s-119 -48 -119 -114v-2c0 -66 50 -112 119 -112zM331 -168c-104 0 -195 22 -274 63l62 128
c60 -33 119 -52 195 -52c100 0 149 49 149 141v23c-41 -49 -92 -86 -174 -86c-137 0 -250 98 -250 261v2c0 163 115 261 244 261c85 0 135 -34 178 -79v68h189v-429c0 -102 -23 -174 -72 -223c-52 -52 -131 -78 -247 -78z" />
    <glyph glyph-name="Gcommaaccent" unicode="&#x122;" horiz-adv-x="811" 
d="M440 -14c-227 0 -393 156 -393 376v2c0 211 165 378 390 378c128 0 216 -38 293 -104l-115 -139c-53 44 -104 70 -179 70c-107 0 -190 -91 -190 -205v-2c0 -121 83 -208 201 -208c52 0 92 11 124 33v91h-146v146h330v-325c-76 -64 -182 -113 -315 -113zM347 -323l-9 57
c59 5 83 29 80 69h-70v137h163v-113c0 -106 -60 -146 -164 -150z" />
    <glyph glyph-name="gcommaaccent" unicode="&#x123;" horiz-adv-x="710" 
d="M445 879l8 -57c-58 -6 -82 -29 -79 -69h70v-137h-164v112c0 107 60 147 165 151zM344 197c70 0 120 47 120 113v2c0 65 -51 113 -120 113s-119 -48 -119 -114v-2c0 -66 50 -112 119 -112zM331 -168c-104 0 -195 22 -274 63l62 128c60 -33 119 -52 195 -52
c100 0 149 49 149 141v23c-41 -49 -92 -86 -174 -86c-137 0 -250 98 -250 261v2c0 163 115 261 244 261c85 0 135 -34 178 -79v68h189v-429c0 -102 -23 -174 -72 -223c-52 -52 -131 -78 -247 -78z" />
    <glyph glyph-name="Gdotaccent" unicode="&#x120;" horiz-adv-x="811" 
d="M343 789v142h172v-142h-172zM440 -14c-227 0 -393 156 -393 376v2c0 211 165 378 390 378c128 0 216 -38 293 -104l-115 -139c-53 44 -104 70 -179 70c-107 0 -190 -91 -190 -205v-2c0 -121 83 -208 201 -208c52 0 92 11 124 33v91h-146v146h330v-325
c-76 -64 -182 -113 -315 -113z" />
    <glyph glyph-name="gdotaccent" unicode="&#x121;" horiz-adv-x="710" 
d="M280 616v146h170v-146h-170zM344 197c70 0 120 47 120 113v2c0 65 -51 113 -120 113s-119 -48 -119 -114v-2c0 -66 50 -112 119 -112zM331 -168c-104 0 -195 22 -274 63l62 128c60 -33 119 -52 195 -52c100 0 149 49 149 141v23c-41 -49 -92 -86 -174 -86
c-137 0 -250 98 -250 261v2c0 163 115 261 244 261c85 0 135 -34 178 -79v68h189v-429c0 -102 -23 -174 -72 -223c-52 -52 -131 -78 -247 -78z" />
    <glyph glyph-name="Hbar" unicode="&#x126;" horiz-adv-x="799" 
d="M266 452h267v87h-267v-87zM9 537v109h64v82h193v-82h267v82h193v-82h65v-109h-65v-537h-193v280h-267v-280h-193v537h-64z" />
    <glyph glyph-name="hbar" unicode="&#x127;" horiz-adv-x="665" 
d="M407 618h-157v-134c36 47 87 89 167 89c120 0 192 -79 192 -207v-366h-190v306c0 64 -32 99 -83 99c-50 0 -86 -35 -86 -99v-306h-189v618h-67v92h67v49h189v-49h157v-92z" />
    <glyph glyph-name="Iacute" unicode="&#xcd;" horiz-adv-x="350" 
d="M100 779l115 167l178 -57l-151 -110h-142zM78 0v728h194v-728h-194z" />
    <glyph glyph-name="iacute" unicode="&#xed;" horiz-adv-x="321" 
d="M88 613l109 190l173 -59l-149 -131h-133zM66 0v562h189v-562h-189z" />
    <glyph glyph-name="Ibreve" unicode="&#x12c;" horiz-adv-x="350" 
d="M175 777c-114 0 -191 54 -203 157h116c13 -31 38 -48 87 -48s74 17 87 48h116c-12 -103 -89 -157 -203 -157zM78 0v728h194v-728h-194z" />
    <glyph glyph-name="ibreve" unicode="&#x12d;" horiz-adv-x="321" 
d="M160 610c-114 0 -193 63 -203 172h114c12 -37 37 -61 89 -61s77 24 89 61h114c-10 -109 -89 -172 -203 -172zM66 0v562h189v-562h-189z" />
    <glyph glyph-name="Icircumflex" unicode="&#xce;" horiz-adv-x="350" 
d="M-39 779l129 155h170l129 -155h-133l-82 56l-82 -56h-131zM78 0v728h194v-728h-194z" />
    <glyph glyph-name="icircumflex" unicode="&#xee;" horiz-adv-x="321" 
d="M-51 613l132 169h158l132 -169h-126l-86 64l-86 -64h-124zM66 0v562h189v-562h-189z" />
    <glyph glyph-name="Idieresis" unicode="&#xcf;" horiz-adv-x="350" 
d="M-23 779v142h167v-142h-167zM206 779v142h167v-142h-167zM78 0v728h194v-728h-194z" />
    <glyph glyph-name="idieresis" unicode="&#xef;" horiz-adv-x="321" 
d="M-31 613v146h165v-146h-165zM186 613v146h165v-146h-165zM66 0v562h189v-562h-189z" />
    <glyph glyph-name="Idotaccent" unicode="&#x130;" horiz-adv-x="350" 
d="M89 779v142h172v-142h-172zM78 0v728h194v-728h-194z" />
    <glyph glyph-name="i.dot" horiz-adv-x="321" 
d="M62 615v144h197v-144h-197zM66 0v562h189v-562h-189z" />
    <glyph glyph-name="dotlessi" unicode="&#x131;" horiz-adv-x="321" 
d="M66 0v562h189v-562h-189z" />
    <glyph glyph-name="Igrave" unicode="&#xcc;" horiz-adv-x="350" 
d="M250 779h-142l-151 110l178 57zM78 0v728h194v-728h-194z" />
    <glyph glyph-name="igrave" unicode="&#xec;" horiz-adv-x="321" 
d="M100 613l-149 131l173 59l109 -190h-133zM66 0v562h189v-562h-189z" />
    <glyph glyph-name="Imacron" unicode="&#x12a;" horiz-adv-x="350" 
d="M-30 786v120h410v-120h-410zM78 0v728h194v-728h-194z" />
    <glyph glyph-name="imacron" unicode="&#x12b;" horiz-adv-x="321" 
d="M-33 620v116h386v-116h-386zM66 0v562h189v-562h-189z" />
    <glyph glyph-name="Iogonek" unicode="&#x12e;" horiz-adv-x="350" 
d="M78 0v728h194v-728h-37c-17 -19 -23 -36 -23 -51c0 -27 24 -40 74 -38v-82c-20 -2 -40 -4 -58 -4c-98 0 -154 38 -154 91c0 30 14 57 40 84h-36z" />
    <glyph glyph-name="iogonek" unicode="&#x12f;" horiz-adv-x="321" 
d="M62 615v144h197v-144h-197zM66 0v562h189v-562h-36c-17 -19 -23 -36 -23 -51c0 -27 24 -40 74 -38v-82c-20 -2 -40 -4 -58 -4c-98 0 -154 38 -154 91c0 30 14 57 40 84h-32z" />
    <glyph glyph-name="Kcommaaccent" unicode="&#x136;" horiz-adv-x="767" 
d="M73 0v728h193v-300l259 300h231l-280 -312l290 -416h-232l-192 278l-76 -82v-196h-193zM302 -313l-9 57c59 5 83 29 80 69h-70v137h163v-113c0 -106 -60 -146 -164 -150z" />
    <glyph glyph-name="kcommaaccent" unicode="&#x137;" horiz-adv-x="633" 
d="M61 0v759h189v-389l160 192h216l-199 -224l205 -338h-211l-119 200l-52 -60v-140h-189zM245 -316l-9 57c59 5 83 29 80 69h-70v137h163v-113c0 -106 -60 -146 -164 -150z" />
    <glyph glyph-name="Lacute" unicode="&#x139;" horiz-adv-x="650" 
d="M115 779l115 167l178 -57l-151 -110h-142zM73 0v728h193v-557h355v-171h-548z" />
    <glyph glyph-name="lacute" unicode="&#x13a;" horiz-adv-x="321" 
d="M87 799l115 167l178 -57l-151 -110h-142zM66 0v759h189v-759h-189z" />
    <glyph glyph-name="Lcaron" unicode="&#x13d;" horiz-adv-x="650" 
d="M330 506l11 222h132v-4l-67 -218h-76zM73 0v728h193v-557h355v-171h-548z" />
    <glyph glyph-name="lcaron" unicode="&#x13e;" horiz-adv-x="321" 
d="M304 566l11 222h132v-4l-67 -218h-76zM66 0v759h189v-759h-189z" />
    <glyph glyph-name="Lcommaaccent" unicode="&#x13b;" horiz-adv-x="650" 
d="M73 0v728h193v-557h355v-171h-548zM264 -316l-9 57c59 5 83 29 80 69h-70v137h163v-113c0 -106 -60 -146 -164 -150z" />
    <glyph glyph-name="lcommaaccent" unicode="&#x13c;" horiz-adv-x="321" 
d="M66 0v759h189v-759h-189zM78 -316l-9 57c59 5 83 29 80 69h-70v137h163v-113c0 -106 -60 -146 -164 -150z" />
    <glyph glyph-name="Ldot" unicode="&#x13f;" horiz-adv-x="650" 
d="M73 0v728h193v-557h355v-171h-548zM419 337v157h162v-157h-162z" />
    <glyph glyph-name="ldot" unicode="&#x140;" horiz-adv-x="438" 
d="M66 0v759h189v-759h-189zM307 317v153h137v-153h-137z" />
    <glyph glyph-name="Lslash" unicode="&#x141;" horiz-adv-x="693" 
d="M463 387l-154 -66v-150h356v-171h-548v238l-79 -34v175l79 34v315h192v-233l154 67v-175z" />
    <glyph glyph-name="lslash" unicode="&#x142;" horiz-adv-x="417" 
d="M386 383l-84 -39v-344h-188v256l-84 -39v172l84 38v332h188v-244l84 39v-171z" />
    <glyph glyph-name="Nacute" unicode="&#x143;" horiz-adv-x="825" 
d="M338 779l115 167l178 -57l-151 -110h-142zM73 0v728h180l308 -397v397h191v-728h-168l-320 412v-412h-191z" />
    <glyph glyph-name="nacute" unicode="&#x144;" horiz-adv-x="665" 
d="M262 616l109 190l173 -59l-149 -131h-133zM61 0v562h189v-79c36 46 87 90 167 90c120 0 192 -79 192 -207v-366h-190v306c0 64 -32 99 -83 99c-50 0 -86 -35 -86 -99v-306h-189z" />
    <glyph glyph-name="Ncaron" unicode="&#x147;" horiz-adv-x="825" 
d="M627 934l-129 -155h-170l-129 155h133l82 -56l82 56h131zM73 0v728h180l308 -397v397h191v-728h-168l-320 412v-412h-191z" />
    <glyph glyph-name="ncaron" unicode="&#x148;" horiz-adv-x="665" 
d="M545 785l-132 -169h-158l-132 169h126l86 -64l86 64h124zM61 0v562h189v-79c36 46 87 90 167 90c120 0 192 -79 192 -207v-366h-190v306c0 64 -32 99 -83 99c-50 0 -86 -35 -86 -99v-306h-189z" />
    <glyph glyph-name="Ncommaaccent" unicode="&#x145;" horiz-adv-x="825" 
d="M73 0v728h180l308 -397v397h191v-728h-168l-320 412v-412h-191zM331 -313l-9 57c59 5 83 29 80 69h-70v137h163v-113c0 -106 -60 -146 -164 -150z" />
    <glyph glyph-name="ncommaaccent" unicode="&#x146;" horiz-adv-x="665" 
d="M61 0v562h189v-79c36 46 87 90 167 90c120 0 192 -79 192 -207v-366h-190v306c0 64 -32 99 -83 99c-50 0 -86 -35 -86 -99v-306h-189zM252 -316l-9 57c59 5 83 29 80 69h-70v137h163v-113c0 -106 -60 -146 -164 -150z" />
    <glyph glyph-name="Ntilde" unicode="&#xd1;" horiz-adv-x="825" 
d="M511 779c-35 0 -72 12 -105 23c-27 10 -50 18 -65 18c-30 0 -42 -16 -56 -49l-92 26c22 99 59 152 130 152c35 0 72 -12 105 -24c27 -9 50 -17 65 -17c30 0 42 16 56 49l92 -26c-22 -100 -59 -152 -130 -152zM73 0v728h180l308 -397v397h191v-728h-168l-320 412v-412
h-191z" />
    <glyph glyph-name="ntilde" unicode="&#xf1;" horiz-adv-x="665" 
d="M427 616c-34 0 -69 12 -96 22s-49 18 -65 18c-29 0 -40 -16 -54 -49l-92 26c22 100 57 152 129 152c34 0 69 -12 96 -22s49 -18 65 -18c29 0 40 16 54 49l92 -26c-22 -100 -57 -152 -129 -152zM61 0v562h189v-79c36 46 87 90 167 90c120 0 192 -79 192 -207v-366h-190
v306c0 64 -32 99 -83 99c-50 0 -86 -35 -86 -99v-306h-189z" />
    <glyph glyph-name="Oacute" unicode="&#xd3;" horiz-adv-x="876" 
d="M363 789l115 167l178 -57l-151 -110h-142zM437 -14c-225 0 -390 167 -390 376v2c0 209 167 378 392 378s390 -167 390 -376v-2c0 -209 -167 -378 -392 -378zM439 161c115 0 191 92 191 201v2c0 109 -78 203 -193 203c-114 0 -191 -92 -191 -201v-2
c0 -109 78 -203 193 -203z" />
    <glyph glyph-name="oacute" unicode="&#xf3;" horiz-adv-x="692" 
d="M274 616l109 190l173 -59l-149 -131h-133zM345 -13c-178 0 -308 131 -308 291v2c0 160 131 293 310 293c178 0 308 -131 308 -291v-2c0 -160 -131 -293 -310 -293zM347 147c75 0 123 60 123 131v2c0 72 -52 133 -125 133c-76 0 -123 -60 -123 -131v-2
c0 -72 52 -133 125 -133z" />
    <glyph glyph-name="Obreve" unicode="&#x14e;" horiz-adv-x="876" 
d="M439 787c-114 0 -191 54 -203 157h116c13 -31 38 -48 87 -48s74 17 87 48h116c-12 -103 -89 -157 -203 -157zM437 -14c-225 0 -390 167 -390 376v2c0 209 167 378 392 378s390 -167 390 -376v-2c0 -209 -167 -378 -392 -378zM439 161c115 0 191 92 191 201v2
c0 109 -78 203 -193 203c-114 0 -191 -92 -191 -201v-2c0 -109 78 -203 193 -203z" />
    <glyph glyph-name="obreve" unicode="&#x14f;" horiz-adv-x="692" 
d="M346 613c-114 0 -193 63 -203 172h114c12 -37 37 -61 89 -61s77 24 89 61h114c-10 -109 -89 -172 -203 -172zM345 -13c-178 0 -308 131 -308 291v2c0 160 131 293 310 293c178 0 308 -131 308 -291v-2c0 -160 -131 -293 -310 -293zM347 147c75 0 123 60 123 131v2
c0 72 -52 133 -125 133c-76 0 -123 -60 -123 -131v-2c0 -72 52 -133 125 -133z" />
    <glyph glyph-name="Ocircumflex" unicode="&#xd4;" horiz-adv-x="876" 
d="M224 789l129 155h170l129 -155h-133l-82 56l-82 -56h-131zM437 -14c-225 0 -390 167 -390 376v2c0 209 167 378 392 378s390 -167 390 -376v-2c0 -209 -167 -378 -392 -378zM439 161c115 0 191 92 191 201v2c0 109 -78 203 -193 203c-114 0 -191 -92 -191 -201v-2
c0 -109 78 -203 193 -203z" />
    <glyph glyph-name="ocircumflex" unicode="&#xf4;" horiz-adv-x="692" 
d="M135 616l132 169h158l132 -169h-126l-86 64l-86 -64h-124zM345 -13c-178 0 -308 131 -308 291v2c0 160 131 293 310 293c178 0 308 -131 308 -291v-2c0 -160 -131 -293 -310 -293zM347 147c75 0 123 60 123 131v2c0 72 -52 133 -125 133c-76 0 -123 -60 -123 -131v-2
c0 -72 52 -133 125 -133z" />
    <glyph glyph-name="Odieresis" unicode="&#xd6;" horiz-adv-x="876" 
d="M240 789v142h167v-142h-167zM469 789v142h167v-142h-167zM437 -14c-225 0 -390 167 -390 376v2c0 209 167 378 392 378s390 -167 390 -376v-2c0 -209 -167 -378 -392 -378zM439 161c115 0 191 92 191 201v2c0 109 -78 203 -193 203c-114 0 -191 -92 -191 -201v-2
c0 -109 78 -203 193 -203z" />
    <glyph glyph-name="odieresis" unicode="&#xf6;" horiz-adv-x="692" 
d="M155 616v146h165v-146h-165zM372 616v146h165v-146h-165zM345 -13c-178 0 -308 131 -308 291v2c0 160 131 293 310 293c178 0 308 -131 308 -291v-2c0 -160 -131 -293 -310 -293zM347 147c75 0 123 60 123 131v2c0 72 -52 133 -125 133c-76 0 -123 -60 -123 -131v-2
c0 -72 52 -133 125 -133z" />
    <glyph glyph-name="Ograve" unicode="&#xd2;" horiz-adv-x="876" 
d="M513 789h-142l-151 110l178 57zM437 -14c-225 0 -390 167 -390 376v2c0 209 167 378 392 378s390 -167 390 -376v-2c0 -209 -167 -378 -392 -378zM439 161c115 0 191 92 191 201v2c0 109 -78 203 -193 203c-114 0 -191 -92 -191 -201v-2c0 -109 78 -203 193 -203z" />
    <glyph glyph-name="ograve" unicode="&#xf2;" horiz-adv-x="692" 
d="M285 616l-149 131l173 59l109 -190h-133zM345 -13c-178 0 -308 131 -308 291v2c0 160 131 293 310 293c178 0 308 -131 308 -291v-2c0 -160 -131 -293 -310 -293zM347 147c75 0 123 60 123 131v2c0 72 -52 133 -125 133c-76 0 -123 -60 -123 -131v-2
c0 -72 52 -133 125 -133z" />
    <glyph glyph-name="Ohungarumlaut" unicode="&#x150;" horiz-adv-x="876" 
d="M462 789l111 167l166 -57l-147 -110h-130zM258 789l111 167l166 -57l-147 -110h-130zM437 -14c-225 0 -390 167 -390 376v2c0 209 167 378 392 378s390 -167 390 -376v-2c0 -209 -167 -378 -392 -378zM439 161c115 0 191 92 191 201v2c0 109 -78 203 -193 203
c-114 0 -191 -92 -191 -201v-2c0 -109 78 -203 193 -203z" />
    <glyph glyph-name="ohungarumlaut" unicode="&#x151;" horiz-adv-x="692" 
d="M171 616l104 190l165 -59l-146 -131h-123zM369 616l105 189l165 -59l-147 -130h-123zM345 -13c-178 0 -308 131 -308 291v2c0 160 131 293 310 293c178 0 308 -131 308 -291v-2c0 -160 -131 -293 -310 -293zM347 147c75 0 123 60 123 131v2c0 72 -52 133 -125 133
c-76 0 -123 -60 -123 -131v-2c0 -72 52 -133 125 -133z" />
    <glyph glyph-name="Omacron" unicode="&#x14c;" horiz-adv-x="876" 
d="M233 796v120h410v-120h-410zM437 -14c-225 0 -390 167 -390 376v2c0 209 167 378 392 378s390 -167 390 -376v-2c0 -209 -167 -378 -392 -378zM439 161c115 0 191 92 191 201v2c0 109 -78 203 -193 203c-114 0 -191 -92 -191 -201v-2c0 -109 78 -203 193 -203z" />
    <glyph glyph-name="omacron" unicode="&#x14d;" horiz-adv-x="692" 
d="M153 623v116h386v-116h-386zM345 -13c-178 0 -308 131 -308 291v2c0 160 131 293 310 293c178 0 308 -131 308 -291v-2c0 -160 -131 -293 -310 -293zM347 147c75 0 123 60 123 131v2c0 72 -52 133 -125 133c-76 0 -123 -60 -123 -131v-2c0 -72 52 -133 125 -133z" />
    <glyph glyph-name="Oslash" unicode="&#xd8;" horiz-adv-x="876" 
d="M685 733h152l-103 -118c60 -66 95 -153 95 -249v-2c0 -209 -167 -378 -392 -378c-77 0 -147 19 -205 53l-40 -44h-153l103 117c-60 66 -95 153 -95 250v2c0 209 167 378 392 378c77 0 147 -20 205 -54zM242 364c0 -39 10 -76 27 -107l257 293c-26 13 -56 21 -89 21
c-116 0 -195 -94 -195 -205v-2zM439 157c116 0 195 94 195 205v2c0 39 -10 76 -28 107l-256 -293c26 -14 56 -21 89 -21z" />
    <glyph glyph-name="oslash" unicode="&#xf8;" horiz-adv-x="692" 
d="M532 567h138l-86 -97c45 -51 71 -116 71 -188v-2c0 -160 -131 -293 -310 -293c-58 0 -111 14 -156 38l-29 -30h-138l85 95c-44 51 -70 116 -70 188v2c0 160 131 293 310 293c58 0 110 -14 155 -38zM214 280c0 -22 4 -42 11 -60l170 190c-15 6 -32 10 -50 10
c-80 0 -131 -63 -131 -138v-2zM347 140c80 0 130 63 130 138v2c0 21 -4 41 -12 59l-168 -190c15 -6 32 -9 50 -9z" />
    <glyph glyph-name="Oslashacute" unicode="&#x1fe;" horiz-adv-x="876" 
d="M363 789l115 167l178 -57l-151 -110h-142zM685 733h152l-103 -118c60 -66 95 -153 95 -249v-2c0 -209 -167 -378 -392 -378c-77 0 -147 19 -205 53l-40 -44h-153l103 117c-60 66 -95 153 -95 250v2c0 209 167 378 392 378c77 0 147 -20 205 -54zM242 364
c0 -39 10 -76 27 -107l257 293c-26 13 -56 21 -89 21c-116 0 -195 -94 -195 -205v-2zM439 157c116 0 195 94 195 205v2c0 39 -10 76 -28 107l-256 -293c26 -14 56 -21 89 -21z" />
    <glyph glyph-name="oslashacute" unicode="&#x1ff;" horiz-adv-x="692" 
d="M274 616l109 190l173 -59l-149 -131h-133zM532 567h138l-86 -97c45 -51 71 -116 71 -188v-2c0 -160 -131 -293 -310 -293c-58 0 -111 14 -156 38l-29 -30h-138l85 95c-44 51 -70 116 -70 188v2c0 160 131 293 310 293c58 0 110 -14 155 -38zM214 280c0 -22 4 -42 11 -60
l170 190c-15 6 -32 10 -50 10c-80 0 -131 -63 -131 -138v-2zM347 140c80 0 130 63 130 138v2c0 21 -4 41 -12 59l-168 -190c15 -6 32 -9 50 -9z" />
    <glyph glyph-name="Otilde" unicode="&#xd5;" horiz-adv-x="876" 
d="M536 789c-35 0 -72 12 -105 23c-27 10 -50 18 -65 18c-30 0 -42 -16 -56 -49l-92 26c22 99 59 152 130 152c35 0 72 -12 105 -24c27 -9 50 -17 65 -17c30 0 42 16 56 49l92 -26c-22 -100 -59 -152 -130 -152zM437 -14c-225 0 -390 167 -390 376v2c0 209 167 378 392 378
s390 -167 390 -376v-2c0 -209 -167 -378 -392 -378zM439 161c115 0 191 92 191 201v2c0 109 -78 203 -193 203c-114 0 -191 -92 -191 -201v-2c0 -109 78 -203 193 -203z" />
    <glyph glyph-name="otilde" unicode="&#xf5;" horiz-adv-x="692" 
d="M439 616c-34 0 -69 12 -96 22s-49 18 -65 18c-29 0 -40 -16 -54 -49l-92 26c22 100 57 152 129 152c34 0 69 -12 96 -22s49 -18 65 -18c29 0 40 16 54 49l92 -26c-22 -100 -57 -152 -129 -152zM345 -13c-178 0 -308 131 -308 291v2c0 160 131 293 310 293
c178 0 308 -131 308 -291v-2c0 -160 -131 -293 -310 -293zM347 147c75 0 123 60 123 131v2c0 72 -52 133 -125 133c-76 0 -123 -60 -123 -131v-2c0 -72 52 -133 125 -133z" />
    <glyph glyph-name="Racute" unicode="&#x154;" horiz-adv-x="757" 
d="M294 779l115 167l178 -57l-151 -110h-142zM266 377h140c70 0 111 36 111 90v2c0 60 -43 91 -113 91h-138v-183zM73 0v728h342c107 0 183 -28 232 -78c42 -41 64 -97 64 -168v-3c0 -113 -60 -186 -151 -224l175 -255h-224l-148 223h-97v-223h-193z" />
    <glyph glyph-name="racute" unicode="&#x155;" horiz-adv-x="451" 
d="M169 613l109 190l173 -59l-149 -131h-133zM61 0v562h189v-114c32 77 84 127 178 123v-199h-15c-103 0 -163 -60 -163 -191v-181h-189z" />
    <glyph glyph-name="Rcaron" unicode="&#x158;" horiz-adv-x="757" 
d="M583 934l-129 -155h-170l-129 155h133l82 -56l82 56h131zM266 377h140c70 0 111 36 111 90v2c0 60 -43 91 -113 91h-138v-183zM73 0v728h342c107 0 183 -28 232 -78c42 -41 64 -97 64 -168v-3c0 -113 -60 -186 -151 -224l175 -255h-224l-148 223h-97v-223h-193z" />
    <glyph glyph-name="rcaron" unicode="&#x159;" horiz-adv-x="451" 
d="M453 782l-132 -169h-158l-132 169h126l86 -64l86 64h124zM61 0v562h189v-114c32 77 84 127 178 123v-199h-15c-103 0 -163 -60 -163 -191v-181h-189z" />
    <glyph glyph-name="Rcommaaccent" unicode="&#x156;" horiz-adv-x="757" 
d="M266 377h140c70 0 111 36 111 90v2c0 60 -43 91 -113 91h-138v-183zM73 0v728h342c107 0 183 -28 232 -78c42 -41 64 -97 64 -168v-3c0 -113 -60 -186 -151 -224l175 -255h-224l-148 223h-97v-223h-193zM289 -313l-9 57c59 5 83 29 80 69h-70v137h163v-113
c0 -106 -60 -146 -164 -150z" />
    <glyph glyph-name="rcommaaccent" unicode="&#x157;" horiz-adv-x="451" 
d="M61 0v562h189v-114c32 77 84 127 178 123v-199h-15c-103 0 -163 -60 -163 -191v-181h-189zM79 -316l-9 57c59 5 83 29 80 69h-70v137h163v-113c0 -106 -60 -146 -164 -150z" />
    <glyph glyph-name="Sacute" unicode="&#x15a;" horiz-adv-x="684" 
d="M269 789l115 167l178 -57l-151 -110h-142zM354 -12c-126 0 -246 40 -335 119l109 130c71 -56 148 -87 232 -87c57 0 88 20 88 54v2c0 33 -24 50 -128 75c-154 35 -268 78 -268 227v2c0 134 107 230 277 230c119 0 215 -34 293 -96l-97 -138c-66 47 -137 72 -201 72
c-51 0 -77 -22 -77 -50v-2c0 -37 26 -51 133 -77c163 -36 263 -90 263 -225v-2c0 -148 -117 -234 -289 -234z" />
    <glyph glyph-name="sacute" unicode="&#x15b;" horiz-adv-x="540" 
d="M201 616l109 190l173 -59l-149 -131h-133zM278 -12c-91 0 -183 27 -260 84l73 116c63 -43 132 -65 189 -65c37 0 54 12 54 32v2c0 25 -37 35 -96 52c-105 28 -193 65 -193 177v2c0 118 95 184 221 184c80 0 163 -24 227 -65l-66 -122c-57 33 -120 53 -163 53
c-32 0 -48 -13 -48 -30v-2c0 -24 37 -35 96 -54c104 -29 193 -68 193 -175v-2c0 -124 -93 -187 -227 -187z" />
    <glyph glyph-name="Scaron" unicode="&#x160;" horiz-adv-x="684" 
d="M558 944l-129 -155h-170l-129 155h133l82 -56l82 56h131zM354 -12c-126 0 -246 40 -335 119l109 130c71 -56 148 -87 232 -87c57 0 88 20 88 54v2c0 33 -24 50 -128 75c-154 35 -268 78 -268 227v2c0 134 107 230 277 230c119 0 215 -34 293 -96l-97 -138
c-66 47 -137 72 -201 72c-51 0 -77 -22 -77 -50v-2c0 -37 26 -51 133 -77c163 -36 263 -90 263 -225v-2c0 -148 -117 -234 -289 -234z" />
    <glyph glyph-name="scaron" unicode="&#x161;" horiz-adv-x="540" 
d="M485 785l-132 -169h-158l-132 169h126l86 -64l86 64h124zM278 -12c-91 0 -183 27 -260 84l73 116c63 -43 132 -65 189 -65c37 0 54 12 54 32v2c0 25 -37 35 -96 52c-105 28 -193 65 -193 177v2c0 118 95 184 221 184c80 0 163 -24 227 -65l-66 -122
c-57 33 -120 53 -163 53c-32 0 -48 -13 -48 -30v-2c0 -24 37 -35 96 -54c104 -29 193 -68 193 -175v-2c0 -124 -93 -187 -227 -187z" />
    <glyph glyph-name="Scedilla" unicode="&#x15e;" horiz-adv-x="684" 
d="M341 -180l-151 64l79 110c-94 14 -181 52 -250 113l109 130c71 -56 148 -87 232 -87c57 0 88 20 88 54v2c0 33 -24 50 -128 75c-154 35 -268 78 -268 227v2c0 134 107 230 277 230c119 0 215 -34 293 -96l-97 -138c-66 47 -137 72 -201 72c-51 0 -77 -22 -77 -50v-2
c0 -37 26 -51 133 -77c163 -36 263 -90 263 -225v-2c0 -134 -95 -217 -240 -231z" />
    <glyph glyph-name="scedilla" unicode="&#x15f;" horiz-adv-x="540" 
d="M262 -180l-151 64l81 112c-62 12 -122 37 -174 76l73 116c63 -43 132 -65 189 -65c37 0 54 12 54 32v2c0 25 -37 35 -96 52c-105 28 -193 65 -193 177v2c0 118 95 184 221 184c80 0 163 -24 227 -65l-66 -122c-57 33 -120 53 -163 53c-32 0 -48 -13 -48 -30v-2
c0 -24 37 -35 96 -54c104 -29 193 -68 193 -175v-2c0 -109 -72 -171 -181 -184z" />
    <glyph glyph-name="Scommaaccent" unicode="&#x218;" horiz-adv-x="684" 
d="M354 -12c-126 0 -246 40 -335 119l109 130c71 -56 148 -87 232 -87c57 0 88 20 88 54v2c0 33 -24 50 -128 75c-154 35 -268 78 -268 227v2c0 134 107 230 277 230c119 0 215 -34 293 -96l-97 -138c-66 47 -137 72 -201 72c-51 0 -77 -22 -77 -50v-2c0 -37 26 -51 133 -77
c163 -36 263 -90 263 -225v-2c0 -148 -117 -234 -289 -234zM262 -323l-9 57c59 5 83 29 80 69h-70v137h163v-113c0 -106 -60 -146 -164 -150z" />
    <glyph glyph-name="scommaaccent" unicode="&#x219;" horiz-adv-x="540" 
d="M278 -12c-91 0 -183 27 -260 84l73 116c63 -43 132 -65 189 -65c37 0 54 12 54 32v2c0 25 -37 35 -96 52c-105 28 -193 65 -193 177v2c0 118 95 184 221 184c80 0 163 -24 227 -65l-66 -122c-57 33 -120 53 -163 53c-32 0 -48 -13 -48 -30v-2c0 -24 37 -35 96 -54
c104 -29 193 -68 193 -175v-2c0 -124 -93 -187 -227 -187zM191 -319l-9 57c59 5 83 29 80 69h-70v137h163v-113c0 -106 -60 -146 -164 -150z" />
    <glyph glyph-name="Tcaron" unicode="&#x164;" horiz-adv-x="692" 
d="M560 934l-129 -155h-170l-129 155h133l82 -56l82 56h131zM249 0v557h-218v171h630v-171h-218v-557h-194z" />
    <glyph glyph-name="tcaron" unicode="&#x165;" horiz-adv-x="452" 
d="M338 610l11 222h132v-4l-67 -218h-76zM277 -11c-114 0 -183 49 -183 182v237h-67v154h67v142h189v-142h131v-154h-131v-201c0 -39 17 -55 53 -55c27 0 52 6 76 19v-149c-35 -20 -81 -33 -135 -33z" />
    <glyph glyph-name="Tcommaaccent" unicode="&#x162;" horiz-adv-x="692" 
d="M249 0v557h-218v171h630v-171h-218v-557h-194zM264 -316l-9 57c59 5 83 29 80 69h-70v137h163v-113c0 -106 -60 -146 -164 -150z" />
    <glyph glyph-name="tcommaaccent" unicode="&#x163;" horiz-adv-x="452" 
d="M277 -11c-114 0 -183 49 -183 182v237h-67v154h67v142h189v-142h131v-154h-131v-201c0 -39 17 -55 53 -55c27 0 52 6 76 19v-149c-35 -20 -81 -33 -135 -33zM160 -319l-9 57c59 5 83 29 80 69h-70v137h163v-113c0 -106 -60 -146 -164 -150z" />
    <glyph glyph-name="Uacute" unicode="&#xda;" horiz-adv-x="796" 
d="M323 779l115 167l178 -57l-151 -110h-142zM396 -13c-204 0 -332 106 -332 331v410h195v-406c0 -108 54 -160 139 -160s139 50 139 154v412h195v-405c0 -232 -132 -336 -336 -336z" />
    <glyph glyph-name="uacute" unicode="&#xfa;" horiz-adv-x="665" 
d="M258 613l109 190l173 -59l-149 -131h-133zM248 -12c-120 0 -192 79 -192 207v367h190v-306c0 -65 33 -99 83 -99s86 34 86 99v306h189v-562h-189v78c-36 -47 -87 -90 -167 -90z" />
    <glyph glyph-name="Ubreve" unicode="&#x16c;" horiz-adv-x="796" 
d="M398 767c-114 0 -191 54 -203 157h116c13 -31 38 -48 87 -48s74 17 87 48h116c-12 -103 -89 -157 -203 -157zM396 -13c-204 0 -332 106 -332 331v410h195v-406c0 -108 54 -160 139 -160s139 50 139 154v412h195v-405c0 -232 -132 -336 -336 -336z" />
    <glyph glyph-name="ubreve" unicode="&#x16d;" horiz-adv-x="665" 
d="M330 610c-114 0 -193 63 -203 172h114c12 -37 37 -61 89 -61s77 24 89 61h114c-10 -109 -89 -172 -203 -172zM248 -12c-120 0 -192 79 -192 207v367h190v-306c0 -65 33 -99 83 -99s86 34 86 99v306h189v-562h-189v78c-36 -47 -87 -90 -167 -90z" />
    <glyph glyph-name="Ucircumflex" unicode="&#xdb;" horiz-adv-x="796" 
d="M184 779l129 155h170l129 -155h-133l-82 56l-82 -56h-131zM396 -13c-204 0 -332 106 -332 331v410h195v-406c0 -108 54 -160 139 -160s139 50 139 154v412h195v-405c0 -232 -132 -336 -336 -336z" />
    <glyph glyph-name="ucircumflex" unicode="&#xfb;" horiz-adv-x="665" 
d="M119 613l132 169h158l132 -169h-126l-86 64l-86 -64h-124zM248 -12c-120 0 -192 79 -192 207v367h190v-306c0 -65 33 -99 83 -99s86 34 86 99v306h189v-562h-189v78c-36 -47 -87 -90 -167 -90z" />
    <glyph glyph-name="Udieresis" unicode="&#xdc;" horiz-adv-x="796" 
d="M200 779v142h167v-142h-167zM429 779v142h167v-142h-167zM396 -13c-204 0 -332 106 -332 331v410h195v-406c0 -108 54 -160 139 -160s139 50 139 154v412h195v-405c0 -232 -132 -336 -336 -336z" />
    <glyph glyph-name="udieresis" unicode="&#xfc;" horiz-adv-x="665" 
d="M139 613v146h165v-146h-165zM356 613v146h165v-146h-165zM248 -12c-120 0 -192 79 -192 207v367h190v-306c0 -65 33 -99 83 -99s86 34 86 99v306h189v-562h-189v78c-36 -47 -87 -90 -167 -90z" />
    <glyph glyph-name="Ugrave" unicode="&#xd9;" horiz-adv-x="796" 
d="M473 779h-142l-151 110l178 57zM396 -13c-204 0 -332 106 -332 331v410h195v-406c0 -108 54 -160 139 -160s139 50 139 154v412h195v-405c0 -232 -132 -336 -336 -336z" />
    <glyph glyph-name="ugrave" unicode="&#xf9;" horiz-adv-x="665" 
d="M269 613l-149 131l173 59l109 -190h-133zM248 -12c-120 0 -192 79 -192 207v367h190v-306c0 -65 33 -99 83 -99s86 34 86 99v306h189v-562h-189v78c-36 -47 -87 -90 -167 -90z" />
    <glyph glyph-name="Uhungarumlaut" unicode="&#x170;" horiz-adv-x="796" 
d="M417 779l111 167l166 -57l-147 -110h-130zM213 779l111 167l166 -57l-147 -110h-130zM396 -13c-204 0 -332 106 -332 331v410h195v-406c0 -108 54 -160 139 -160s139 50 139 154v412h195v-405c0 -232 -132 -336 -336 -336z" />
    <glyph glyph-name="uhungarumlaut" unicode="&#x171;" horiz-adv-x="665" 
d="M152 613l104 190l165 -59l-146 -131h-123zM350 613l105 189l165 -59l-147 -130h-123zM248 -12c-120 0 -192 79 -192 207v367h190v-306c0 -65 33 -99 83 -99s86 34 86 99v306h189v-562h-189v78c-36 -47 -87 -90 -167 -90z" />
    <glyph glyph-name="Umacron" unicode="&#x16a;" horiz-adv-x="796" 
d="M193 786v120h410v-120h-410zM396 -13c-204 0 -332 106 -332 331v410h195v-406c0 -108 54 -160 139 -160s139 50 139 154v412h195v-405c0 -232 -132 -336 -336 -336z" />
    <glyph glyph-name="umacron" unicode="&#x16b;" horiz-adv-x="665" 
d="M137 620v116h386v-116h-386zM248 -12c-120 0 -192 79 -192 207v367h190v-306c0 -65 33 -99 83 -99s86 34 86 99v306h189v-562h-189v78c-36 -47 -87 -90 -167 -90z" />
    <glyph glyph-name="Uogonek" unicode="&#x172;" horiz-adv-x="796" 
d="M504 -89v-82c-20 -2 -40 -4 -58 -4c-98 0 -154 38 -154 91c0 27 11 52 32 76c-162 23 -260 128 -260 326v410h195v-406c0 -108 54 -160 139 -160s139 50 139 154v412h195v-405c0 -213 -111 -318 -287 -333c-11 -15 -15 -29 -15 -41c0 -27 24 -40 74 -38z" />
    <glyph glyph-name="uogonek" unicode="&#x173;" horiz-adv-x="665" 
d="M248 -12c-120 0 -192 79 -192 207v367h190v-306c0 -65 33 -99 83 -99s86 34 86 99v306h189v-562h-41c-17 -19 -23 -36 -23 -51c0 -27 24 -40 74 -38v-82c-20 -2 -40 -4 -58 -4c-98 0 -154 38 -154 91c0 30 14 57 40 84h-27v78c-36 -47 -87 -90 -167 -90z" />
    <glyph glyph-name="Uring" unicode="&#x16e;" horiz-adv-x="796" 
d="M398 756c-79 0 -143 53 -143 127s64 127 143 127s143 -53 143 -127s-64 -127 -143 -127zM398 817c44 0 73 29 73 66s-29 66 -73 66s-73 -29 -73 -66s29 -66 73 -66zM396 -13c-204 0 -332 106 -332 331v410h195v-406c0 -108 54 -160 139 -160s139 50 139 154v412h195v-405
c0 -232 -132 -336 -336 -336z" />
    <glyph glyph-name="uring" unicode="&#x16f;" horiz-adv-x="665" 
d="M330 600c-75 0 -135 58 -135 130c0 73 60 130 135 130s135 -57 135 -130c0 -72 -60 -130 -135 -130zM330 659c39 0 71 32 71 71c0 40 -32 72 -71 72s-71 -32 -71 -72c0 -39 32 -71 71 -71zM248 -12c-120 0 -192 79 -192 207v367h190v-306c0 -65 33 -99 83 -99
s86 34 86 99v306h189v-562h-189v78c-36 -47 -87 -90 -167 -90z" />
    <glyph glyph-name="Wacute" unicode="&#x1e82;" horiz-adv-x="1171" 
d="M510 779l115 167l178 -57l-151 -110h-142zM267 -5l-244 733h205l131 -436l145 438h167l145 -438l131 436h201l-244 -733h-169l-150 430l-149 -430h-169z" />
    <glyph glyph-name="wacute" unicode="&#x1e83;" horiz-adv-x="903" 
d="M379 613l109 190l173 -59l-149 -131h-133zM191 -4l-172 566h187l77 -295l90 297h157l92 -298l79 296h183l-174 -566h-164l-95 302l-97 -302h-163z" />
    <glyph glyph-name="Wcircumflex" unicode="&#x174;" horiz-adv-x="1171" 
d="M371 779l129 155h170l129 -155h-133l-82 56l-82 -56h-131zM267 -5l-244 733h205l131 -436l145 438h167l145 -438l131 436h201l-244 -733h-169l-150 430l-149 -430h-169z" />
    <glyph glyph-name="wcircumflex" unicode="&#x175;" horiz-adv-x="903" 
d="M240 613l132 169h158l132 -169h-126l-86 64l-86 -64h-124zM191 -4l-172 566h187l77 -295l90 297h157l92 -298l79 296h183l-174 -566h-164l-95 302l-97 -302h-163z" />
    <glyph glyph-name="Wdieresis" unicode="&#x1e84;" horiz-adv-x="1171" 
d="M387 779v142h167v-142h-167zM616 779v142h167v-142h-167zM267 -5l-244 733h205l131 -436l145 438h167l145 -438l131 436h201l-244 -733h-169l-150 430l-149 -430h-169z" />
    <glyph glyph-name="wdieresis" unicode="&#x1e85;" horiz-adv-x="903" 
d="M260 613v146h165v-146h-165zM477 613v146h165v-146h-165zM191 -4l-172 566h187l77 -295l90 297h157l92 -298l79 296h183l-174 -566h-164l-95 302l-97 -302h-163z" />
    <glyph glyph-name="Wgrave" unicode="&#x1e80;" horiz-adv-x="1171" 
d="M661 779h-142l-151 110l178 57zM267 -5l-244 733h205l131 -436l145 438h167l145 -438l131 436h201l-244 -733h-169l-150 430l-149 -430h-169z" />
    <glyph glyph-name="wgrave" unicode="&#x1e81;" horiz-adv-x="903" 
d="M391 613l-149 131l173 59l109 -190h-133zM191 -4l-172 566h187l77 -295l90 297h157l92 -298l79 296h183l-174 -566h-164l-95 302l-97 -302h-163z" />
    <glyph glyph-name="Yacute" unicode="&#xdd;" horiz-adv-x="758" 
d="M304 779l115 167l178 -57l-151 -110h-142zM283 0v275l-278 453h221l154 -271l157 271h217l-278 -449v-279h-193z" />
    <glyph glyph-name="yacute" unicode="&#xfd;" horiz-adv-x="654" 
d="M257 613l109 190l173 -59l-149 -131h-133zM332 214l109 348h194l-207 -554c-47 -128 -99 -178 -208 -178c-67 0 -122 19 -172 47l59 133c30 -17 61 -28 82 -28c22 0 36 6 49 25l-220 555h198z" />
    <glyph glyph-name="Ycircumflex" unicode="&#x176;" horiz-adv-x="758" 
d="M165 779l129 155h170l129 -155h-133l-82 56l-82 -56h-131zM283 0v275l-278 453h221l154 -271l157 271h217l-278 -449v-279h-193z" />
    <glyph glyph-name="ycircumflex" unicode="&#x177;" horiz-adv-x="654" 
d="M118 613l132 169h158l132 -169h-126l-86 64l-86 -64h-124zM332 214l109 348h194l-207 -554c-47 -128 -99 -178 -208 -178c-67 0 -122 19 -172 47l59 133c30 -17 61 -28 82 -28c22 0 36 6 49 25l-220 555h198z" />
    <glyph glyph-name="Ydieresis" unicode="&#x178;" horiz-adv-x="758" 
d="M181 779v142h167v-142h-167zM410 779v142h167v-142h-167zM283 0v275l-278 453h221l154 -271l157 271h217l-278 -449v-279h-193z" />
    <glyph glyph-name="ydieresis" unicode="&#xff;" horiz-adv-x="654" 
d="M138 613v146h165v-146h-165zM355 613v146h165v-146h-165zM332 214l109 348h194l-207 -554c-47 -128 -99 -178 -208 -178c-67 0 -122 19 -172 47l59 133c30 -17 61 -28 82 -28c22 0 36 6 49 25l-220 555h198z" />
    <glyph glyph-name="Ygrave" unicode="&#x1ef2;" horiz-adv-x="758" 
d="M455 779h-142l-151 110l178 57zM283 0v275l-278 453h221l154 -271l157 271h217l-278 -449v-279h-193z" />
    <glyph glyph-name="ygrave" unicode="&#x1ef3;" horiz-adv-x="654" 
d="M269 613l-149 131l173 59l109 -190h-133zM332 214l109 348h194l-207 -554c-47 -128 -99 -178 -208 -178c-67 0 -122 19 -172 47l59 133c30 -17 61 -28 82 -28c22 0 36 6 49 25l-220 555h198z" />
    <glyph glyph-name="Zacute" unicode="&#x179;" horiz-adv-x="736" 
d="M301 779l115 167l178 -57l-151 -110h-142zM51 0v141l372 423h-360v164h623v-141l-372 -423h372v-164h-635z" />
    <glyph glyph-name="zacute" unicode="&#x17a;" horiz-adv-x="594" 
d="M230 613l109 190l173 -59l-149 -131h-133zM41 0v126l266 285h-256v151h504v-126l-266 -285h266v-151h-514z" />
    <glyph glyph-name="Zcaron" unicode="&#x17d;" horiz-adv-x="736" 
d="M590 934l-129 -155h-170l-129 155h133l82 -56l82 56h131zM51 0v141l372 423h-360v164h623v-141l-372 -423h372v-164h-635z" />
    <glyph glyph-name="zcaron" unicode="&#x17e;" horiz-adv-x="594" 
d="M514 782l-132 -169h-158l-132 169h126l86 -64l86 64h124zM41 0v126l266 285h-256v151h504v-126l-266 -285h266v-151h-514z" />
    <glyph glyph-name="Zdotaccent" unicode="&#x17b;" horiz-adv-x="736" 
d="M290 779v142h172v-142h-172zM51 0v141l372 423h-360v164h623v-141l-372 -423h372v-164h-635z" />
    <glyph glyph-name="zdotaccent" unicode="&#x17c;" horiz-adv-x="594" 
d="M218 613v146h170v-146h-170zM41 0v126l266 285h-256v151h504v-126l-266 -285h266v-151h-514z" />
    <glyph glyph-name="AE" unicode="&#xc6;" horiz-adv-x="1109" 
d="M348 291h158v277h-14zM2 0l386 728h670v-165h-363v-119h324v-155h-324v-124h368v-165h-557v137h-237l-72 -137h-195z" />
    <glyph glyph-name="ae" unicode="&#xe6;" horiz-adv-x="988" 
d="M566 327h205c-8 64 -46 105 -102 105s-92 -42 -103 -105zM241 -12c-116 0 -209 59 -209 173v2c0 118 89 177 221 177c53 0 102 -10 136 -22v9c0 61 -38 94 -114 94c-60 0 -105 -11 -155 -31l-41 136c63 26 129 43 226 43c91 0 150 -23 190 -64c45 43 105 68 178 68
c186 0 276 -143 276 -307c0 -12 0 -27 -2 -40h-378c16 -63 61 -96 124 -96c49 0 86 18 128 57l105 -88c-54 -68 -131 -112 -241 -112c-89 0 -166 31 -218 84c-66 -49 -142 -83 -226 -83zM289 110c40 0 81 16 120 48c-9 22 -16 45 -19 71c-22 9 -51 16 -81 16
c-60 0 -95 -28 -95 -72v-2c0 -38 33 -61 75 -61z" />
    <glyph glyph-name="AEacute" unicode="&#x1fc;" horiz-adv-x="1109" 
d="M570 779l115 167l178 -57l-151 -110h-142zM348 291h158v277h-14zM2 0l386 728h670v-165h-363v-119h324v-155h-324v-124h368v-165h-557v137h-237l-72 -137h-195z" />
    <glyph glyph-name="aeacute" unicode="&#x1fd;" horiz-adv-x="988" 
d="M418 613l109 190l173 -59l-149 -131h-133zM566 327h205c-8 64 -46 105 -102 105s-92 -42 -103 -105zM241 -12c-116 0 -209 59 -209 173v2c0 118 89 177 221 177c53 0 102 -10 136 -22v9c0 61 -38 94 -114 94c-60 0 -105 -11 -155 -31l-41 136c63 26 129 43 226 43
c91 0 150 -23 190 -64c45 43 105 68 178 68c186 0 276 -143 276 -307c0 -12 0 -27 -2 -40h-378c16 -63 61 -96 124 -96c49 0 86 18 128 57l105 -88c-54 -68 -131 -112 -241 -112c-89 0 -166 31 -218 84c-66 -49 -142 -83 -226 -83zM289 110c40 0 81 16 120 48
c-9 22 -16 45 -19 71c-22 9 -51 16 -81 16c-60 0 -95 -28 -95 -72v-2c0 -38 33 -61 75 -61z" />
    <glyph glyph-name="OE" unicode="&#x152;" horiz-adv-x="1128" 
d="M453 0c-253 0 -406 151 -406 360v2c0 210 154 366 409 366h620v-165h-363v-119h325v-155h-325v-124h368v-165h-628zM448 169h74v390h-74c-121 0 -202 -74 -202 -193v-2c0 -119 81 -195 202 -195z" />
    <glyph glyph-name="oe" unicode="&#x153;" horiz-adv-x="1066" 
d="M337 -13c-168 0 -300 131 -300 291v2c0 160 133 293 305 293c86 0 158 -32 209 -86c48 54 117 86 197 86c190 0 279 -143 279 -307c0 -12 0 -27 -1 -40h-379c16 -63 62 -96 125 -96c48 0 86 18 127 57l105 -88c-54 -68 -130 -112 -238 -112c-91 0 -166 32 -218 86
c-51 -53 -125 -86 -211 -86zM644 327h205c-8 64 -46 105 -102 105c-55 0 -92 -42 -103 -105zM344 147c74 0 120 60 120 131v2c0 72 -51 133 -122 133c-74 0 -120 -61 -120 -131v-2c0 -72 51 -133 122 -133z" />
    <glyph glyph-name="Eth" unicode="&#xd0;" horiz-adv-x="855" 
d="M120 0v301h-82v131h82v296h282c253 0 406 -151 406 -360v-2c0 -209 -154 -366 -409 -366h-279zM448 302h-139v-135h95c125 0 205 74 205 195v2c0 122 -80 197 -205 197h-95v-131h139v-128z" />
    <glyph glyph-name="eth" unicode="&#xf0;" horiz-adv-x="693" 
d="M574 676l-68 -16c86 -93 148 -209 148 -344v-3c0 -184 -119 -326 -309 -326c-179 0 -308 127 -308 302v2c0 156 104 269 241 269c55 0 91 -14 131 -38c-20 31 -48 64 -80 96l-127 -29l-29 86l74 17c-30 24 -62 47 -92 67h241c11 -8 21 -17 32 -26l118 28zM347 147
c75 0 123 59 123 130v2c0 72 -52 131 -125 131c-76 0 -123 -58 -123 -129v-2c0 -72 52 -132 125 -132z" />
    <glyph glyph-name="Thorn" unicode="&#xde;" horiz-adv-x="715" 
d="M73 0v728h193v-104h117c181 0 297 -95 297 -253v-2c0 -171 -132 -259 -309 -259h-105v-110h-193zM266 267h103c73 0 118 40 118 98v2c0 64 -46 98 -120 98h-101v-198z" />
    <glyph glyph-name="thorn" unicode="&#xfe;" horiz-adv-x="710" 
d="M366 147c65 0 119 54 119 133v2c0 78 -54 133 -119 133c-66 0 -119 -55 -119 -133v-2c0 -78 53 -133 119 -133zM61 -166v925h189v-273c38 48 88 87 171 87c133 0 250 -109 250 -290v-2c0 -184 -116 -293 -249 -293c-85 0 -135 38 -172 81v-235h-189z" />
    <glyph glyph-name="uni018F" unicode="&#x18f;" horiz-adv-x="829" 
d="M93 618c72 72 168 124 310 124c219 0 379 -158 379 -376v-2c0 -207 -147 -378 -371 -378c-238 0 -364 177 -364 397v1c0 17 1 35 3 52h531c-22 85 -89 135 -180 135c-84 0 -143 -30 -201 -83zM412 150c89 0 150 56 170 142h-337c12 -80 72 -142 167 -142z" />
    <glyph glyph-name="schwa" unicode="&#x259;" horiz-adv-x="639" 
d="M302 574c175 0 300 -117 300 -290v-2c0 -163 -117 -294 -282 -294c-193 0 -281 143 -281 307c0 13 0 27 1 41h379c-16 63 -62 96 -124 96c-49 0 -87 -18 -128 -58l-105 89c54 67 131 111 240 111zM422 235h-205c8 -64 46 -105 102 -105c55 0 92 41 103 105z" />
    <glyph glyph-name="germandbls" unicode="&#xdf;" horiz-adv-x="665" 
d="M321 -2v136c77 4 121 34 121 86v3c0 50 -50 80 -121 87v105c47 25 87 62 87 115v2c0 48 -31 78 -74 78c-50 0 -85 -37 -85 -102v-508h-188v503c0 161 99 265 277 265c159 0 254 -94 254 -214v-2c0 -86 -47 -139 -105 -170c70 -24 142 -78 142 -178v-2
c0 -138 -127 -214 -308 -204z" />
    <glyph glyph-name="uni0386" unicode="&#x386;" horiz-adv-x="834" 
d="M20 502l11 226h175l-88 -226h-98zM330 291h169l-84 212zM14 0l310 733h185l310 -733h-206l-55 137h-287l-55 -137h-202z" />
    <glyph glyph-name="uni0388" unicode="&#x388;" horiz-adv-x="703" 
d="M73 0v728h578v-165h-387v-119h348v-155h-348v-124h392v-165h-583zM-146 502l11 226h175l-88 -226h-98z" />
    <glyph glyph-name="uni0389" unicode="&#x389;" horiz-adv-x="799" 
d="M-146 502l11 226h175l-88 -226h-98zM73 0v728h193v-276h267v276h193v-728h-193v280h-267v-280h-193z" />
    <glyph glyph-name="uni038A" unicode="&#x38a;" horiz-adv-x="350" 
d="M-142 502l11 226h175l-88 -226h-98zM78 0v728h194v-728h-194z" />
    <glyph glyph-name="uni038C" unicode="&#x38c;" horiz-adv-x="876" 
d="M437 -14c-225 0 -390 167 -390 376v2c0 209 167 378 392 378s390 -167 390 -376v-2c0 -209 -167 -378 -392 -378zM-106 502l11 226h175l-88 -226h-98zM439 161c115 0 191 92 191 201v2c0 109 -78 203 -193 203c-114 0 -191 -92 -191 -201v-2c0 -109 78 -203 193 -203z
" />
    <glyph glyph-name="uni038E" unicode="&#x38e;" horiz-adv-x="758" 
d="M-192 502l11 226h175l-88 -226h-98zM283 0v275l-278 453h221l154 -271l157 271h217l-278 -449v-279h-193z" />
    <glyph glyph-name="uni038F" unicode="&#x38f;" horiz-adv-x="894" 
d="M-105 502l11 226h175l-88 -226h-98zM449 742c241 0 381 -147 381 -331v-1c0 -119 -63 -198 -140 -254l156 1v-157h-341v155c72 52 126 115 126 224v1c0 108 -67 188 -184 187c-114 0 -183 -78 -183 -186v-1c0 -103 49 -170 126 -225v-155h-341v157l154 -1
c-76 58 -138 135 -138 255v1c0 175 142 331 384 330z" />
    <glyph glyph-name="uni0386.calt" horiz-adv-x="834" 
d="M330 291h169l-84 212zM14 0l310 733h185l310 -733h-206l-55 137h-287l-55 -137h-202z" />
    <glyph glyph-name="uni0388.calt" horiz-adv-x="703" 
d="M73 0v728h578v-165h-387v-119h348v-155h-348v-124h392v-165h-583z" />
    <glyph glyph-name="uni0389.calt" horiz-adv-x="799" 
d="M73 0v728h193v-276h267v276h193v-728h-193v280h-267v-280h-193z" />
    <glyph glyph-name="uni038A.calt" horiz-adv-x="350" 
d="M78 0v728h194v-728h-194z" />
    <glyph glyph-name="uni038C.calt" horiz-adv-x="876" 
d="M437 -14c-225 0 -390 167 -390 376v2c0 209 167 378 392 378s390 -167 390 -376v-2c0 -209 -167 -378 -392 -378zM439 161c115 0 191 92 191 201v2c0 109 -78 203 -193 203c-114 0 -191 -92 -191 -201v-2c0 -109 78 -203 193 -203z" />
    <glyph glyph-name="uni038E.calt" horiz-adv-x="758" 
d="M283 0v275l-278 453h221l154 -271l157 271h217l-278 -449v-279h-193z" />
    <glyph glyph-name="uni038F.calt" horiz-adv-x="894" 
d="M449 742c241 0 381 -147 381 -331v-1c0 -119 -63 -198 -140 -254l156 1v-157h-341v155c72 52 126 115 126 224v1c0 108 -67 188 -184 187c-114 0 -183 -78 -183 -186v-1c0 -103 49 -170 126 -225v-155h-341v157l154 -1c-76 58 -138 135 -138 255v1c0 175 142 331 384 330
z" />
    <glyph glyph-name="uni0399.calt" horiz-adv-x="350" 
d="M-23 779v142h167v-142h-167zM206 779v142h167v-142h-167zM78 0v728h194v-728h-194z" />
    <glyph glyph-name="uni03A5.calt" horiz-adv-x="758" 
d="M181 779v142h167v-142h-167zM410 779v142h167v-142h-167zM283 0v275l-278 453h221l154 -271l157 271h217l-278 -449v-279h-193z" />
    <glyph glyph-name="uni03AA" unicode="&#x3aa;" horiz-adv-x="350" 
d="M-23 779v142h167v-142h-167zM206 779v142h167v-142h-167zM78 0v728h194v-728h-194z" />
    <glyph glyph-name="uni03AB" unicode="&#x3ab;" horiz-adv-x="758" 
d="M181 779v142h167v-142h-167zM410 779v142h167v-142h-167zM283 0v275l-278 453h221l154 -271l157 271h217l-278 -449v-279h-193z" />
    <glyph glyph-name="uni03AC" unicode="&#x3ac;" horiz-adv-x="763" 
d="M317 616l65 196l168 -58l-113 -138h-120zM345 147c66 0 119 54 119 133v2c0 78 -53 133 -119 133s-120 -54 -120 -133v-2c0 -79 54 -133 120 -133zM739 146v-138c-23 -8 -58 -15 -101 -15c-79 0 -128 27 -152 87c-41 -55 -101 -92 -188 -92c-143 0 -259 109 -259 291v2
c0 183 116 292 249 292c85 0 136 -38 173 -81v70h189v-362c0 -42 19 -57 56 -57c12 0 22 1 33 3z" />
    <glyph glyph-name="uni03AD" unicode="&#x3ad;" horiz-adv-x="611" 
d="M249 616l65 196l168 -58l-113 -138h-120zM438 221h-132c-57 0 -81 -15 -81 -42v-1c0 -29 29 -46 92 -46c67 0 140 20 203 52l63 -125c-79 -45 -171 -71 -275 -71c-175 0 -269 64 -269 166v1c0 65 44 106 105 128c-60 24 -93 64 -93 121v1c0 96 87 167 267 167
c110 0 190 -24 261 -68l-71 -127c-48 30 -116 51 -182 51c-61 0 -89 -19 -89 -44v-1c0 -29 21 -42 73 -42h128v-120z" />
    <glyph glyph-name="uni03AE" unicode="&#x3ae;" horiz-adv-x="665" 
d="M273 616l65 196l168 -58l-113 -138h-120zM609 -166h-190v472c0 64 -32 99 -83 99c-50 0 -86 -35 -86 -99v-306h-189v562h189v-79c36 46 87 90 167 90c120 0 192 -79 192 -207v-532z" />
    <glyph glyph-name="uni03AF" unicode="&#x3af;" horiz-adv-x="361" 
d="M97 613l65 196l168 -58l-113 -138h-120zM58 182v380h190v-362c0 -42 19 -57 56 -57c12 0 22 1 33 3v-139c-24 -7 -61 -15 -104 -15c-118 0 -175 58 -175 190z" />
    <glyph glyph-name="uni03CC" unicode="&#x3cc;" horiz-adv-x="692" 
d="M285 616l65 196l168 -58l-113 -138h-120zM345 -13c-178 0 -308 131 -308 291v2c0 160 131 293 310 293c178 0 308 -131 308 -291v-2c0 -160 -131 -293 -310 -293zM347 147c75 0 123 60 123 131v2c0 72 -52 133 -125 133c-76 0 -123 -60 -123 -131v-2
c0 -72 52 -133 125 -133z" />
    <glyph glyph-name="uni03CD" unicode="&#x3cd;" horiz-adv-x="665" 
d="M271 613l65 196l168 -58l-113 -138h-120zM331 -13c-168 0 -277 84 -277 259v316h190v-311c0 -67 29 -102 89 -102s88 34 88 101v312h190v-313c0 -180 -111 -262 -280 -262z" />
    <glyph glyph-name="uni03CE" unicode="&#x3ce;" horiz-adv-x="950" 
d="M414 613l65 196l168 -58l-113 -138h-120zM383 458h184v-181c0 -87 35 -122 78 -122c49 0 77 37 77 123c0 91 -37 174 -125 284h200c68 -82 111 -171 111 -289c0 -174 -87 -283 -235 -283c-102 0 -163 55 -199 136c-36 -81 -96 -136 -199 -136c-148 0 -233 108 -233 282
c0 118 43 208 111 290h198c-87 -110 -124 -192 -124 -283c0 -86 29 -124 78 -124c43 0 78 35 78 122v181z" />
    <glyph glyph-name="uni03CA" unicode="&#x3ca;" horiz-adv-x="361" 
d="M-32 613v146h165v-146h-165zM185 613v146h165v-146h-165zM58 182v380h190v-362c0 -42 19 -57 56 -57c12 0 22 1 33 3v-139c-24 -7 -61 -15 -104 -15c-118 0 -175 58 -175 190z" />
    <glyph glyph-name="uni03CB" unicode="&#x3cb;" horiz-adv-x="665" 
d="M141 613v146h165v-146h-165zM358 613v146h165v-146h-165zM331 -13c-168 0 -277 84 -277 259v316h190v-311c0 -67 29 -102 89 -102s88 34 88 101v312h190v-313c0 -180 -111 -262 -280 -262z" />
    <glyph glyph-name="uni0390" unicode="&#x390;" horiz-adv-x="361" 
d="M80 613l42 225l144 -33l-89 -192h-97zM-91 613v145h145v-145h-145zM264 613v145h145v-145h-145zM58 182v380h190v-362c0 -42 19 -57 56 -57c12 0 22 1 33 3v-139c-24 -7 -61 -15 -104 -15c-118 0 -175 58 -175 190z" />
    <glyph glyph-name="uni03B0" unicode="&#x3b0;" horiz-adv-x="665" 
d="M253 613l42 225l144 -33l-89 -192h-97zM82 613v145h145v-145h-145zM437 613v145h145v-145h-145zM331 -13c-168 0 -277 84 -277 259v316h190v-311c0 -67 29 -102 89 -102s88 34 88 101v312h190v-313c0 -180 -111 -262 -280 -262z" />
    <glyph glyph-name="uni0462" unicode="&#x462;" horiz-adv-x="879" 
d="M583 431c163 0 265 -71 265 -209v-1c0 -131 -95 -221 -277 -221h-330v514h-210v149h210v77h190v-77h233v-144h-233v-88h152zM572 286h-142v-134h141c54 0 86 25 86 67v1c0 41 -29 66 -85 66z" />
    <glyph glyph-name="uni0472" unicode="&#x472;" horiz-adv-x="866" 
d="M432 -14c-223 0 -385 167 -385 376v2c0 209 164 378 387 378s385 -167 385 -376v-2c0 -209 -164 -378 -387 -378zM432 579c-97 0 -170 -55 -193 -138h387c-25 82 -99 138 -194 138zM434 149c98 0 172 56 194 142h-390c23 -85 97 -142 196 -142z" />
    <glyph glyph-name="uni0474" unicode="&#x474;" horiz-adv-x="838" 
d="M303 -5l-289 733h215l167 -471l92 254c61 169 136 219 293 219h35v-169h-11c-70 0 -106 -23 -140 -107l-183 -459h-179z" />
    <glyph glyph-name="uni0490" unicode="&#x490;" horiz-adv-x="650" 
d="M73 728h369v148h179v-319h-355v-557h-193v728z" />
    <glyph glyph-name="uni0404" unicode="&#x404;" horiz-adv-x="765" 
d="M426 -14c-226 0 -379 164 -379 376v2c0 207 152 378 385 378c138 0 220 -41 295 -104l-104 -144c-54 46 -110 77 -188 77c-92 0 -164 -50 -188 -132l306 2v-150l-308 1c23 -84 93 -135 189 -135c81 0 138 33 195 80l104 -132c-85 -75 -174 -119 -307 -119z" />
    <glyph glyph-name="uni0406" unicode="&#x406;" horiz-adv-x="350" 
d="M78 0v728h194v-728h-194z" />
    <glyph glyph-name="uni0407" unicode="&#x407;" horiz-adv-x="350" 
d="M-23 779v142h167v-142h-167zM206 779v142h167v-142h-167zM78 0v728h194v-728h-194z" />
    <glyph glyph-name="uni0402" unicode="&#x402;" horiz-adv-x="882" 
d="M648 728v-168h-219v-115c46 7 90 11 136 11c184 0 285 -82 285 -226c0 -147 -100 -232 -279 -232c-8 0 -28 0 -33 1v148h12c75 0 110 29 110 73c0 46 -30 75 -116 75c-40 0 -73 -3 -115 -9v-286h-193v560h-205v168h617z" />
    <glyph glyph-name="uni0408" unicode="&#x408;" horiz-adv-x="595" 
d="M262 -12c-124 0 -201 52 -252 120l124 121c37 -44 72 -69 118 -69c53 0 86 35 86 106v462h193v-465c0 -90 -23 -155 -71 -203c-47 -47 -116 -72 -198 -72z" />
    <glyph glyph-name="uni0409" unicode="&#x409;" horiz-adv-x="1128" 
d="M499 0v572h-5l-297 -572h-195l386 728h304v-220h103c182 0 302 -84 302 -249v-1c0 -162 -116 -258 -308 -258h-290zM692 165h94c72 0 118 32 118 95v1c0 59 -42 93 -117 92h-95v-188z" />
    <glyph glyph-name="uni040A" unicode="&#x40a;" horiz-adv-x="1152" 
d="M716 165h93c73 0 119 32 119 95v1c0 59 -42 93 -118 92h-94v-188zM523 0v280h-257v-280h-193v728h193v-276h257v276h193v-220h103c182 0 302 -84 302 -249v-1c0 -162 -116 -258 -308 -258h-290z" />
    <glyph glyph-name="uni040B" unicode="&#x40b;" horiz-adv-x="906" 
d="M648 728v-168h-219v-124c46 8 91 12 134 12c174 0 287 -80 287 -265v-183h-193v161c0 82 -38 117 -121 117c-37 0 -73 -4 -107 -10v-268h-193v560h-205v168h617z" />
    <glyph glyph-name="uni040F" unicode="&#x40f;" horiz-adv-x="794" 
d="M308 -155v155h-235v728h193v-556h262v556h193v-728h-234v-155h-179z" />
    <glyph glyph-name="uni040E" unicode="&#x40e;" horiz-adv-x="779" 
d="M397 777c-114 0 -191 54 -203 157h116c13 -31 38 -48 87 -48s74 17 87 48h116c-12 -103 -89 -157 -203 -157zM371 0h-216l141 247l-281 481h220l167 -301l156 301h216z" />
    <glyph glyph-name="uni0403" unicode="&#x403;" horiz-adv-x="650" 
d="M265 779l115 167l178 -57l-151 -110h-142zM73 0v728h548v-169h-355v-559h-193z" />
    <glyph glyph-name="uni0405" unicode="&#x405;" horiz-adv-x="684" 
d="M354 -12c-126 0 -246 40 -335 119l109 130c71 -56 148 -87 232 -87c57 0 88 20 88 54v2c0 33 -24 50 -128 75c-154 35 -268 78 -268 227v2c0 134 107 230 277 230c119 0 215 -34 293 -96l-97 -138c-66 47 -137 72 -201 72c-51 0 -77 -22 -77 -50v-2c0 -37 26 -51 133 -77
c163 -36 263 -90 263 -225v-2c0 -148 -117 -234 -289 -234z" />
    <glyph glyph-name="uni040C" unicode="&#x40c;" horiz-adv-x="773" 
d="M314 779l115 167l178 -57l-151 -110h-142zM73 0v728h193l-1 -278h40l227 278h232l-306 -353l322 -375h-241l-233 282h-41l1 -282h-193z" />
    <glyph glyph-name="uni0400" unicode="&#x400;" horiz-adv-x="703" 
d="M440 779h-142l-151 110l178 57zM73 0v728h578v-165h-387v-119h348v-155h-348v-124h392v-165h-583z" />
    <glyph glyph-name="uni040D" unicode="&#x40d;" horiz-adv-x="825" 
d="M488 779h-142l-151 110l178 57zM752 0h-193v427l-317 -427h-169v728h193v-412l306 412h180v-728z" />
    <glyph glyph-name="uni0492" unicode="&#x492;" horiz-adv-x="697" 
d="M120 0v269h-82v131h82v328h548v-169h-355v-160h167v-130h-167v-269h-193z" />
    <glyph glyph-name="uni0496" unicode="&#x496;" horiz-adv-x="1176" 
d="M1138 728l-286 -355l164 -201h146v-327h-179v155h-57l-225 284h-29l2 -284h-192l3 284h-35l-224 -284h-226l303 365l-285 363h230l211 -280h26l-3 280h192l-2 -280h25l215 280h226z" />
    <glyph glyph-name="uni0498" unicode="&#x498;" horiz-adv-x="711" 
d="M138 499l-95 134c83 64 179 109 318 109c188 0 292 -81 292 -200v-1c0 -89 -43 -134 -125 -167c86 -25 143 -69 143 -169v-1c0 -105 -82 -191 -238 -212l7 -147h-183l5 147c-95 14 -170 50 -230 98l96 140c68 -48 142 -79 222 -79c77 0 125 26 125 73v1
c0 43 -41 70 -120 69h-147v146h148c68 0 103 28 103 69v1c0 42 -38 67 -106 67c-77 0 -153 -33 -215 -78z" />
    <glyph glyph-name="uni049A" unicode="&#x49a;" horiz-adv-x="794" 
d="M73 0v728h193l-1 -278h40l227 278h232l-306 -353l174 -203h150v-327h-179v155h-64l-233 282h-41l1 -282h-193z" />
    <glyph glyph-name="uni049C" unicode="&#x49c;" horiz-adv-x="826" 
d="M802 728l-237 -344l251 -384h-223l-168 265h-1l5 -159h-99l3 186h-67v-292h-193v728h193v-281h67l-3 195h99l-5 -168h1l161 254h216z" />
    <glyph glyph-name="uni04A0" unicode="&#x4a0;" horiz-adv-x="945" 
d="M31 563v165h406l-1 -278h40l227 278h232l-306 -353l322 -375h-241l-233 282h-41l1 -282h-193v563h-213z" />
    <glyph glyph-name="uni04A2" unicode="&#x4a2;" horiz-adv-x="851" 
d="M73 0v728h193v-276h267v276h193v-556h100v-327h-179v155h-114v280h-267v-280h-193z" />
    <glyph glyph-name="uni04A4" unicode="&#x4a4;" horiz-adv-x="1067" 
d="M523 0v280h-257v-280h-193v728h193v-276h257v276h516v-169h-322v-559h-194z" />
    <glyph glyph-name="uni04AA" unicode="&#x4aa;" horiz-adv-x="769" 
d="M329 -155l6 151c-166 37 -288 181 -288 366v2c0 211 161 378 383 378c146 0 239 -59 304 -143l-142 -118c-44 51 -94 85 -164 85c-107 0 -181 -90 -181 -200v-2c0 -113 74 -202 181 -202c77 0 123 35 169 88l142 -107c-57 -74 -126 -131 -233 -150l6 -148h-183z" />
    <glyph glyph-name="uni04AE" unicode="&#x4ae;" horiz-adv-x="758" 
d="M283 0v275l-278 453h221l154 -271l157 271h217l-278 -449v-279h-193z" />
    <glyph glyph-name="uni04B0" unicode="&#x4b0;" horiz-adv-x="758" 
d="M283 0v172h-167v131h150l-261 425h221l154 -271l157 271h217l-263 -425h151v-131h-166v-172h-193z" />
    <glyph glyph-name="uni04B2" unicode="&#x4b2;" horiz-adv-x="799" 
d="M522 728h217l-240 -355l135 -201h144v-327h-179v155h-72l-144 226l-146 -226h-217l250 370l-240 358h223l133 -212z" />
    <glyph glyph-name="uni04B6" unicode="&#x4b6;" horiz-adv-x="811" 
d="M493 0v222c-49 -9 -101 -15 -146 -15c-186 0 -288 94 -288 265v256h194v-230c0 -82 38 -116 121 -116c41 0 81 5 119 14v332h194v-556h99v-327h-179v155h-114z" />
    <glyph glyph-name="uni04B8" unicode="&#x4b8;" horiz-adv-x="765" 
d="M498 0v227c-24 -5 -50 -8 -75 -11l2 -145h-99l2 140c-162 5 -268 86 -268 265v252h193v-228c0 -66 24 -101 76 -112l-3 193h99l-2 -195c26 3 52 7 75 13v329h194v-728h-194z" />
    <glyph glyph-name="uni04BA" unicode="&#x4ba;" horiz-adv-x="760" 
d="M266 728v-223c49 9 101 16 147 16c186 0 287 -94 287 -265v-256h-193v230c0 82 -38 116 -121 116c-42 0 -83 -6 -120 -15v-331h-193v728h193z" />
    <glyph glyph-name="uni04C0" unicode="&#x4c0;" horiz-adv-x="350" 
d="M78 0v728h194v-728h-194z" />
    <glyph glyph-name="uni04C1" unicode="&#x4c1;" horiz-adv-x="1156" 
d="M578 777c-114 0 -191 54 -203 157h116c13 -31 38 -48 87 -48s74 17 87 48h116c-12 -103 -89 -157 -203 -157zM18 728h230l211 -280h26l-3 280h192l-2 -280h25l215 280h226l-286 -355l305 -373h-231l-225 284h-29l2 -284h-192l3 284h-35l-224 -284h-226l303 365z" />
    <glyph glyph-name="uni04D0" unicode="&#x4d0;" horiz-adv-x="834" 
d="M417 787c-114 0 -191 54 -203 157h116c13 -31 38 -48 87 -48s74 17 87 48h116c-12 -103 -89 -157 -203 -157zM330 291h169l-84 212zM14 0l310 733h185l310 -733h-206l-55 137h-287l-55 -137h-202z" />
    <glyph glyph-name="uni04D2" unicode="&#x4d2;" horiz-adv-x="834" 
d="M219 789v142h167v-142h-167zM448 789v142h167v-142h-167zM330 291h169l-84 212zM14 0l310 733h185l310 -733h-206l-55 137h-287l-55 -137h-202z" />
    <glyph glyph-name="uni04D4" unicode="&#x4d4;" horiz-adv-x="1109" 
d="M348 291h158v277h-14zM2 0l386 728h670v-165h-363v-119h324v-155h-324v-124h368v-165h-557v137h-237l-72 -137h-195z" />
    <glyph glyph-name="uni04D6" unicode="&#x4d6;" horiz-adv-x="703" 
d="M365 777c-114 0 -191 54 -203 157h116c13 -31 38 -48 87 -48s74 17 87 48h116c-12 -103 -89 -157 -203 -157zM73 0v728h578v-165h-387v-119h348v-155h-348v-124h392v-165h-583z" />
    <glyph glyph-name="uni04D8" unicode="&#x4d8;" horiz-adv-x="829" 
d="M93 618c72 72 168 124 310 124c219 0 379 -158 379 -376v-2c0 -207 -147 -378 -371 -378c-238 0 -364 177 -364 397v1c0 17 1 35 3 52h531c-22 85 -89 135 -180 135c-84 0 -143 -30 -201 -83zM412 150c89 0 150 56 170 142h-337c12 -80 72 -142 167 -142z" />
    <glyph glyph-name="uni04DC" unicode="&#x4dc;" horiz-adv-x="1156" 
d="M380 779v142h167v-142h-167zM609 779v142h167v-142h-167zM18 728h230l211 -280h26l-3 280h192l-2 -280h25l215 280h226l-286 -355l305 -373h-231l-225 284h-29l2 -284h-192l3 284h-35l-224 -284h-226l303 365z" />
    <glyph glyph-name="uni04DE" unicode="&#x4de;" horiz-adv-x="711" 
d="M157 783v142h167v-142h-167zM386 783v142h167v-142h-167zM138 499l-95 134c83 64 179 109 318 109c188 0 292 -81 292 -200v-1c0 -89 -43 -134 -125 -167c86 -25 143 -69 143 -169v-1c0 -122 -111 -218 -321 -218c-139 0 -240 43 -318 104l96 140c68 -48 142 -79 222 -79
c77 0 125 26 125 73v1c0 43 -41 70 -120 69h-147v146h148c68 0 103 28 103 69v1c0 42 -38 67 -106 67c-77 0 -153 -33 -215 -78z" />
    <glyph glyph-name="uni04E2" unicode="&#x4e2;" horiz-adv-x="825" 
d="M208 786v120h410v-120h-410zM752 0h-193v427l-317 -427h-169v728h193v-412l306 412h180v-728z" />
    <glyph glyph-name="uni04E4" unicode="&#x4e4;" horiz-adv-x="825" 
d="M215 779v142h167v-142h-167zM444 779v142h167v-142h-167zM752 0h-193v427l-317 -427h-169v728h193v-412l306 412h180v-728z" />
    <glyph glyph-name="uni04E6" unicode="&#x4e6;" horiz-adv-x="876" 
d="M240 789v142h167v-142h-167zM469 789v142h167v-142h-167zM437 -14c-225 0 -390 167 -390 376v2c0 209 167 378 392 378s390 -167 390 -376v-2c0 -209 -167 -378 -392 -378zM439 161c115 0 191 92 191 201v2c0 109 -78 203 -193 203c-114 0 -191 -92 -191 -201v-2
c0 -109 78 -203 193 -203z" />
    <glyph glyph-name="uni04E8" unicode="&#x4e8;" horiz-adv-x="866" 
d="M432 -14c-223 0 -385 167 -385 376v2c0 209 164 378 387 378s385 -167 385 -376v-2c0 -209 -164 -378 -387 -378zM432 579c-97 0 -170 -55 -193 -138h387c-25 82 -99 138 -194 138zM434 149c98 0 172 56 194 142h-390c23 -85 97 -142 196 -142z" />
    <glyph glyph-name="uni04EE" unicode="&#x4ee;" horiz-adv-x="779" 
d="M192 786v120h410v-120h-410zM371 0h-216l141 247l-281 481h220l167 -301l156 301h216z" />
    <glyph glyph-name="uni04F0" unicode="&#x4f0;" horiz-adv-x="779" 
d="M199 779v142h167v-142h-167zM428 779v142h167v-142h-167zM371 0h-216l141 247l-281 481h220l167 -301l156 301h216z" />
    <glyph glyph-name="uni04F2" unicode="&#x4f2;" horiz-adv-x="779" 
d="M420 779l111 167l166 -57l-147 -110h-130zM216 779l111 167l166 -57l-147 -110h-130zM371 0h-216l141 247l-281 481h220l167 -301l156 301h216z" />
    <glyph glyph-name="uni04F4" unicode="&#x4f4;" horiz-adv-x="760" 
d="M175 779v142h167v-142h-167zM404 779v142h167v-142h-167zM493 0v222c-49 -9 -101 -15 -146 -15c-186 0 -288 94 -288 265v256h194v-230c0 -82 38 -116 121 -116c41 0 81 5 119 14v332h194v-728h-194z" />
    <glyph glyph-name="uni04F8" unicode="&#x4f8;" horiz-adv-x="1030" 
d="M315 779v142h167v-142h-167zM544 779v142h167v-142h-167zM763 0v728h194v-728h-194zM73 0v728h193v-220h112c182 0 302 -84 302 -249v-1c0 -162 -116 -258 -308 -258h-299zM266 165h102c73 0 119 32 119 95v1c0 59 -43 93 -118 92h-103v-188z" />
    <glyph glyph-name="uni0431.srb" horiz-adv-x="682" 
d="M577 759v-155l-275 6c-15 0 -23 -6 -23 -15c0 -8 7 -13 20 -19l104 -48c142 -60 241 -133 241 -273v-1c0 -147 -117 -268 -307 -267c-177 0 -300 113 -300 266v1c0 122 70 206 193 235l-12 7c-73 39 -119 73 -119 143c0 64 52 120 183 120h295zM342 141
c72 0 120 50 120 120v1c0 71 -53 120 -121 120c-75 0 -121 -56 -121 -120v-1c0 -69 51 -120 122 -120z" />
    <glyph glyph-name="uni0463" unicode="&#x463;" horiz-adv-x="733" 
d="M368 359h118c138 0 220 -62 220 -175v-1c0 -106 -80 -183 -228 -183h-298v420h-154v142h154v197h188v-197h195v-139h-195v-64zM366 234v-104h89c44 0 69 19 69 53v1c0 30 -22 51 -68 50h-90z" />
    <glyph glyph-name="uni0473" unicode="&#x473;" horiz-adv-x="683" 
d="M341 -13c-176 0 -304 131 -304 291v2c0 160 129 293 306 293c175 0 303 -131 303 -291v-2c0 -160 -129 -293 -305 -293zM341 429c-64 0 -112 -36 -128 -92h256c-17 56 -67 92 -128 92zM343 132c63 0 111 37 127 92h-257c18 -57 68 -92 130 -92z" />
    <glyph glyph-name="uni0475" unicode="&#x475;" horiz-adv-x="674" 
d="M235 -4l-219 566h201l109 -338l48 142c50 146 108 198 246 198c6 0 28 0 34 -1v-150h-2c-61 0 -88 -24 -116 -93l-128 -324h-173z" />
    <glyph glyph-name="uni0491" unicode="&#x491;" horiz-adv-x="538" 
d="M61 0v562h282v128h169v-292h-262v-398h-189z" />
    <glyph glyph-name="uni0454" unicode="&#x454;" horiz-adv-x="615" 
d="M582 498l-81 -127c-45 33 -92 54 -149 54c-61 0 -116 -29 -136 -84l226 3v-126l-227 2c19 -57 74 -85 137 -85c55 0 106 19 155 54l81 -121c-69 -51 -143 -81 -245 -81c-185 0 -306 127 -306 292v2c0 164 121 292 309 292c106 0 172 -28 236 -75z" />
    <glyph glyph-name="uni0456" unicode="&#x456;" horiz-adv-x="321" 
d="M62 615v144h197v-144h-197zM66 0v562h189v-562h-189z" />
    <glyph glyph-name="uni0457" unicode="&#x457;" horiz-adv-x="321" 
d="M-31 613v146h165v-146h-165zM186 613v146h165v-146h-165zM66 0v562h189v-562h-189z" />
    <glyph glyph-name="uni0452" unicode="&#x452;" horiz-adv-x="654" 
d="M413 559h-157v-106c30 8 71 14 111 14c143 0 238 -60 238 -221v-205c0 -139 -69 -211 -214 -211c-34 0 -57 3 -78 8v130c11 -2 20 -2 31 -2c43 0 70 19 72 67v196c0 53 -28 73 -84 73c-31 0 -53 -4 -76 -11v-291h-189v558h-88v139h88v62h189v-62h157v-138z" />
    <glyph glyph-name="uni0458" unicode="&#x458;" horiz-adv-x="322" 
d="M62 615v144h197v-144h-197zM59 -170c-31 0 -55 4 -79 8v129c10 -1 19 -2 28 -2c37 0 58 18 58 66v531h189v-540c0 -139 -71 -192 -196 -192z" />
    <glyph glyph-name="uni0459" unicode="&#x459;" horiz-adv-x="937" 
d="M394 0v419h-2l-198 -419h-195l272 562h311v-150h85c152 0 243 -74 243 -202v-1c0 -121 -90 -209 -252 -209h-264zM581 142h64c51 0 82 24 82 67v1c0 39 -28 65 -81 65h-65v-133z" />
    <glyph glyph-name="uni045A" unicode="&#x45a;" horiz-adv-x="964" 
d="M608 275v-133h64c51 0 82 24 82 67v1c0 39 -28 65 -81 65h-65zM609 562v-150h85c153 0 244 -74 244 -202v-1c0 -121 -91 -209 -253 -209h-264v200h-171v-200h-189v562h189v-197h171v197h188z" />
    <glyph glyph-name="uni045B" unicode="&#x45b;" horiz-adv-x="654" 
d="M256 759v-62h157v-138h-157v-106c30 8 71 14 111 14c143 0 238 -60 238 -221v-246h-189v229c0 53 -28 73 -84 73c-31 0 -53 -4 -76 -11v-291h-189v558h-88v139h88v62h189z" />
    <glyph glyph-name="uni045F" unicode="&#x45f;" horiz-adv-x="680" 
d="M61 0v562h189v-398h180v398h189v-562h-193v-141h-172v141h-193z" />
    <glyph glyph-name="uni045E" unicode="&#x45e;" horiz-adv-x="654" 
d="M329 610c-114 0 -193 63 -203 172h114c12 -37 37 -61 89 -61s77 24 89 61h114c-10 -109 -89 -172 -203 -172zM332 214l109 348h194l-207 -554c-47 -128 -99 -178 -208 -178c-67 0 -122 19 -172 47l59 133c30 -17 61 -28 82 -28c22 0 36 6 49 25l-220 555h198z" />
    <glyph glyph-name="uni0453" unicode="&#x453;" horiz-adv-x="538" 
d="M209 613l109 190l173 -59l-149 -131h-133zM61 0v562h451v-164h-262v-398h-189z" />
    <glyph glyph-name="uni0455" unicode="&#x455;" horiz-adv-x="540" 
d="M278 -12c-91 0 -183 27 -260 84l73 116c63 -43 132 -65 189 -65c37 0 54 12 54 32v2c0 25 -37 35 -96 52c-105 28 -193 65 -193 177v2c0 118 95 184 221 184c80 0 163 -24 227 -65l-66 -122c-57 33 -120 53 -163 53c-32 0 -48 -13 -48 -30v-2c0 -24 37 -35 96 -54
c104 -29 193 -68 193 -175v-2c0 -124 -93 -187 -227 -187z" />
    <glyph glyph-name="uni045C" unicode="&#x45c;" horiz-adv-x="649" 
d="M266 613l109 190l173 -59l-149 -131h-133zM250 562v-201h31l141 201h222l-215 -275l220 -287h-220l-146 202h-33v-202h-189v562h189z" />
    <glyph glyph-name="uni0450" unicode="&#x450;" horiz-adv-x="639" 
d="M260 616l-149 131l173 59l109 -190h-133zM337 -13c-175 0 -300 118 -300 291v2c0 163 117 293 283 293c192 0 281 -143 281 -307c0 -12 -1 -27 -2 -40h-379c16 -63 62 -96 125 -96c49 0 86 18 127 57l105 -88c-54 -68 -131 -112 -240 -112zM218 327h204
c-8 64 -45 105 -102 105c-55 0 -92 -42 -102 -105z" />
    <glyph glyph-name="uni045D" unicode="&#x45d;" horiz-adv-x="680" 
d="M279 613l-149 131l173 59l109 -190h-133zM61 0v562h187v-282l197 282h174v-562h-187v290l-203 -290h-168z" />
    <glyph glyph-name="uni0493" unicode="&#x493;" horiz-adv-x="562" 
d="M86 0v196h-67v92h67v274h451v-164h-262v-110h124v-92h-124v-196h-189z" />
    <glyph glyph-name="uni0497" unicode="&#x497;" horiz-adv-x="988" 
d="M964 562l-209 -275l92 -123h133v-305h-172v141h-52l-147 203h-32l3 -203h-187l3 203h-34l-147 -203h-213l215 276l-208 286h215l141 -202h31l-3 202h187l-3 -202h31l143 202h213z" />
    <glyph glyph-name="uni0499" unicode="&#x499;" horiz-adv-x="607" 
d="M29 59l70 126c56 -33 127 -53 194 -53c64 0 92 18 92 47v1c0 26 -24 42 -80 41h-131v120h129c49 0 70 14 70 43v1c0 26 -29 44 -82 43c-69 0 -128 -19 -182 -53l-74 120c69 48 152 78 266 78c160 0 259 -65 259 -163v-1c0 -60 -33 -100 -98 -124c69 -21 109 -63 109 -130
v-1c0 -81 -70 -143 -192 -161l7 -134h-178l6 134c-74 10 -134 33 -185 66z" />
    <glyph glyph-name="uni049B" unicode="&#x49b;" horiz-adv-x="660" 
d="M250 562v-201h31l141 201h222l-215 -275l94 -123h128v-305h-172v141h-50l-146 202h-33v-202h-189v562h189z" />
    <glyph glyph-name="uni049D" unicode="&#x49d;" horiz-adv-x="711" 
d="M696 562l-186 -265l191 -297h-207l-124 209h-1l4 -137h-80l1 149h-45v-221h-188v562h188v-207h45l-1 143h80l-4 -134h1l124 198h202z" />
    <glyph glyph-name="uni04A1" unicode="&#x4a1;" horiz-adv-x="771" 
d="M372 562v-201h31l141 201h222l-215 -275l220 -287h-220l-146 202h-33v-202h-189v406h-157v156h346z" />
    <glyph glyph-name="uni04A3" unicode="&#x4a3;" horiz-adv-x="719" 
d="M61 0v562h189v-197h180v197h189v-398h76v-305h-172v141h-93v200h-180v-200h-189z" />
    <glyph glyph-name="uni04A5" unicode="&#x4a5;" horiz-adv-x="888" 
d="M421 0v200h-171v-200h-189v562h189v-197h171v197h441v-164h-252v-398h-189z" />
    <glyph glyph-name="uni04AB" unicode="&#x4ab;" horiz-adv-x="600" 
d="M239 -141l6 140c-124 36 -208 148 -208 279v2c0 159 123 293 300 293c113 0 187 -47 236 -119l-126 -101c-29 37 -60 60 -109 60c-68 0 -116 -59 -116 -131v-2c0 -75 48 -133 118 -133c49 0 80 22 112 58l124 -95c-40 -56 -91 -98 -166 -115l7 -136h-178z" />
    <glyph glyph-name="uni04AF" unicode="&#x4af;" horiz-adv-x="653" 
d="M636 562l-215 -543v-185h-189v184l-216 544h201l110 -336l112 336h197z" />
    <glyph glyph-name="uni04B1" unicode="&#x4b1;" horiz-adv-x="653" 
d="M575 93v-93h-154v-166h-189v166h-155v93h125l-186 469h201l110 -336l112 336h197l-186 -469h125z" />
    <glyph glyph-name="uni04B3" unicode="&#x4b3;" horiz-adv-x="641" 
d="M223 562l88 -146l88 146h200l-186 -277l81 -121h133v-305h-172v141h-55l-92 152l-93 -152h-200l191 283l-186 279h203z" />
    <glyph glyph-name="uni04B7" unicode="&#x4b7;" horiz-adv-x="685" 
d="M396 0v156c-30 -7 -71 -14 -111 -14c-143 0 -237 60 -237 221v199h188v-181c0 -52 28 -73 84 -73c31 0 53 5 76 11v243h189v-398h76v-305h-172v141h-93z" />
    <glyph glyph-name="uni04B9" unicode="&#x4b9;" horiz-adv-x="659" 
d="M411 0v160c-15 -4 -33 -7 -51 -10l2 -105h-81l2 100c-143 2 -235 64 -235 226v191h186v-179c0 -41 16 -63 49 -71l-2 135h81l-3 -138c19 2 35 6 52 11v242h187v-562h-187z" />
    <glyph glyph-name="uni04BB" unicode="&#x4bb;" horiz-adv-x="665" 
d="M61 0v759h189v-275c36 47 87 89 167 89c120 0 192 -79 192 -207v-366h-190v306c0 64 -32 99 -83 99c-50 0 -86 -35 -86 -99v-306h-189z" />
    <glyph glyph-name="uni04CF" unicode="&#x4cf;" horiz-adv-x="321" 
d="M66 0v759h189v-759h-189z" />
    <glyph glyph-name="uni04C2" unicode="&#x4c2;" horiz-adv-x="973" 
d="M486 610c-114 0 -193 63 -203 172h114c12 -37 37 -61 89 -61s77 24 89 61h114c-10 -109 -89 -172 -203 -172zM580 562l-3 -202h31l143 202h213l-209 -275l216 -287h-215l-147 203h-32l3 -203h-187l3 203h-34l-147 -203h-213l215 276l-208 286h215l141 -202h31l-3 202h187
z" />
    <glyph glyph-name="uni04D1" unicode="&#x4d1;" 
d="M318 613c-114 0 -193 63 -203 172h114c12 -37 37 -61 89 -61s77 24 89 61h114c-10 -109 -89 -172 -203 -172zM287 108c61 0 104 38 104 94v26c-22 10 -51 17 -82 17c-60 0 -95 -28 -95 -72v-2c0 -39 31 -63 73 -63zM221 -12c-107 0 -189 62 -189 173v2
c0 118 89 177 221 177c53 0 102 -10 136 -22v9c0 61 -38 94 -114 94c-60 0 -105 -11 -155 -31l-41 136c63 26 129 43 226 43c98 0 165 -23 209 -67c42 -42 60 -101 60 -179v-323h-186v59c-39 -43 -92 -71 -167 -71z" />
    <glyph glyph-name="uni04D3" unicode="&#x4d3;" 
d="M127 616v146h165v-146h-165zM344 616v146h165v-146h-165zM287 108c61 0 104 38 104 94v26c-22 10 -51 17 -82 17c-60 0 -95 -28 -95 -72v-2c0 -39 31 -63 73 -63zM221 -12c-107 0 -189 62 -189 173v2c0 118 89 177 221 177c53 0 102 -10 136 -22v9c0 61 -38 94 -114 94
c-60 0 -105 -11 -155 -31l-41 136c63 26 129 43 226 43c98 0 165 -23 209 -67c42 -42 60 -101 60 -179v-323h-186v59c-39 -43 -92 -71 -167 -71z" />
    <glyph glyph-name="uni04D5" unicode="&#x4d5;" horiz-adv-x="988" 
d="M566 327h205c-8 64 -46 105 -102 105s-92 -42 -103 -105zM241 -12c-116 0 -209 59 -209 173v2c0 118 89 177 221 177c53 0 102 -10 136 -22v9c0 61 -38 94 -114 94c-60 0 -105 -11 -155 -31l-41 136c63 26 129 43 226 43c91 0 150 -23 190 -64c45 43 105 68 178 68
c186 0 276 -143 276 -307c0 -12 0 -27 -2 -40h-378c16 -63 61 -96 124 -96c49 0 86 18 128 57l105 -88c-54 -68 -131 -112 -241 -112c-89 0 -166 31 -218 84c-66 -49 -142 -83 -226 -83zM289 110c40 0 81 16 120 48c-9 22 -16 45 -19 71c-22 9 -51 16 -81 16
c-60 0 -95 -28 -95 -72v-2c0 -38 33 -61 75 -61z" />
    <glyph glyph-name="uni04D7" unicode="&#x4d7;" horiz-adv-x="639" 
d="M321 613c-114 0 -193 63 -203 172h114c12 -37 37 -61 89 -61s77 24 89 61h114c-10 -109 -89 -172 -203 -172zM337 -13c-175 0 -300 118 -300 291v2c0 163 117 293 283 293c192 0 281 -143 281 -307c0 -12 -1 -27 -2 -40h-379c16 -63 62 -96 125 -96c49 0 86 18 127 57
l105 -88c-54 -68 -131 -112 -240 -112zM218 327h204c-8 64 -45 105 -102 105c-55 0 -92 -42 -102 -105z" />
    <glyph glyph-name="uni04D9" unicode="&#x4d9;" horiz-adv-x="639" 
d="M302 574c175 0 300 -117 300 -290v-2c0 -163 -117 -294 -282 -294c-193 0 -281 143 -281 307c0 13 0 27 1 41h379c-16 63 -62 96 -124 96c-49 0 -87 -18 -128 -58l-105 89c54 67 131 111 240 111zM422 235h-205c8 -64 46 -105 102 -105c55 0 92 41 103 105z" />
    <glyph glyph-name="uni04DD" unicode="&#x4dd;" horiz-adv-x="973" 
d="M295 613v146h165v-146h-165zM512 613v146h165v-146h-165zM580 562l-3 -202h31l143 202h213l-209 -275l216 -287h-215l-147 203h-32l3 -203h-187l3 203h-34l-147 -203h-213l215 276l-208 286h215l141 -202h31l-3 202h187z" />
    <glyph glyph-name="uni04DF" unicode="&#x4df;" horiz-adv-x="607" 
d="M112 616v146h165v-146h-165zM329 616v146h165v-146h-165zM29 59l70 126c56 -33 127 -53 194 -53c64 0 92 18 92 47v1c0 26 -24 42 -80 41h-131v120h129c49 0 70 14 70 43v1c0 26 -29 44 -82 43c-69 0 -128 -19 -182 -53l-74 120c69 48 152 78 266 78
c160 0 259 -65 259 -163v-1c0 -60 -33 -100 -98 -124c69 -21 109 -63 109 -130v-1c0 -97 -102 -167 -273 -167c-113 0 -199 28 -269 72z" />
    <glyph glyph-name="uni04E3" unicode="&#x4e3;" horiz-adv-x="680" 
d="M147 620v116h386v-116h-386zM61 0v562h187v-282l197 282h174v-562h-187v290l-203 -290h-168z" />
    <glyph glyph-name="uni04E5" unicode="&#x4e5;" horiz-adv-x="680" 
d="M149 613v146h165v-146h-165zM366 613v146h165v-146h-165zM61 0v562h187v-282l197 282h174v-562h-187v290l-203 -290h-168z" />
    <glyph glyph-name="uni04E7" unicode="&#x4e7;" horiz-adv-x="692" 
d="M155 616v146h165v-146h-165zM372 616v146h165v-146h-165zM345 -13c-178 0 -308 131 -308 291v2c0 160 131 293 310 293c178 0 308 -131 308 -291v-2c0 -160 -131 -293 -310 -293zM347 147c75 0 123 60 123 131v2c0 72 -52 133 -125 133c-76 0 -123 -60 -123 -131v-2
c0 -72 52 -133 125 -133z" />
    <glyph glyph-name="uni04E9" unicode="&#x4e9;" horiz-adv-x="683" 
d="M341 -13c-176 0 -304 131 -304 291v2c0 160 129 293 306 293c175 0 303 -131 303 -291v-2c0 -160 -129 -293 -305 -293zM341 429c-64 0 -112 -36 -128 -92h256c-17 56 -67 92 -128 92zM343 132c63 0 111 37 127 92h-257c18 -57 68 -92 130 -92z" />
    <glyph glyph-name="uni04EF" unicode="&#x4ef;" horiz-adv-x="654" 
d="M136 620v116h386v-116h-386zM332 214l109 348h194l-207 -554c-47 -128 -99 -178 -208 -178c-67 0 -122 19 -172 47l59 133c30 -17 61 -28 82 -28c22 0 36 6 49 25l-220 555h198z" />
    <glyph glyph-name="uni04F1" unicode="&#x4f1;" horiz-adv-x="654" 
d="M138 613v146h165v-146h-165zM355 613v146h165v-146h-165zM332 214l109 348h194l-207 -554c-47 -128 -99 -178 -208 -178c-67 0 -122 19 -172 47l59 133c30 -17 61 -28 82 -28c22 0 36 6 49 25l-220 555h198z" />
    <glyph glyph-name="uni04F3" unicode="&#x4f3;" horiz-adv-x="654" 
d="M154 613l104 190l165 -59l-146 -131h-123zM352 613l105 189l165 -59l-147 -130h-123zM332 214l109 348h194l-207 -554c-47 -128 -99 -178 -208 -178c-67 0 -122 19 -172 47l59 133c30 -17 61 -28 82 -28c22 0 36 6 49 25l-220 555h198z" />
    <glyph glyph-name="uni04F5" unicode="&#x4f5;" horiz-adv-x="646" 
d="M125 613v146h165v-146h-165zM342 613v146h165v-146h-165zM396 0v156c-30 -7 -71 -14 -111 -14c-143 0 -237 60 -237 221v199h188v-181c0 -52 28 -73 84 -73c31 0 53 5 76 11v243h189v-562h-189z" />
    <glyph glyph-name="uni04F9" unicode="&#x4f9;" horiz-adv-x="898" 
d="M257 613v146h165v-146h-165zM474 613v146h165v-146h-165zM648 0v562h189v-562h-189zM248 562v-150h95c152 0 243 -74 243 -202v-1c0 -121 -90 -209 -252 -209h-273v562h187zM247 275v-133h74c51 0 82 24 82 67v1c0 39 -29 65 -81 65h-75z" />
    <glyph glyph-name="zero" unicode="0" horiz-adv-x="767" 
d="M383 -14c-205 0 -334 169 -334 376v2c0 207 131 378 336 378c203 0 333 -169 333 -376v-2c0 -207 -131 -378 -335 -378zM385 157c84 0 138 86 138 205v2c0 119 -57 207 -140 207c-84 0 -139 -85 -139 -205v-2c0 -120 56 -207 141 -207z" />
    <glyph glyph-name="one" unicode="1" horiz-adv-x="447" 
d="M177 0v551l-124 -30l-37 151l212 61h139v-733h-190z" />
    <glyph glyph-name="two" unicode="2" horiz-adv-x="657" 
d="M42 0v147l266 206c72 57 101 92 101 140c0 49 -34 78 -85 78s-89 -29 -146 -95l-131 109c77 100 153 155 291 155c157 0 265 -93 265 -230v-2c0 -118 -61 -178 -173 -261l-124 -88h304v-159h-568z" />
    <glyph glyph-name="three" unicode="3" horiz-adv-x="654" 
d="M332 -14c-139 0 -236 51 -305 128l124 123c51 -54 106 -84 174 -84c58 0 95 30 95 76v2c0 50 -44 79 -124 79h-81l-28 104l169 156h-280v158h519v-139l-176 -155c103 -22 189 -78 189 -205v-2c0 -145 -115 -241 -276 -241z" />
    <glyph glyph-name="three.alt" horiz-adv-x="649" 
d="M333 -14c-132 0 -234 49 -308 127l122 121c51 -53 107 -83 178 -83c63 0 100 30 100 72v2c0 43 -39 68 -121 68h-77v148h77c72 0 104 29 104 68v2c0 39 -36 66 -93 66c-60 0 -104 -33 -148 -80l-121 111c65 78 145 134 282 134c162 0 267 -83 267 -195v-2
c0 -86 -43 -138 -106 -168c72 -26 125 -74 125 -162v-2c0 -130 -104 -227 -281 -227z" />
    <glyph glyph-name="four" unicode="4" horiz-adv-x="725" 
d="M407 0v145h-354l-31 136l382 452h189v-442h93v-146h-93v-145h-186zM229 290h178v213z" />
    <glyph glyph-name="five" unicode="5" horiz-adv-x="663" 
d="M320 -14c-127 0 -216 44 -291 114l112 131c58 -50 114 -79 176 -79c68 0 110 34 110 89v2c0 54 -46 87 -112 87c-45 0 -83 -15 -117 -35l-115 66l21 367h479v-161h-324l-7 -114c33 14 65 24 113 24c133 0 250 -72 250 -232v-2c0 -160 -121 -257 -295 -257z" />
    <glyph glyph-name="six" unicode="6" horiz-adv-x="696" 
d="M358 -14c-101 0 -168 30 -220 82c-54 54 -89 135 -89 273v2c0 226 109 399 335 399c100 0 170 -28 239 -80l-93 -138c-45 34 -86 55 -145 55c-106 0 -135 -99 -140 -159h1c44 36 93 55 156 55c131 0 243 -80 243 -227v-3c0 -159 -128 -259 -287 -259zM350 139
c67 0 106 41 106 96v2c0 55 -41 96 -108 96c-66 0 -106 -40 -106 -95v-2c0 -54 42 -97 108 -97z" />
    <glyph glyph-name="seven" unicode="7" horiz-adv-x="648" 
d="M73 0l321 565h-338v163h554v-146l-323 -582h-214z" />
    <glyph glyph-name="eight" unicode="8" horiz-adv-x="663" 
d="M332 -12c-172 0 -296 86 -296 212v2c0 89 45 141 123 176c-56 31 -98 79 -98 158v2c0 115 109 202 271 202c161 0 270 -86 270 -202v-2c0 -79 -42 -127 -98 -158c74 -36 123 -85 123 -173v-2c0 -132 -123 -215 -295 -215zM332 432c56 0 92 35 92 82v2c0 41 -35 78 -92 78
c-58 0 -93 -36 -93 -78v-2c0 -47 37 -82 93 -82zM332 135c69 0 109 39 109 83v2c0 50 -45 82 -109 82s-110 -32 -110 -82v-2c0 -44 40 -83 110 -83z" />
    <glyph glyph-name="nine" unicode="9" horiz-adv-x="696" 
d="M348 388c67 0 107 42 107 98v2c0 58 -42 101 -109 101s-106 -42 -106 -100v-2c0 -58 42 -99 108 -99zM312 149c107 0 134 95 140 154h-1c-42 -39 -95 -57 -152 -57c-144 0 -248 88 -248 231v2c0 158 122 263 288 263c104 0 166 -28 221 -83c52 -53 87 -135 87 -271v-2
c0 -238 -117 -400 -333 -400c-108 0 -185 34 -251 86l93 136c51 -40 98 -59 156 -59z" />
    <glyph glyph-name="period" unicode="." horiz-adv-x="304" 
d="M53 0v196h198v-196h-198z" />
    <glyph glyph-name="comma" unicode="," horiz-adv-x="304" 
d="M42 -171l-16 74c70 8 107 42 104 99h-77v195h198v-160c0 -151 -81 -204 -209 -208z" />
    <glyph glyph-name="colon" unicode=":" horiz-adv-x="314" 
d="M58 366v196h198v-196h-198zM58 0v196h198v-196h-198z" />
    <glyph glyph-name="semicolon" unicode=";" horiz-adv-x="314" 
d="M58 366v196h198v-196h-198zM47 -173l-16 74c70 8 107 42 104 99h-77v196h198v-161c0 -150 -81 -204 -209 -208z" />
    <glyph glyph-name="ellipsis" unicode="&#x2026;" horiz-adv-x="882" 
d="M53 0v192h194v-192h-194zM344 0v192h194v-192h-194zM635 0v192h194v-192h-194z" />
    <glyph glyph-name="periodcentered" unicode="&#xb7;" horiz-adv-x="304" 
d="M53 227v195h198v-195h-198z" />
    <glyph glyph-name="ampersand" unicode="&#x26;" horiz-adv-x="734" 
d="M578 -15l-77 78c-61 -47 -132 -75 -216 -75c-146 0 -256 79 -256 210v3c0 90 49 158 146 202c-34 48 -48 93 -48 141v2c0 104 85 196 226 196c131 0 214 -81 214 -186v-2c0 -91 -58 -152 -144 -189l84 -84c24 35 47 76 69 118l130 -67c-29 -53 -61 -106 -96 -153l100 -99
zM331 453c54 23 81 51 81 91v2c0 37 -24 61 -59 61c-36 0 -61 -27 -61 -67v-2c0 -29 12 -53 39 -85zM311 133c30 0 61 13 90 33l-124 126c-39 -22 -55 -52 -55 -82v-2c0 -45 37 -75 89 -75z" />
    <glyph glyph-name="exclam" unicode="!" horiz-adv-x="345" 
d="M123 239l-59 414v75h217v-75l-59 -414h-99zM74 0v175h197v-175h-197z" />
    <glyph glyph-name="exclamdown" unicode="&#xa1;" horiz-adv-x="345" 
d="M74 553v175h197v-175h-197zM64 0v75l59 414h99l59 -414v-75h-217z" />
    <glyph glyph-name="question" unicode="?" horiz-adv-x="571" 
d="M204 239l-26 173l8 8c123 9 167 39 167 86v2c0 37 -30 60 -82 60c-50 0 -103 -25 -152 -69l-103 130c63 64 149 110 267 110c152 0 258 -82 258 -218v-2c0 -131 -88 -186 -203 -214l-12 -66h-122zM163 0v175h198v-175h-198z" />
    <glyph glyph-name="questiondown" unicode="&#xbf;" horiz-adv-x="571" 
d="M210 553v175h198v-175h-198zM288 -11c-152 0 -258 82 -258 218v2c0 131 88 186 203 214l12 66h122l26 -173l-9 -8c-122 -9 -167 -39 -167 -86v-2c0 -37 30 -60 82 -60c51 0 104 25 153 69l102 -130c-62 -64 -148 -110 -266 -110z" />
    <glyph glyph-name="quotedblleft" unicode="&#x201c;" horiz-adv-x="575" 
d="M49 365v160c0 149 79 204 207 208l16 -74c-70 -7 -105 -42 -102 -98h75v-196h-196zM323 365v160c0 149 78 204 207 208l15 -74c-70 -7 -104 -42 -101 -98h74v-196h-195z" />
    <glyph glyph-name="quotedblright" unicode="&#x201d;" horiz-adv-x="575" 
d="M46 360l-16 74c70 7 105 42 102 98h-75v196h196v-160c0 -149 -79 -204 -207 -208zM319 360l-15 74c70 7 104 42 101 98h-74v196h195v-160c0 -149 -78 -204 -207 -208z" />
    <glyph glyph-name="quoteleft" unicode="&#x2018;" horiz-adv-x="304" 
d="M49 365v160c0 151 81 204 209 208l16 -74c-70 -7 -107 -42 -104 -98h77v-196h-198z" />
    <glyph glyph-name="quoteright" unicode="&#x2019;" horiz-adv-x="304" 
d="M46 360l-16 74c70 7 107 42 104 98h-77v196h198v-160c0 -151 -81 -204 -209 -208z" />
    <glyph glyph-name="quotedblbase" unicode="&#x201e;" horiz-adv-x="575" 
d="M42 -173l-16 74c70 8 105 42 102 99h-75v196h196v-161c0 -148 -79 -204 -207 -208zM315 -173l-15 74c70 8 104 42 101 99h-74v196h195v-161c0 -148 -78 -204 -207 -208z" />
    <glyph glyph-name="quotesinglbase" unicode="&#x201a;" horiz-adv-x="304" 
d="M42 -173l-16 74c70 8 107 42 104 99h-77v196h198v-161c0 -150 -81 -204 -209 -208z" />
    <glyph glyph-name="guillemotleft" unicode="&#xab;" horiz-adv-x="668" 
d="M219 36l-182 222v42l182 222l124 -62l-122 -181l122 -180zM504 36l-195 238v10l195 238l124 -62l-123 -181l123 -180z" />
    <glyph glyph-name="guillemotright" unicode="&#xbb;" horiz-adv-x="668" 
d="M164 36l-125 61l123 181l-123 181l125 63l195 -238v-10zM449 36l-125 61l123 181l-123 181l125 63l181 -222v-42z" />
    <glyph glyph-name="guilsinglleft" unicode="&#x2039;" horiz-adv-x="383" 
d="M219 36l-182 222v42l182 222l124 -62l-122 -181l122 -180z" />
    <glyph glyph-name="guilsinglright" unicode="&#x203a;" horiz-adv-x="383" 
d="M164 36l-125 61l123 181l-123 180l125 63l181 -221v-42z" />
    <glyph glyph-name="hyphen" unicode="-" horiz-adv-x="432" 
d="M48 240v169h337v-169h-337z" />
    <glyph glyph-name="endash" unicode="&#x2013;" horiz-adv-x="557" 
d="M48 242v165h461v-165h-461z" />
    <glyph glyph-name="emdash" unicode="&#x2014;" horiz-adv-x="942" 
d="M48 242v165h846v-165h-846z" />
    <glyph glyph-name="underscore" unicode="_" horiz-adv-x="632" 
d="M2 -166v120h628v-120h-628z" />
    <glyph glyph-name="slash" unicode="/" horiz-adv-x="563" 
d="M-33 -133l460 963h155l-460 -963h-155z" />
    <glyph glyph-name="backslash" unicode="\" horiz-adv-x="563" 
d="M442 -133l-461 963h155l461 -963h-155z" />
    <glyph glyph-name="bar" unicode="|" horiz-adv-x="376" 
d="M115 -133v963h146v-963h-146z" />
    <glyph glyph-name="parenleft" unicode="(" horiz-adv-x="471" 
d="M353 -147c-193 103 -300 237 -300 445v1c0 207 107 343 300 445l80 -119c-135 -94 -194 -188 -194 -327v-1c0 -136 59 -232 194 -325z" />
    <glyph glyph-name="parenright" unicode=")" horiz-adv-x="471" 
d="M117 -147l-79 119c135 94 194 188 194 326v1c0 137 -59 233 -194 326l79 119c194 -103 301 -237 301 -446v-1c0 -206 -107 -342 -301 -444z" />
    <glyph glyph-name="bracketleft" unicode="[" horiz-adv-x="485" 
d="M77 -135v863h354v-132h-183v-599h183v-132h-354z" />
    <glyph glyph-name="bracketright" unicode="]" horiz-adv-x="485" 
d="M54 -135v132h183v599h-183v132h355v-863h-355z" />
    <glyph glyph-name="braceleft" unicode="{" horiz-adv-x="518" 
d="M447 -147c-204 27 -267 90 -267 202c0 16 3 58 3 76c0 79 -41 103 -122 103h-19v129h19c81 0 122 23 122 103c0 18 -3 60 -3 76c0 112 63 175 267 202l30 -114c-111 -26 -129 -54 -129 -118c0 -18 3 -52 3 -74c0 -76 -40 -118 -114 -140c74 -21 114 -63 114 -139
c0 -22 -3 -56 -3 -74c0 -64 18 -92 129 -118z" />
    <glyph glyph-name="braceright" unicode="}" horiz-adv-x="518" 
d="M71 -147l-31 114c111 26 129 54 129 118c0 18 -3 52 -3 74c0 76 40 118 115 139c-75 22 -115 64 -115 140c0 22 3 56 3 74c0 64 -18 92 -129 118l31 114c204 -27 267 -90 267 -202c0 -16 -3 -58 -3 -76c0 -80 40 -103 121 -103h19v-129h-19c-81 0 -121 -24 -121 -103
c0 -18 3 -60 3 -76c0 -112 -63 -175 -267 -202z" />
    <glyph glyph-name="at" unicode="@" horiz-adv-x="1015" 
d="M517 -168c-269 0 -464 203 -464 453c0 251 199 457 460 457c256 0 449 -193 449 -406c0 -185 -105 -275 -219 -275c-87 0 -135 36 -160 75c-38 -42 -88 -73 -153 -73c-108 0 -191 81 -191 207c0 148 108 268 231 268c69 0 113 -34 141 -75l12 61l153 -24l-48 -270
c-3 -15 -4 -29 -4 -43c0 -35 25 -62 69 -62c69 0 125 73 125 211c0 192 -169 364 -405 364c-242 0 -416 -185 -416 -415c0 -231 172 -412 420 -412c103 0 177 24 255 70l20 -33c-80 -49 -167 -78 -275 -78zM479 196c25 0 49 11 67 29c23 23 38 58 38 97c0 51 -35 83 -80 83
c-26 0 -50 -11 -69 -29c-23 -23 -37 -56 -37 -95c0 -54 34 -85 81 -85z" />
    <glyph glyph-name="copyright" unicode="&#xa9;" horiz-adv-x="871" 
d="M435 -14c-212 0 -376 171 -376 376v2c0 205 167 378 378 378s375 -171 375 -376v-2c0 -205 -166 -378 -377 -378zM435 28c190 0 333 152 333 336v2c0 184 -142 334 -331 334c-191 0 -334 -152 -334 -336v-2c0 -184 142 -334 332 -334zM441 162c-121 0 -209 90 -209 205v2
c0 114 87 207 211 207c82 0 131 -31 167 -78l-79 -66c-24 28 -51 46 -89 46c-58 0 -99 -48 -99 -108v-2c0 -60 41 -108 99 -108c42 0 66 20 92 48l79 -60c-39 -50 -88 -86 -172 -86z" />
    <glyph glyph-name="published" unicode="&#x2117;" horiz-adv-x="871" 
d="M435 -14c-212 0 -376 171 -376 376v2c0 205 167 378 378 378s375 -171 375 -376v-2c0 -205 -166 -378 -377 -378zM435 28c190 0 333 152 333 336v2c0 184 -142 334 -331 334c-191 0 -334 -152 -334 -336v-2c0 -184 142 -334 332 -334zM290 171v400h170
c101 0 164 -53 164 -140v-3c0 -92 -73 -142 -169 -142h-58v-115h-107zM397 371h55c40 0 65 22 65 54v2c0 35 -25 54 -65 54h-55v-110z" />
    <glyph glyph-name="registered.alt" horiz-adv-x="871" 
d="M435 -14c-212 0 -376 171 -376 376v2c0 205 167 378 378 378s375 -171 375 -376v-2c0 -205 -166 -378 -377 -378zM435 28c190 0 333 152 333 336v2c0 184 -142 334 -331 334c-191 0 -334 -152 -334 -336v-2c0 -184 142 -334 332 -334zM379 382h76c40 0 62 19 62 49v2
c0 34 -25 50 -63 50h-75v-101zM272 175v400h185c61 0 104 -16 132 -44c23 -23 35 -53 35 -91v-2c0 -62 -33 -102 -84 -123l97 -140h-123l-82 123h-53v-123h-107z" />
    <glyph glyph-name="registered" unicode="&#xae;" horiz-adv-x="391" 
d="M195 374c-102 0 -181 83 -181 181v1c0 99 80 182 181 182c102 0 181 -82 181 -181v-1c0 -98 -80 -182 -181 -182zM195 394c91 0 161 74 161 162v1c0 89 -69 162 -161 162c-90 0 -160 -74 -160 -163v-1c0 -88 69 -161 160 -161zM172 565h32c17 0 27 8 27 21v1
c0 11 -9 21 -27 20h-32v-42zM114 464v192h93c49 0 83 -21 83 -66v-1c0 -28 -16 -50 -40 -59l46 -66h-67l-37 56h-20v-56h-58z" />
    <glyph glyph-name="servicemark" unicode="&#x2120;" horiz-adv-x="738" 
d="M362 408v320h91l78 -126l78 126h90v-320h-84v193l-83 -130h-4l-83 130v-193h-83zM177 401c-57 0 -115 20 -154 54l46 56c33 -26 71 -41 113 -41c29 0 44 10 44 26c0 17 -13 24 -60 35c-71 16 -126 35 -126 99c0 60 46 104 127 104c55 0 102 -16 135 -44l-43 -59
c-29 21 -62 34 -95 34c-26 0 -40 -11 -40 -26c0 -17 15 -24 61 -34c75 -16 126 -40 126 -100c0 -64 -53 -104 -134 -104z" />
    <glyph glyph-name="trademark" unicode="&#x2122;" horiz-adv-x="730" 
d="M118 408v245h-95v75h277v-75h-95v-245h-87zM354 408v320h91l78 -126l78 126h90v-320h-84v193l-83 -130h-4l-83 130v-193h-83z" />
    <glyph glyph-name="asterisk" unicode="*" horiz-adv-x="451" 
d="M173 359l24 135l-105 -88l-54 92l129 47l-129 47l54 92l105 -89l-24 135h105l-24 -135l105 89l54 -92l-129 -47l129 -47l-54 -92l-105 88l24 -135h-105z" />
    <glyph glyph-name="dagger" unicode="&#x2020;" horiz-adv-x="434" 
d="M167 235l11 281l-129 -13v103l128 -12l-16 134h112l-15 -134l128 12v-103l-129 13l10 -281h-100z" />
    <glyph glyph-name="daggerdbl" unicode="&#x2021;" horiz-adv-x="455" 
d="M171 0l16 134l-128 -12v103l129 -13l-12 152l12 152l-129 -13v103l128 -12l-16 134h113l-16 -134l128 12v-103l-129 13l13 -152l-13 -152l129 13v-103l-128 12l16 -134h-113z" />
    <glyph glyph-name="bullet" unicode="&#x2022;" horiz-adv-x="528" 
d="M264 194c-94 0 -172 77 -172 171v2c0 94 78 171 172 171s172 -77 172 -171v-2c0 -94 -78 -171 -172 -171z" />
    <glyph glyph-name="dollar" unicode="$" horiz-adv-x="696" 
d="M243 525c0 -28 15 -47 71 -63v120c-51 -4 -71 -26 -71 -55v-2zM482 205c0 30 -16 47 -71 63v-121c49 5 71 24 71 56v2zM631 646l-81 -136c-43 29 -92 51 -138 62v-129c163 -39 244 -100 244 -225v-3c0 -124 -96 -200 -240 -214v-103h-108v104c-100 11 -198 47 -274 102
l91 134c64 -45 124 -74 188 -85v134c-163 39 -246 95 -246 224v2c0 121 90 204 242 215v60h109v-62c82 -10 152 -39 213 -80z" />
    <glyph glyph-name="sterling" unicode="&#xa3;" horiz-adv-x="673" 
d="M53 0v117l78 29v128h-78v140h78v59c0 82 24 151 70 196c46 47 111 71 196 71c114 0 188 -46 241 -108l-123 -127c-32 39 -64 61 -106 61c-25 0 -45 -8 -60 -23c-16 -16 -25 -40 -25 -71v-58h227v-140h-227v-119h307v-155h-578z" />
    <glyph glyph-name="Euro" unicode="&#x20ac;" horiz-adv-x="725" 
d="M699 114c-60 -79 -138 -128 -254 -128c-166 0 -277 100 -313 245h-87v107h72v26c0 10 0 20 1 30h-73v107h90c38 137 147 241 311 241c116 0 196 -49 251 -120l-127 -114c-32 41 -69 68 -124 68s-95 -29 -118 -77h169v-105h-192c-1 -10 -1 -19 -1 -29v-1c0 -9 0 -17 1 -26
h192v-105h-170c21 -51 65 -81 124 -81c54 0 89 28 126 72z" />
    <glyph glyph-name="yen" unicode="&#xa5;" horiz-adv-x="740" 
d="M84 273v122h144l-218 333h220l141 -246l143 246h216l-220 -333h146v-122h-191v-55h191v-121h-191v-97h-190v97h-191v121h191v55h-191z" />
    <glyph glyph-name="cent" unicode="&#xa2;" horiz-adv-x="607" 
d="M209 370c0 -57 21 -102 60 -126l49 269h-1c-64 -9 -109 -72 -108 -141v-2zM466 734l-16 -92c54 -19 98 -52 128 -95l-116 -94c-15 17 -30 31 -48 41l-49 -266h1c37 6 72 26 99 59l114 -89c-52 -70 -125 -117 -231 -120v-1l-15 -83h-118l18 101c-114 41 -193 146 -193 273
v2c0 162 121 288 295 291h1l13 73h117z" />
    <glyph glyph-name="numbersign" unicode="#" horiz-adv-x="741" 
d="M309 434l-24 -136h146l23 136h-145zM670 304v-160h-123l-24 -144h-148l24 144h-135l-25 -144h-147l24 144h-80v160h108l21 124h-94v161h121l24 139h148l-24 -139h136l24 139h148l-24 -139h81v-161h-109l-21 -124h95z" />
    <glyph glyph-name="paragraph" unicode="&#xb6;" horiz-adv-x="626" 
d="M360 0v231h-23c-178 0 -307 85 -307 246v2c0 159 120 249 300 249h223v-728h-193z" />
    <glyph glyph-name="section" unicode="&#xa7;" horiz-adv-x="660" 
d="M407 307c32 0 54 13 54 38v3c0 24 -38 38 -105 54c-50 13 -82 19 -103 19c-31 0 -54 -13 -54 -38v-3c0 -24 38 -38 105 -54c50 -13 83 -19 103 -19zM516 257c29 -23 48 -60 48 -101v-2c0 -94 -80 -166 -235 -166c-103 0 -191 34 -246 85l81 107c51 -39 111 -62 167 -62
c42 0 59 13 59 32v2c0 21 -28 33 -103 49c-138 31 -236 66 -236 153v2c0 62 40 96 94 115c-31 25 -48 61 -48 102v2c0 94 80 165 235 165c103 0 191 -34 245 -85l-81 -107c-51 39 -111 62 -167 62c-40 0 -59 -12 -59 -32v-2c0 -19 24 -32 104 -49c137 -31 235 -65 235 -153
v-2c0 -62 -40 -96 -93 -115z" />
    <glyph glyph-name="ordfeminine" unicode="&#xaa;" horiz-adv-x="414" 
d="M192 480c33 0 57 21 57 51v15c-12 4 -28 9 -46 9c-32 0 -51 -15 -51 -39v-2c0 -21 16 -34 40 -34zM156 414c-59 0 -105 33 -105 94v2c0 65 50 97 123 97c28 0 55 -5 74 -12v4c0 33 -21 52 -63 52c-32 0 -57 -6 -85 -17l-23 74c36 15 71 24 124 24c54 0 91 -13 116 -36
c23 -23 32 -56 32 -99v-177h-102v33c-21 -24 -50 -39 -91 -39zM49 283v77h305v-77h-305z" />
    <glyph glyph-name="ordmasculine" unicode="&#xba;" horiz-adv-x="414" 
d="M206 412c-96 0 -166 70 -166 159v2c0 89 72 160 168 160s165 -70 165 -159v-2c0 -89 -71 -160 -167 -160zM208 500c39 0 64 31 64 71v2c0 40 -27 72 -66 72c-40 0 -65 -31 -65 -71v-2c0 -40 28 -72 67 -72zM57 283v77h300v-77h-300z" />
    <glyph glyph-name="degree" unicode="&#xb0;" horiz-adv-x="501" 
d="M250 369c-100 0 -187 83 -187 182v2c0 100 88 182 187 182s188 -82 188 -182v-2c0 -99 -87 -182 -188 -182zM250 462c51 0 89 40 89 89v2c0 49 -39 90 -89 90s-89 -41 -89 -90v-2c0 -49 38 -89 89 -89z" />
    <glyph glyph-name="percent" unicode="%" horiz-adv-x="934" 
d="M227 350c-110 0 -185 87 -185 192v2c0 107 74 194 187 194c111 0 185 -87 185 -192v-2c0 -106 -76 -194 -187 -194zM424 392l252 336h137l-305 -395l-250 -333h-137zM227 628c-38 0 -61 -36 -61 -82v-2c0 -47 27 -84 63 -84c37 0 61 36 61 82v2c0 47 -26 84 -63 84z
M706 -10c-111 0 -185 87 -185 192v2c0 107 74 194 186 194s185 -87 185 -192v-2c0 -106 -75 -194 -186 -194zM707 100c37 0 62 36 62 82v2c0 47 -27 84 -63 84c-38 0 -62 -36 -62 -82v-2c0 -47 27 -84 63 -84z" />
    <glyph glyph-name="perthousand" unicode="&#x2030;" horiz-adv-x="1343" 
d="M227 350c-110 0 -185 87 -185 192v2c0 107 74 194 187 194c111 0 185 -87 185 -192v-2c0 -106 -76 -194 -187 -194zM813 728l-305 -395l-250 -333h-137l303 392l252 336h137zM229 460c37 0 61 36 61 82v2c0 47 -26 84 -63 84c-38 0 -61 -36 -61 -82v-2
c0 -47 27 -84 63 -84zM1114 -10c-110 0 -185 87 -185 192v2c0 107 74 194 187 194c111 0 184 -87 184 -192v-2c0 -106 -75 -194 -186 -194zM706 -10c-111 0 -185 87 -185 192v2c0 107 74 194 186 194s185 -87 185 -192v-2c0 -106 -75 -194 -186 -194zM1116 100
c37 0 61 36 61 82v2c0 47 -26 84 -63 84c-38 0 -61 -36 -61 -82v-2c0 -47 27 -84 63 -84zM707 100c37 0 62 36 62 82v2c0 47 -27 84 -63 84c-38 0 -62 -36 -62 -82v-2c0 -47 27 -84 63 -84z" />
    <glyph glyph-name="quotedbl" unicode="&#x22;" horiz-adv-x="563" 
d="M44 363l23 365h204v-5l-128 -360h-99zM307 363l22 365h204v-5l-128 -360h-98z" />
    <glyph glyph-name="quotesingle" unicode="'" horiz-adv-x="304" 
d="M44 363l23 365h207v-5l-128 -360h-102z" />
    <glyph glyph-name="plus" unicode="+" horiz-adv-x="674" 
d="M250 99v183h-184v168h184v183h174v-183h184v-168h-184v-183h-174z" />
    <glyph glyph-name="minus" unicode="&#x2212;" horiz-adv-x="674" 
d="M608 282h-542v169h542v-169z" />
    <glyph glyph-name="divide" unicode="&#xf7;" horiz-adv-x="674" 
d="M247 512v164h180v-164h-180zM608 290h-542v153h542v-153zM247 56v164h180v-164h-180z" />
    <glyph glyph-name="equal" unicode="=" horiz-adv-x="674" 
d="M72 421v166h530v-166h-530zM72 145v166h530v-166h-530z" />
    <glyph glyph-name="multiply" unicode="&#xd7;" horiz-adv-x="674" 
d="M492 95l-157 160l-156 -160l-113 113l160 157l-161 156l117 116l156 -160l156 160l114 -113l-161 -156l161 -157z" />
    <glyph glyph-name="less" unicode="&#x3c;" horiz-adv-x="674" 
d="M585 69l-514 209v175l514 209v-176l-343 -120l343 -120v-177z" />
    <glyph glyph-name="greater" unicode="&#x3e;" horiz-adv-x="674" 
d="M89 69v176l342 120l-342 120v177l514 -209v-175z" />
    <glyph glyph-name="plusminus" unicode="&#xb1;" horiz-adv-x="674" 
d="M604 391l-188 1l2 -176h-162l1 176l-187 -1v153l187 -1l-1 177h162l-2 -177l188 1v-153zM604 0h-534v143h534v-143z" />
    <glyph glyph-name="zero.sup" unicode="&#x2070;" horiz-adv-x="420" 
d="M209 423c-102 0 -173 82 -173 211v7c0 129 72 212 174 212c101 0 174 -82 174 -211v-7c0 -129 -74 -212 -175 -212zM209 758c-36 0 -63 -35 -63 -110v-20c0 -75 27 -110 64 -110c36 0 64 34 64 110v20c0 75 -28 110 -65 110z" />
    <glyph glyph-name="one.sup" unicode="&#xb9;" horiz-adv-x="342" 
d="M252 434h-110v306l-78 -25l-27 87l134 46h81v-414z" />
    <glyph glyph-name="one.sup_alt" horiz-adv-x="420" 
d="M376 434h-310v91h106v215l-93 -30l-27 87l149 51h81v-323h94v-91z" />
    <glyph glyph-name="two.sup" unicode="&#xb2;" horiz-adv-x="420" 
d="M50 434v88l149 117c38 30 55 49 55 76c0 25 -20 40 -47 40c-30 0 -56 -17 -86 -52l-72 63c40 53 86 86 165 86c91 0 151 -52 151 -126c0 -59 -28 -94 -86 -137l-83 -63h172v-92h-318z" />
    <glyph glyph-name="three.sup" unicode="&#xb3;" horiz-adv-x="420" 
d="M206 423c-76 0 -129 25 -171 64l60 74c32 -27 69 -46 107 -46c32 0 57 18 57 45c0 29 -26 45 -71 45h-49l-15 59l105 87h-165v91h295v-81l-110 -88c65 -8 118 -42 118 -113c0 -84 -66 -137 -161 -137z" />
    <glyph glyph-name="four.sup" unicode="&#x2074;" horiz-adv-x="420" 
d="M337 510v-78h-103v78h-187l-13 92l183 244h120v-255h51v-81h-51zM236 589v148l-110 -148h110z" />
    <glyph glyph-name="five.sup" unicode="&#x2075;" horiz-adv-x="420" 
d="M204 424c-71 0 -123 24 -168 60l58 77c37 -27 71 -43 108 -43c36 0 61 19 61 49s-25 48 -63 48c-26 0 -51 -7 -69 -17l-68 36l18 208h270v-93h-187l-6 -65c18 6 43 10 72 10c78 0 141 -41 141 -125c0 -92 -68 -145 -167 -145z" />
    <glyph glyph-name="six.sup" unicode="&#x2076;" horiz-adv-x="420" 
d="M215 423c-49 0 -91 16 -119 44c-32 32 -53 78 -53 158v3c0 139 67 225 190 225c56 0 91 -14 125 -37l-44 -84c-23 17 -49 28 -80 28c-44 0 -75 -33 -79 -86c22 14 48 24 87 24c68 0 131 -38 131 -127c0 -94 -69 -148 -158 -148zM211 509c35 0 57 23 57 56
c0 34 -21 57 -57 57c-37 0 -58 -22 -58 -57v-1c0 -31 24 -56 58 -55z" />
    <glyph glyph-name="seven.sup" unicode="&#x2077;" horiz-adv-x="420" 
d="M191 432h-121l173 313h-185v97h309v-86z" />
    <glyph glyph-name="eight.sup" unicode="&#x2078;" horiz-adv-x="420" 
d="M210 423c-97 0 -164 48 -164 123c0 49 25 81 67 100c-32 18 -56 46 -56 91c0 66 60 116 153 116c92 0 152 -49 152 -116c0 -45 -25 -73 -56 -91c40 -19 67 -49 67 -100c0 -76 -68 -123 -163 -123zM210 772c-32 0 -54 -20 -54 -46c0 -30 23 -49 54 -49c30 0 53 18 53 49
c0 26 -23 46 -53 46zM210 605c-35 0 -61 -19 -61 -50c0 -30 22 -52 61 -52c37 0 59 21 59 52s-25 50 -59 50z" />
    <glyph glyph-name="nine.sup" unicode="&#x2079;" horiz-adv-x="420" 
d="M209 650c37 0 57 23 57 59v1c0 31 -23 58 -57 57c-35 0 -57 -25 -57 -58c0 -35 21 -59 57 -59zM205 853c49 0 91 -16 119 -44c32 -32 53 -78 53 -158v-3c0 -139 -65 -225 -189 -225c-56 0 -98 16 -134 41l44 84c25 -19 57 -32 88 -32c44 0 74 30 81 82
c-25 -14 -49 -23 -88 -23c-68 0 -132 39 -132 128c0 93 69 150 158 150z" />
    <glyph glyph-name="zero.inf" unicode="&#x2080;" horiz-adv-x="420" 
d="M209 -147c-102 0 -173 82 -173 211v7c0 129 72 212 174 212c101 0 174 -82 174 -211v-7c0 -129 -74 -212 -175 -212zM209 188c-36 0 -63 -35 -63 -110v-20c0 -75 27 -110 64 -110c36 0 64 34 64 110v20c0 75 -28 110 -65 110z" />
    <glyph glyph-name="one.inf" unicode="&#x2081;" horiz-adv-x="342" 
d="M252 -136h-110v306l-78 -25l-27 87l134 46h81v-414z" />
    <glyph glyph-name="one.inf_alt" horiz-adv-x="420" 
d="M376 -136h-310v91h106v215l-93 -30l-27 87l149 51h81v-323h94v-91z" />
    <glyph glyph-name="two.inf" unicode="&#x2082;" horiz-adv-x="420" 
d="M50 -136v88l149 117c38 30 55 49 55 76c0 25 -20 40 -47 40c-30 0 -56 -17 -86 -52l-72 63c40 53 86 86 165 86c91 0 151 -52 151 -126c0 -59 -28 -94 -86 -137l-83 -63h172v-92h-318z" />
    <glyph glyph-name="three.inf" unicode="&#x2083;" horiz-adv-x="420" 
d="M206 -147c-76 0 -129 25 -171 64l60 74c32 -27 69 -46 107 -46c32 0 57 18 57 45c0 29 -26 45 -71 45h-49l-15 59l105 87h-165v91h295v-81l-110 -88c65 -8 118 -42 118 -113c0 -84 -66 -137 -161 -137z" />
    <glyph glyph-name="four.inf" unicode="&#x2084;" horiz-adv-x="420" 
d="M337 -60v-78h-103v78h-187l-13 92l183 244h120v-255h51v-81h-51zM236 19v148l-110 -148h110z" />
    <glyph glyph-name="five.inf" unicode="&#x2085;" horiz-adv-x="420" 
d="M204 -146c-71 0 -123 24 -168 60l58 77c37 -27 71 -43 108 -43c36 0 61 19 61 49s-25 48 -63 48c-26 0 -51 -7 -69 -17l-68 36l18 208h270v-93h-187l-6 -65c18 6 43 10 72 10c78 0 141 -41 141 -125c0 -92 -68 -145 -167 -145z" />
    <glyph glyph-name="six.inf" unicode="&#x2086;" horiz-adv-x="420" 
d="M215 -147c-49 0 -91 16 -119 44c-32 32 -53 78 -53 158v3c0 139 67 225 190 225c56 0 91 -14 125 -37l-44 -84c-23 17 -49 28 -80 28c-44 0 -75 -33 -79 -86c22 14 48 24 87 24c68 0 131 -38 131 -127c0 -94 -69 -148 -158 -148zM211 -61c35 0 57 23 57 56
c0 34 -21 57 -57 57c-37 0 -58 -22 -58 -57v-1c0 -31 24 -56 58 -55z" />
    <glyph glyph-name="seven.inf" unicode="&#x2087;" horiz-adv-x="420" 
d="M191 -138h-121l173 313h-185v97h309v-86z" />
    <glyph glyph-name="eight.inf" unicode="&#x2088;" horiz-adv-x="420" 
d="M210 -147c-97 0 -164 48 -164 123c0 49 25 81 67 100c-32 18 -56 46 -56 91c0 66 60 116 153 116c92 0 152 -49 152 -116c0 -45 -25 -73 -56 -91c40 -19 67 -49 67 -100c0 -76 -68 -123 -163 -123zM210 202c-32 0 -54 -20 -54 -46c0 -30 23 -49 54 -49c30 0 53 18 53 49
c0 26 -23 46 -53 46zM210 35c-35 0 -61 -19 -61 -50c0 -30 22 -52 61 -52c37 0 59 21 59 52s-25 50 -59 50z" />
    <glyph glyph-name="nine.inf" unicode="&#x2089;" horiz-adv-x="420" 
d="M209 80c37 0 57 23 57 59v1c0 31 -23 58 -57 57c-35 0 -57 -25 -57 -58c0 -35 21 -59 57 -59zM205 283c49 0 91 -16 119 -44c32 -32 53 -78 53 -158v-3c0 -139 -65 -225 -189 -225c-56 0 -98 16 -134 41l44 84c25 -19 57 -32 88 -32c44 0 74 30 81 82
c-25 -14 -49 -23 -88 -23c-68 0 -132 39 -132 128c0 93 69 150 158 150z" />
    <glyph glyph-name="zero.num" horiz-adv-x="420" 
d="M209 309c-102 0 -173 82 -173 211v7c0 129 72 212 174 212c101 0 174 -82 174 -211v-7c0 -129 -74 -212 -175 -212zM209 644c-36 0 -63 -35 -63 -110v-20c0 -75 27 -110 64 -110c36 0 64 34 64 110v20c0 75 -28 110 -65 110z" />
    <glyph glyph-name="one.num" horiz-adv-x="342" 
d="M252 320h-110v306l-78 -25l-27 86l134 47h81v-414z" />
    <glyph glyph-name="one.num_alt" horiz-adv-x="420" 
d="M376 320h-310v91h106v215l-93 -30l-27 86l149 52h81v-323h94v-91z" />
    <glyph glyph-name="two.num" horiz-adv-x="420" 
d="M50 320v87l149 118c38 30 55 49 55 75s-20 41 -47 41c-30 0 -56 -17 -86 -52l-72 63c40 53 86 86 165 86c91 0 151 -52 151 -126c0 -59 -28 -94 -86 -138l-83 -63h172v-91h-318z" />
    <glyph glyph-name="three.num" horiz-adv-x="420" 
d="M206 309c-76 0 -129 25 -171 64l60 74c32 -27 69 -46 107 -46c32 0 57 17 57 45c0 29 -26 45 -71 45h-49l-15 59l105 87h-165v91h295v-81l-110 -88c65 -8 118 -42 118 -113c0 -84 -66 -137 -161 -137z" />
    <glyph glyph-name="four.num" horiz-adv-x="420" 
d="M337 396v-78h-103v78h-187l-13 92l183 244h120v-255h51v-81h-51zM236 475v148l-110 -148h110z" />
    <glyph glyph-name="five.num" horiz-adv-x="420" 
d="M204 310c-71 0 -123 24 -168 60l58 77c37 -27 71 -43 108 -43c36 0 61 18 61 49c0 30 -25 48 -63 48c-26 0 -51 -7 -69 -17l-68 36l18 208h270v-93h-187l-6 -65c18 6 43 10 72 10c78 0 141 -41 141 -125c0 -92 -68 -145 -167 -145z" />
    <glyph glyph-name="six.num" horiz-adv-x="420" 
d="M215 309c-49 0 -91 16 -119 44c-32 32 -53 78 -53 158v3c0 139 67 225 190 225c56 0 91 -14 125 -37l-44 -84c-23 17 -49 28 -80 28c-44 0 -75 -33 -79 -86c22 14 48 24 87 24c68 0 131 -38 131 -127c0 -94 -69 -148 -158 -148zM211 395c35 0 57 23 57 56
c0 34 -21 57 -57 57c-37 0 -58 -22 -58 -57v-1c0 -31 24 -56 58 -55z" />
    <glyph glyph-name="seven.num" horiz-adv-x="420" 
d="M191 317h-121l173 313h-185v98h309v-86z" />
    <glyph glyph-name="eight.num" horiz-adv-x="420" 
d="M210 309c-97 0 -164 48 -164 123c0 49 25 81 67 100c-32 18 -56 46 -56 91c0 66 60 116 153 116c92 0 152 -49 152 -116c0 -45 -25 -73 -56 -91c40 -19 67 -49 67 -100c0 -76 -68 -123 -163 -123zM210 658c-32 0 -54 -20 -54 -46c0 -30 23 -49 54 -49c30 0 53 18 53 49
c0 26 -23 46 -53 46zM210 491c-35 0 -61 -19 -61 -50c0 -30 22 -52 61 -52c37 0 59 21 59 52s-25 50 -59 50z" />
    <glyph glyph-name="nine.num" horiz-adv-x="420" 
d="M209 536c37 0 57 23 57 58v1c0 32 -23 59 -57 58c-35 0 -57 -25 -57 -59s21 -58 57 -58zM205 739c49 0 91 -16 119 -44c32 -32 53 -78 53 -158v-3c0 -139 -65 -225 -189 -225c-56 0 -98 16 -134 41l44 84c25 -19 57 -32 88 -32c44 0 74 30 81 82c-25 -14 -49 -23 -88 -23
c-68 0 -132 39 -132 127c0 94 69 151 158 151z" />
    <glyph glyph-name="zero.den" horiz-adv-x="420" 
d="M209 -11c-102 0 -173 82 -173 211v7c0 129 72 212 174 212c101 0 174 -82 174 -211v-7c0 -129 -74 -212 -175 -212zM209 324c-36 0 -63 -35 -63 -110v-20c0 -75 27 -110 64 -110c36 0 64 34 64 110v20c0 75 -28 110 -65 110z" />
    <glyph glyph-name="one.den" horiz-adv-x="342" 
d="M252 0h-110v306l-78 -25l-27 87l134 46h81v-414z" />
    <glyph glyph-name="one.den_alt" horiz-adv-x="420" 
d="M376 0h-310v91h106v215l-93 -30l-27 87l149 51h81v-323h94v-91z" />
    <glyph glyph-name="two.den" horiz-adv-x="420" 
d="M50 0v88l149 117c38 30 55 49 55 76c0 25 -20 40 -47 40c-30 0 -56 -17 -86 -52l-72 63c40 53 86 86 165 86c91 0 151 -52 151 -126c0 -59 -28 -94 -86 -137l-83 -63h172v-92h-318z" />
    <glyph glyph-name="three.den" horiz-adv-x="420" 
d="M206 -11c-76 0 -129 25 -171 64l60 74c32 -27 69 -46 107 -46c32 0 57 18 57 45c0 29 -26 45 -71 45h-49l-15 59l105 87h-165v91h295v-81l-110 -88c65 -8 118 -42 118 -113c0 -84 -66 -137 -161 -137z" />
    <glyph glyph-name="four.den" horiz-adv-x="420" 
d="M337 76v-78h-103v78h-187l-13 92l183 244h120v-255h51v-81h-51zM236 155v148l-110 -148h110z" />
    <glyph glyph-name="five.den" horiz-adv-x="420" 
d="M204 -10c-71 0 -123 24 -168 60l58 77c37 -27 71 -43 108 -43c36 0 61 19 61 49s-25 48 -63 48c-26 0 -51 -7 -69 -17l-68 36l18 208h270v-93h-187l-6 -65c18 6 43 10 72 10c78 0 141 -41 141 -125c0 -92 -68 -145 -167 -145z" />
    <glyph glyph-name="six.den" horiz-adv-x="420" 
d="M215 -11c-49 0 -91 16 -119 44c-32 32 -53 78 -53 158v3c0 139 67 225 190 225c56 0 91 -14 125 -37l-44 -84c-23 17 -49 28 -80 28c-44 0 -75 -33 -79 -86c22 14 48 24 87 24c68 0 131 -38 131 -127c0 -94 -69 -148 -158 -148zM211 75c35 0 57 23 57 56
c0 34 -21 57 -57 57c-37 0 -58 -22 -58 -57v-1c0 -31 24 -56 58 -55z" />
    <glyph glyph-name="seven.den" horiz-adv-x="420" 
d="M191 -2h-121l173 313h-185v97h309v-86z" />
    <glyph glyph-name="eight.den" horiz-adv-x="420" 
d="M210 -11c-97 0 -164 48 -164 123c0 49 25 81 67 100c-32 18 -56 46 -56 91c0 66 60 116 153 116c92 0 152 -49 152 -116c0 -45 -25 -73 -56 -91c40 -19 67 -49 67 -100c0 -76 -68 -123 -163 -123zM210 338c-32 0 -54 -20 -54 -46c0 -30 23 -49 54 -49c30 0 53 18 53 49
c0 26 -23 46 -53 46zM210 171c-35 0 -61 -19 -61 -50c0 -30 22 -52 61 -52c37 0 59 21 59 52s-25 50 -59 50z" />
    <glyph glyph-name="nine.den" horiz-adv-x="420" 
d="M209 216c37 0 57 23 57 59v1c0 31 -23 58 -57 57c-35 0 -57 -25 -57 -58c0 -35 21 -59 57 -59zM205 419c49 0 91 -16 119 -44c32 -32 53 -78 53 -158v-3c0 -139 -65 -225 -189 -225c-56 0 -98 16 -134 41l44 84c25 -19 57 -32 88 -32c44 0 74 30 81 82
c-25 -14 -49 -23 -88 -23c-68 0 -132 39 -132 128c0 93 69 150 158 150z" />
    <glyph glyph-name="fraction" unicode="&#x2044;" horiz-adv-x="112" 
d="M-234 0l265 381l229 347h86l-265 -381l-229 -347h-86z" />
    <glyph glyph-name="onehalf" unicode="&#xbd;" horiz-adv-x="867" 
d="M252 320h-110v306l-78 -25l-27 86l134 47h81v-414zM120 0l265 381l229 347h86l-265 -381l-229 -347h-86zM504 0v88l149 117c38 30 55 49 55 76c0 25 -20 40 -47 40c-30 0 -56 -17 -86 -52l-72 63c40 53 86 86 165 86c91 0 151 -52 151 -126c0 -59 -28 -94 -86 -137
l-83 -63h172v-92h-318z" />
    <glyph glyph-name="onehalf.alt" horiz-adv-x="945" 
d="M373 320h-310v91h106v215l-93 -30l-27 86l149 52h81v-323h94v-91zM203 0l265 381l229 347h86l-265 -381l-229 -347h-86zM582 0v88l149 117c38 30 55 49 55 76c0 25 -20 40 -47 40c-30 0 -56 -17 -86 -52l-72 63c40 53 86 86 165 86c91 0 151 -52 151 -126
c0 -59 -28 -94 -86 -137l-83 -63h172v-92h-318z" />
    <glyph glyph-name="onethird" unicode="&#x2153;" horiz-adv-x="867" 
d="M252 320h-110v306l-78 -25l-27 86l134 47h81v-414zM109 0l265 381l229 347h86l-265 -381l-229 -347h-86zM660 -11c-76 0 -129 25 -171 64l60 74c32 -27 69 -46 107 -46c32 0 57 18 57 45c0 29 -26 45 -71 45h-49l-15 59l105 87h-165v91h295v-81l-110 -88
c65 -8 118 -42 118 -113c0 -84 -66 -137 -161 -137z" />
    <glyph glyph-name="onethird.alt" horiz-adv-x="945" 
d="M373 320h-310v91h106v215l-93 -30l-27 86l149 52h81v-323h94v-91zM192 0l265 381l229 347h86l-265 -381l-229 -347h-86zM738 -11c-76 0 -129 25 -171 64l60 74c32 -27 69 -46 107 -46c32 0 57 18 57 45c0 29 -26 45 -71 45h-49l-15 59l105 87h-165v91h295v-81l-110 -88
c65 -8 118 -42 118 -113c0 -84 -66 -137 -161 -137z" />
    <glyph glyph-name="twothirds" unicode="&#x2154;" horiz-adv-x="945" 
d="M42 320v87l149 118c38 30 55 49 55 75s-20 41 -47 41c-30 0 -56 -17 -86 -52l-72 63c40 53 86 86 165 86c91 0 151 -52 151 -126c0 -59 -28 -94 -86 -138l-83 -63h172v-91h-318zM182 0l265 381l229 347h86l-265 -381l-229 -347h-86zM738 -11c-76 0 -129 25 -171 64l60 74
c32 -27 69 -46 107 -46c32 0 57 18 57 45c0 29 -26 45 -71 45h-49l-15 59l105 87h-165v91h295v-81l-110 -88c65 -8 118 -42 118 -113c0 -84 -66 -137 -161 -137z" />
    <glyph glyph-name="onequarter" unicode="&#xbc;" horiz-adv-x="867" 
d="M252 320h-110v306l-78 -25l-27 86l134 47h81v-414zM130 0l265 381l229 347h86l-265 -381l-229 -347h-86zM781 76v-78h-103v78h-187l-13 92l183 244h120v-255h51v-81h-51zM680 155v148l-110 -148h110z" />
    <glyph glyph-name="onequarter.alt" horiz-adv-x="945" 
d="M373 320h-310v91h106v215l-93 -30l-27 86l149 52h81v-323h94v-91zM208 0l265 381l229 347h86l-265 -381l-229 -347h-86zM859 76v-78h-103v78h-187l-13 92l183 244h120v-255h51v-81h-51zM758 155v148l-110 -148h110z" />
    <glyph glyph-name="threequarters" unicode="&#xbe;" horiz-adv-x="945" 
d="M203 0l265 381l229 347h86l-265 -381l-229 -347h-86zM208 309c-76 0 -129 25 -171 64l60 74c32 -27 69 -46 107 -46c32 0 57 17 57 45c0 29 -26 45 -71 45h-49l-15 59l105 87h-165v91h295v-81l-110 -88c65 -8 118 -42 118 -113c0 -84 -66 -137 -161 -137zM859 76v-78
h-103v78h-187l-13 92l183 244h120v-255h51v-81h-51zM758 155v148l-110 -148h110z" />
    <glyph glyph-name="onefifth" unicode="&#x2155;" horiz-adv-x="867" 
d="M252 320h-110v306l-78 -25l-27 86l134 47h81v-414zM114 0l265 381l229 347h86l-265 -381l-229 -347h-86zM658 -10c-71 0 -123 24 -168 60l58 77c37 -27 71 -43 108 -43c36 0 61 19 61 49s-25 48 -63 48c-26 0 -51 -7 -69 -17l-68 36l18 208h270v-93h-187l-6 -65
c18 6 43 10 72 10c78 0 141 -41 141 -125c0 -92 -68 -145 -167 -145z" />
    <glyph glyph-name="onefifth.alt" horiz-adv-x="945" 
d="M373 320h-310v91h106v215l-93 -30l-27 86l149 52h81v-323h94v-91zM198 0l265 381l229 347h86l-265 -381l-229 -347h-86zM736 -10c-71 0 -123 24 -168 60l58 77c37 -27 71 -43 108 -43c36 0 61 19 61 49s-25 48 -63 48c-26 0 -51 -7 -69 -17l-68 36l18 208h270v-93h-187
l-6 -65c18 6 43 10 72 10c78 0 141 -41 141 -125c0 -92 -68 -145 -167 -145z" />
    <glyph glyph-name="twofifths" unicode="&#x2156;" horiz-adv-x="945" 
d="M42 320v87l149 118c38 30 55 49 55 75s-20 41 -47 41c-30 0 -56 -17 -86 -52l-72 63c40 53 86 86 165 86c91 0 151 -52 151 -126c0 -59 -28 -94 -86 -138l-83 -63h172v-91h-318zM192 0l265 381l229 347h86l-265 -381l-229 -347h-86zM736 -10c-71 0 -123 24 -168 60l58 77
c37 -27 71 -43 108 -43c36 0 61 19 61 49s-25 48 -63 48c-26 0 -51 -7 -69 -17l-68 36l18 208h270v-93h-187l-6 -65c18 6 43 10 72 10c78 0 141 -41 141 -125c0 -92 -68 -145 -167 -145z" />
    <glyph glyph-name="threefifths" unicode="&#x2157;" horiz-adv-x="945" 
d="M177 0l265 381l229 347h86l-265 -381l-229 -347h-86zM198 309c-76 0 -129 25 -171 64l60 74c32 -27 69 -46 107 -46c32 0 57 17 57 45c0 29 -26 45 -71 45h-49l-15 59l105 87h-165v91h295v-81l-110 -88c65 -8 118 -42 118 -113c0 -84 -66 -137 -161 -137zM736 -10
c-71 0 -123 24 -168 60l58 77c37 -27 71 -43 108 -43c36 0 61 19 61 49s-25 48 -63 48c-26 0 -51 -7 -69 -17l-68 36l18 208h270v-93h-187l-6 -65c18 6 43 10 72 10c78 0 141 -41 141 -125c0 -92 -68 -145 -167 -145z" />
    <glyph glyph-name="fourfifths" unicode="&#x2158;" horiz-adv-x="945" 
d="M329 396v-78h-103v78h-187l-13 92l183 244h120v-255h51v-81h-51zM192 0l265 381l229 347h86l-265 -381l-229 -347h-86zM228 475v148l-110 -148h110zM736 -10c-71 0 -123 24 -168 60l58 77c37 -27 71 -43 108 -43c36 0 61 19 61 49s-25 48 -63 48c-26 0 -51 -7 -69 -17
l-68 36l18 208h270v-93h-187l-6 -65c18 6 43 10 72 10c78 0 141 -41 141 -125c0 -92 -68 -145 -167 -145z" />
    <glyph glyph-name="onesixth" unicode="&#x2159;" horiz-adv-x="867" 
d="M252 320h-110v306l-78 -25l-27 86l134 47h81v-414zM120 0l265 381l229 347h86l-265 -381l-229 -347h-86zM669 -11c-49 0 -91 16 -119 44c-32 32 -53 78 -53 158v3c0 139 67 225 190 225c56 0 91 -14 125 -37l-44 -84c-23 17 -49 28 -80 28c-44 0 -75 -33 -79 -86
c22 14 48 24 87 24c68 0 131 -38 131 -127c0 -94 -69 -148 -158 -148zM665 75c35 0 57 23 57 56c0 34 -21 57 -57 57c-37 0 -58 -22 -58 -57v-1c0 -31 24 -56 58 -55z" />
    <glyph glyph-name="onesixth.alt" horiz-adv-x="945" 
d="M373 320h-310v91h106v215l-93 -30l-27 86l149 52h81v-323h94v-91zM198 0l265 381l229 347h86l-265 -381l-229 -347h-86zM747 -11c-49 0 -91 16 -119 44c-32 32 -53 78 -53 158v3c0 139 67 225 190 225c56 0 91 -14 125 -37l-44 -84c-23 17 -49 28 -80 28
c-44 0 -75 -33 -79 -86c22 14 48 24 87 24c68 0 131 -38 131 -127c0 -94 -69 -148 -158 -148zM743 75c35 0 57 23 57 56c0 34 -21 57 -57 57c-37 0 -58 -22 -58 -57v-1c0 -31 24 -56 58 -55z" />
    <glyph glyph-name="fivesixths" unicode="&#x215a;" horiz-adv-x="945" 
d="M182 0l265 381l229 347h86l-265 -381l-229 -347h-86zM196 310c-71 0 -123 24 -168 60l58 77c37 -27 71 -43 108 -43c36 0 61 18 61 49c0 30 -25 48 -63 48c-26 0 -51 -7 -69 -17l-68 36l18 208h270v-93h-187l-6 -65c18 6 43 10 72 10c78 0 141 -41 141 -125
c0 -92 -68 -145 -167 -145zM747 -11c-49 0 -91 16 -119 44c-32 32 -53 78 -53 158v3c0 139 67 225 190 225c56 0 91 -14 125 -37l-44 -84c-23 17 -49 28 -80 28c-44 0 -75 -33 -79 -86c22 14 48 24 87 24c68 0 131 -38 131 -127c0 -94 -69 -148 -158 -148zM743 75
c35 0 57 23 57 56c0 34 -21 57 -57 57c-37 0 -58 -22 -58 -57v-1c0 -31 24 -56 58 -55z" />
    <glyph glyph-name="oneeighth" unicode="&#x215b;" horiz-adv-x="867" 
d="M252 320h-110v306l-78 -25l-27 86l134 47h81v-414zM116 0l265 381l229 347h86l-265 -381l-229 -347h-86zM664 -11c-97 0 -164 48 -164 123c0 49 25 81 67 100c-32 18 -56 46 -56 91c0 66 60 116 153 116c92 0 152 -49 152 -116c0 -45 -25 -73 -56 -91
c40 -19 67 -49 67 -100c0 -76 -68 -123 -163 -123zM664 338c-32 0 -54 -20 -54 -46c0 -30 23 -49 54 -49c30 0 53 18 53 49c0 26 -23 46 -53 46zM664 171c-35 0 -61 -19 -61 -50c0 -30 22 -52 61 -52c37 0 59 21 59 52s-25 50 -59 50z" />
    <glyph glyph-name="oneeighth.alt" horiz-adv-x="945" 
d="M373 320h-310v91h106v215l-93 -30l-27 86l149 52h81v-323h94v-91zM198 0l265 381l229 347h86l-265 -381l-229 -347h-86zM742 -11c-97 0 -164 48 -164 123c0 49 25 81 67 100c-32 18 -56 46 -56 91c0 66 60 116 153 116c92 0 152 -49 152 -116c0 -45 -25 -73 -56 -91
c40 -19 67 -49 67 -100c0 -76 -68 -123 -163 -123zM742 338c-32 0 -54 -20 -54 -46c0 -30 23 -49 54 -49c30 0 53 18 53 49c0 26 -23 46 -53 46zM742 171c-35 0 -61 -19 -61 -50c0 -30 22 -52 61 -52c37 0 59 21 59 52s-25 50 -59 50z" />
    <glyph glyph-name="threeeighths" unicode="&#x215c;" horiz-adv-x="945" 
d="M182 0l265 381l229 347h86l-265 -381l-229 -347h-86zM198 309c-76 0 -129 25 -171 64l60 74c32 -27 69 -46 107 -46c32 0 57 17 57 45c0 29 -26 45 -71 45h-49l-15 59l105 87h-165v91h295v-81l-110 -88c65 -8 118 -42 118 -113c0 -84 -66 -137 -161 -137zM742 -11
c-97 0 -164 48 -164 123c0 49 25 81 67 100c-32 18 -56 46 -56 91c0 66 60 116 153 116c92 0 152 -49 152 -116c0 -45 -25 -73 -56 -91c40 -19 67 -49 67 -100c0 -76 -68 -123 -163 -123zM742 338c-32 0 -54 -20 -54 -46c0 -30 23 -49 54 -49c30 0 53 18 53 49
c0 26 -23 46 -53 46zM742 171c-35 0 -61 -19 -61 -50c0 -30 22 -52 61 -52c37 0 59 21 59 52s-25 50 -59 50z" />
    <glyph glyph-name="fiveeighths" unicode="&#x215d;" horiz-adv-x="945" 
d="M182 0l265 381l229 347h86l-265 -381l-229 -347h-86zM196 310c-71 0 -123 24 -168 60l58 77c37 -27 71 -43 108 -43c36 0 61 18 61 49c0 30 -25 48 -63 48c-26 0 -51 -7 -69 -17l-68 36l18 208h270v-93h-187l-6 -65c18 6 43 10 72 10c78 0 141 -41 141 -125
c0 -92 -68 -145 -167 -145zM742 -11c-97 0 -164 48 -164 123c0 49 25 81 67 100c-32 18 -56 46 -56 91c0 66 60 116 153 116c92 0 152 -49 152 -116c0 -45 -25 -73 -56 -91c40 -19 67 -49 67 -100c0 -76 -68 -123 -163 -123zM742 338c-32 0 -54 -20 -54 -46
c0 -30 23 -49 54 -49c30 0 53 18 53 49c0 26 -23 46 -53 46zM742 171c-35 0 -61 -19 -61 -50c0 -30 22 -52 61 -52c37 0 59 21 59 52s-25 50 -59 50z" />
    <glyph glyph-name="seveneighths" unicode="&#x215e;" horiz-adv-x="945" 
d="M151 0l265 381l229 347h86l-265 -381l-229 -347h-86zM193 317h-121l173 313h-185v98h309v-86zM742 -11c-97 0 -164 48 -164 123c0 49 25 81 67 100c-32 18 -56 46 -56 91c0 66 60 116 153 116c92 0 152 -49 152 -116c0 -45 -25 -73 -56 -91c40 -19 67 -49 67 -100
c0 -76 -68 -123 -163 -123zM742 338c-32 0 -54 -20 -54 -46c0 -30 23 -49 54 -49c30 0 53 18 53 49c0 26 -23 46 -53 46zM742 171c-35 0 -61 -19 -61 -50c0 -30 22 -52 61 -52c37 0 59 21 59 52s-25 50 -59 50z" />
    <glyph glyph-name="zero.tab" 
d="M314 -13c-172 0 -278 144 -278 366v20c0 223 108 368 279 368c172 0 279 -144 279 -366v-20c0 -223 -109 -368 -280 -368zM314 583c-62 0 -100 -62 -100 -203v-32c0 -140 39 -203 101 -203s101 62 101 203v31c0 141 -40 204 -102 204z" />
    <glyph glyph-name="one.tab" 
d="M593 0h-521v152h179v395l-158 -52l-41 150l251 88h131v-581h159v-152z" />
    <glyph glyph-name="two.tab" 
d="M585 0h-544v147l254 212c65 56 94 90 94 138s-33 76 -83 76c-52 0 -93 -28 -147 -93l-121 112c70 93 148 148 281 148c159 0 260 -92 260 -223v-2c0 -108 -56 -167 -138 -234l-147 -121h291v-160z" />
    <glyph glyph-name="three.tab" 
d="M313 -14c-130 0 -220 44 -292 114l111 130c53 -49 107 -79 174 -79c57 0 97 30 97 78v2c0 50 -43 78 -125 78h-79l-28 102l174 158h-282v159h513v-144l-181 -155c108 -19 194 -74 194 -199v-2c0 -146 -115 -242 -276 -242z" />
    <glyph glyph-name="three.tab_alt" 
d="M311 -14c-119 0 -216 46 -286 119l110 121c51 -50 105 -78 174 -78c63 0 99 32 99 77s-40 71 -118 71h-77v143h84c68 0 101 30 101 72c0 41 -37 69 -92 69c-66 0 -111 -32 -155 -77l-109 114c58 69 146 125 277 125c162 0 264 -76 264 -200c0 -81 -48 -136 -113 -165
c71 -26 124 -74 124 -171c0 -133 -113 -220 -283 -220z" />
    <glyph glyph-name="four.tab" 
d="M353 0v139h-310l-26 154l305 439h205v-452h84v-141h-84v-139h-174zM357 277v263l-181 -263h181z" />
    <glyph glyph-name="five.tab" 
d="M303 -14c-121 0 -209 41 -281 104l100 134c60 -48 115 -76 178 -76c65 0 108 32 108 90v2c0 53 -40 87 -111 87c-49 0 -87 -13 -120 -31l-112 62l26 370h468v-161h-322l-10 -118c33 10 69 17 116 17c134 0 249 -68 249 -224v-2c0 -160 -122 -254 -289 -254z" />
    <glyph glyph-name="six.tab" 
d="M371 470c112 0 218 -70 218 -220v-6c0 -160 -118 -258 -265 -258c-89 0 -151 29 -194 73c-55 54 -88 132 -88 280v7c0 243 108 395 315 395c85 0 152 -24 206 -65l-73 -144c-41 30 -81 49 -133 49c-94 0 -128 -83 -134 -157h1c38 31 91 46 147 46zM316 134
c59 0 96 43 96 101v1c0 58 -36 101 -96 100c-59 0 -95 -41 -95 -101v-1c0 -56 37 -101 95 -100z" />
    <glyph glyph-name="seven.tab" 
d="M382 561h-328v167h539v-150l-308 -578h-210z" />
    <glyph glyph-name="eight.tab" 
d="M315 -12c-164 0 -280 85 -280 212v3c0 88 42 142 115 175c-54 32 -96 81 -96 159v2c0 115 106 201 261 201c154 0 260 -86 260 -201v-2c0 -77 -42 -126 -97 -159c71 -34 116 -84 116 -173v-2c0 -133 -116 -215 -279 -215zM315 432c52 0 88 34 88 83v3c0 45 -34 81 -88 81
c-55 0 -89 -36 -89 -81v-3c0 -48 36 -83 89 -83zM315 131c64 0 99 37 99 87v2c0 53 -40 85 -99 85s-100 -32 -100 -85v-2c0 -50 35 -87 100 -87z" />
    <glyph glyph-name="nine.tab" 
d="M314 594c-59 0 -96 -45 -96 -104v-1c0 -59 36 -104 96 -103c59 0 95 42 95 104v1c0 57 -37 104 -95 103zM258 251c-111 0 -217 73 -217 223v7c0 161 118 261 265 261c89 0 151 -29 194 -73c55 -54 88 -132 88 -280v-7c0 -243 -108 -395 -311 -395c-92 0 -167 28 -222 70
l73 144c47 -33 92 -54 145 -54c91 0 126 75 133 150h-1c-38 -30 -91 -46 -147 -46z" />
    <glyph glyph-name="dollar.tab" 
d="M219 524c0 -26 16 -47 73 -67l16 132h-1c-60 -1 -89 -28 -88 -64v-1zM435 207c0 26 -17 49 -76 68l-17 -135h1c59 1 93 23 92 66v1zM432 811l-12 -91c59 -12 111 -34 157 -63l-64 -135c-36 24 -75 42 -116 53l-17 -139c138 -41 214 -103 214 -214v-1
c0 -142 -107 -222 -261 -223h-1l-14 -117h-103l16 126c-76 14 -146 45 -204 86l69 133c51 -35 104 -62 157 -75l18 144c-139 40 -214 99 -214 215v1c0 132 102 220 260 219h1l11 81h103z" />
    <glyph glyph-name="sterling.tab" 
d="M122 415v60c0 84 22 148 71 197c45 46 105 68 190 68c97 0 168 -42 215 -97l-102 -127c-31 35 -62 55 -102 55c-26 0 -46 -8 -61 -24c-16 -17 -24 -40 -24 -74v-58h209v-141h-209v-121h284v-153h-546v115l75 29v130h-74v141h74z" />
    <glyph glyph-name="Euro.tab" 
d="M617 91c-54 -60 -122 -104 -228 -104c-139 0 -248 89 -280 241h-78v108h68c-1 8 0 16 0 25v35h-68v108h80c34 143 142 237 292 237c93 0 160 -34 210 -87l-89 -134c-31 36 -69 61 -118 61c-50 0 -92 -27 -113 -81h153v-104h-171v-60h171v-103h-155c20 -56 61 -86 112 -86
c49 0 84 26 117 62z" />
    <glyph glyph-name="yen.tab" 
d="M69 194h158v70h-158v106h133l-199 358h195l119 -247l119 247h191l-200 -358h134v-106h-157v-70h157v-105h-157v-89h-177v89h-158v105z" />
    <glyph glyph-name="cent.tab" 
d="M215 360c0 -58 23 -99 64 -120l49 273h-1c-67 -11 -113 -69 -112 -151v-2zM477 734l-17 -94c59 -20 97 -56 127 -98l-105 -91c-19 22 -37 38 -57 49l-50 -275h1c41 5 77 28 107 64l105 -86c-51 -69 -127 -115 -229 -120v-1l-16 -88h-117l19 104
c-112 36 -191 135 -191 264v2c0 165 122 291 291 292h1l14 78h117z" />
    <glyph glyph-name="numbersign.tab" 
d="M265 440l-22 -148h121l22 148h-121zM28 297h91l21 138h-81v148h102l22 145h128l-22 -145h115l21 145h128l-22 -145h71v-148h-92l-21 -138h81v-148h-102l-22 -149h-128l22 149h-115l-21 -149h-128l22 149h-70v148z" />
    <glyph glyph-name="paragraph.tab" 
d="M361 0v231h-22c-178 0 -307 85 -307 247v1c0 158 120 250 300 249h223v-728h-194z" />
    <glyph glyph-name="section.tab" 
d="M236 422c-29 0 -49 -12 -49 -37v-1c0 -24 32 -38 96 -55c67 -18 90 -23 112 -23c28 0 48 12 48 37v1c0 24 -31 38 -95 55c-67 18 -90 23 -112 23zM314 -12c-102 0 -182 31 -235 75l71 112c52 -37 111 -59 164 -59c39 0 53 15 53 34v1c0 19 -16 30 -114 56
c-158 42 -210 76 -210 149v1c0 63 44 100 104 117c-31 25 -51 55 -51 106v1c0 88 81 160 220 159c102 0 183 -31 236 -75l-71 -112c-52 37 -111 59 -164 59c-40 0 -53 -15 -53 -34v-1c0 -19 16 -30 114 -56c157 -42 210 -76 210 -149v-1c0 -63 -45 -100 -104 -117
c30 -25 51 -55 51 -106v-1c0 -88 -81 -160 -221 -159z" />
    <glyph glyph-name="degree.tab" 
d="M314 297c-123 0 -224 98 -224 221v1c0 120 104 221 226 220c123 0 224 -98 224 -220v-1c0 -121 -104 -222 -226 -221zM316 398c70 0 116 53 116 120v1c0 64 -48 120 -118 119c-70 0 -116 -53 -116 -119v-1c0 -65 48 -121 118 -120z" />
    <glyph glyph-name="percent.tab" 
d="M153 735c74 0 128 -67 128 -195v-12c0 -127 -55 -195 -128 -195c-74 0 -128 67 -128 195v12c0 128 54 195 128 195zM451 728h83l-195 -377l-159 -351h-82l195 377zM153 645c-21 0 -35 -24 -35 -97v-29c0 -73 14 -97 35 -97s35 24 35 97v29c0 73 -14 97 -35 97zM477 395
c74 0 128 -67 128 -195v-12c0 -128 -54 -195 -128 -195s-128 67 -128 195v12c0 127 55 195 128 195zM477 306c-21 0 -35 -24 -35 -97v-29c0 -73 14 -97 35 -97s35 24 35 97v29c0 73 -14 97 -35 97z" />
    <glyph glyph-name="quotedbl.tab" 
d="M76 363l35 365h204v-5l-140 -360h-99zM345 363l35 365h204v-5l-140 -360h-99z" />
    <glyph glyph-name="quotesingle.tab" horiz-adv-x="315" 
d="M53 363l34 365h208v-5l-140 -360h-102z" />
    <glyph glyph-name="period.tab" horiz-adv-x="315" 
d="M58 0v198h200v-198h-200z" />
    <glyph glyph-name="comma.tab" horiz-adv-x="315" 
d="M48 -171l-16 74c70 8 107 42 104 99h-78v198h200v-163c0 -151 -82 -204 -210 -208z" />
    <glyph glyph-name="colon.tab" horiz-adv-x="315" 
d="M59 366v196h198v-196h-198zM59 0v196h198v-196h-198z" />
    <glyph glyph-name="semicolon.tab" horiz-adv-x="315" 
d="M59 366v196h198v-196h-198zM48 -173l-16 74c70 8 107 42 104 99h-77v196h198v-161c0 -150 -81 -204 -209 -208z" />
    <glyph glyph-name="twodotleader.tab" 
d="M63 0v189h192v-189h-192zM375 0v189h192v-189h-192z" />
    <glyph glyph-name="periodcentered.tab" horiz-adv-x="315" 
d="M58 225v198h200v-198h-200z" />
    <glyph glyph-name="slash.tab" 
d="M636 830l-502 -963h-155l502 963h155z" />
    <glyph glyph-name="bar.tab" horiz-adv-x="315" 
d="M85 -133v963h146v-963h-146z" />
    <glyph glyph-name="underscore.tab" 
d="M1 -166v120h628v-120h-628z" />
    <glyph glyph-name="plus.tab" 
d="M575 285l-178 1l1 -178h-166l1 178l-178 -1v162l178 -1l-1 178h166l-1 -178l178 1v-162z" />
    <glyph glyph-name="minus.tab" 
d="M575 282h-520v169h520v-169z" />
    <glyph glyph-name="divide.tab" 
d="M225 512v164h180v-164h-180zM575 290h-520v153h520v-153zM225 56v164h180v-164h-180z" />
    <glyph glyph-name="equal.tab" 
d="M563 422h-496v159h496v-159zM563 151h-496v159h496v-159z" />
    <glyph glyph-name="multiply.tab" 
d="M459 106l-145 149l-145 -149l-114 114l149 145l-149 145l116 116l145 -149l145 149l114 -113l-149 -145l149 -145z" />
    <glyph glyph-name="less.tab" 
d="M556 70l-497 210v172l497 210v-172l-326 -123l326 -124v-173z" />
    <glyph glyph-name="greater.tab" 
d="M571 280l-497 -210v171l326 124l-326 124v173l497 -210v-172z" />
    <glyph glyph-name="plusminus.tab" 
d="M573 391l-178 1l1 -173h-162l1 173l-178 -1v153l178 -1l-1 174h162l-1 -174l178 1v-153zM573 0h-516v143h516v-143z" />
    <glyph glyph-name="baht" unicode="&#xe3f;" horiz-adv-x="688" 
d="M336 -119h-96l11 119h-194v728h271l9 83h95l-9 -84c128 -8 217 -69 217 -186v-2c0 -86 -49 -134 -111 -161c75 -32 127 -77 127 -172v-3c0 -132 -104 -203 -267 -203h-42zM219 426h83l16 158h-99v-158zM477 507c0 43 -27 70 -76 76l-16 -157c58 2 92 28 92 80v1zM219 144
h53l17 163h-70v-163zM385 307h-12l-16 -163h30c65 0 102 28 102 82v1c0 49 -34 81 -104 80z" />
    <glyph glyph-name="colonmonetary" unicode="&#x20a1;" horiz-adv-x="661" 
d="M322 160c21 -6 45 -9 73 -9l52 416c-19 6 -38 10 -58 10c-5 0 -11 0 -16 -1zM207 353c0 -74 20 -125 55 -158l44 363c-61 -30 -99 -98 -99 -197v-8zM472 811h76l-14 -109c39 -16 71 -37 98 -62l-75 -147c-15 15 -32 30 -49 42l-45 -370c29 13 54 34 81 61l93 -116
c-50 -54 -108 -93 -189 -107l-15 -122h-76l14 118c-21 0 -42 1 -62 5l-15 -123h-76l18 146c-117 51 -200 166 -200 328v8c0 201 122 335 286 362l11 86h76l-10 -81c22 -1 43 -3 62 -7z" />
    <glyph glyph-name="florin" unicode="&#x192;" horiz-adv-x="579" 
d="M117 -9c-30 0 -54 2 -83 9v140c18 -4 33 -5 47 -5c44 0 62 17 71 67l25 144h-65v145h91l13 70c22 118 89 176 221 176c43 0 83 -5 112 -13v-142c-25 6 -50 9 -70 9c-49 0 -72 -19 -80 -67l-6 -33h119v-145h-145l-30 -171c-24 -134 -88 -184 -220 -184z" />
    <glyph glyph-name="naira" unicode="&#x20a6;" horiz-adv-x="907" 
d="M302 468v-177h110l-104 177h-6zM598 277h6v164h-103zM881 198h-106v-198h-195l-119 198h-155v-198h-175v198h-105v99h105v138h-105v100h105v193h207l114 -193h149v193h174v-193h106v-100h-106v-138h106v-99z" />
    <glyph glyph-name="peso" unicode="&#x20b1;" horiz-adv-x="815" 
d="M131 0v406h-105v96h105v226h274c167 0 278 -88 295 -226h97v-96h-98c-22 -145 -146 -225 -305 -225h-71v-181h-192zM320 578v-83h193c-12 54 -56 83 -123 83h-70zM391 326c67 0 111 34 123 87h-194v-87h71z" />
    <glyph glyph-name="R_p" horiz-adv-x="1257" 
d="M241 374h90c65 0 106 35 106 97v4c0 67 -43 96 -107 96h-89v-197zM960 138c54 0 93 50 93 132v21c0 82 -39 132 -93 132c-52 0 -93 -50 -93 -132v-21c0 -81 41 -132 93 -132zM64 0v728h275c172 0 278 -87 278 -243v-5c0 -108 -52 -176 -129 -213l148 -267h-201l-123 228
h-71v-228h-177zM696 -166v728h174v-73c33 45 75 84 148 84c111 0 208 -91 208 -281v-20c0 -192 -97 -284 -207 -284c-74 0 -117 38 -149 80v-234h-174z" />
    <glyph glyph-name="rupee" unicode="&#x20a8;" horiz-adv-x="1148" 
d="M241 374h90c65 0 106 35 106 97v4c0 67 -43 96 -107 96h-89v-197zM64 0v728h275c172 0 278 -87 278 -243v-5c0 -108 -52 -176 -129 -213l148 -267h-201l-123 228h-71v-228h-177zM902 -12c-88 0 -170 26 -241 73l64 120c59 -37 123 -60 178 -60c33 0 53 13 53 34v2
c0 21 -13 31 -89 57c-114 38 -184 78 -184 176v2c0 114 91 179 213 179c74 0 145 -19 204 -55l-53 -126c-53 30 -110 49 -154 49c-33 0 -52 -14 -52 -32v-2c0 -21 16 -33 90 -58c118 -40 184 -78 184 -176v-2c0 -114 -91 -181 -213 -181z" />
    <glyph glyph-name="won" unicode="&#x20a9;" horiz-adv-x="1181" 
d="M587 512l-51 -211h108l-50 211h-7zM815 214h6l41 214h-98zM364 214h7l50 214h-98zM1117 728l-52 -204h88v-105h-115l-28 -111h139v-105h-166l-52 -206h-215l-53 208h-146l-52 -208h-215l-53 206h-165v105h139l-29 111h-114v105h88l-52 204h205l40 -204h130l50 206h208
l48 -206h131l40 204h201z" />
    <glyph glyph-name="hryvnia" unicode="&#x20b4;" horiz-adv-x="691" 
d="M40 436l8 65l295 -34c47 34 59 54 59 74c0 24 -18 43 -61 43c-51 0 -99 -19 -163 -61l-83 130c77 55 158 89 267 89c151 0 237 -78 237 -181c0 -43 -17 -82 -47 -118l117 -13l-8 -65l-171 19l-65 -55l227 -26l-8 -64l-289 33c-60 -43 -74 -64 -74 -86
c0 -24 20 -42 65 -42c57 0 120 27 180 68l83 -129c-75 -56 -166 -97 -281 -97c-161 0 -244 82 -244 180c0 48 19 90 57 130l-118 14l8 65l173 -20l66 54z" />
    <glyph glyph-name="numero" unicode="&#x2116;" horiz-adv-x="1188" 
d="M933 285c-122 0 -205 92 -205 220v6c0 129 83 222 206 222c122 0 205 -93 205 -221v-6c0 -129 -83 -221 -206 -221zM934 399c43 0 72 43 72 104v8c0 63 -29 107 -73 107s-73 -42 -73 -104v-8c0 -63 29 -107 74 -107zM61 0v728h169l250 -378v378h176v-728h-158l-260 393
v-393h-177zM746 122v103h374v-103h-374z" />
    <glyph glyph-name="sheqel" unicode="&#x20aa;" horiz-adv-x="672" 
d="M358 342c0 52 -27 79 -79 79h-97v-421h-126v562h248c87 0 139 -52 139 -139v-196h-85v115zM240 152l-22 183h84l16 -116c7 -54 37 -79 95 -79h77v422h126v-562h-209c-102 0 -155 50 -167 152z" />
    <glyph glyph-name="Delta" unicode="&#x2206;" horiz-adv-x="827" 
d="M56 0l-21 145l275 588h208l274 -588l-20 -145h-716zM411 537l-161 -369h321z" />
    <glyph glyph-name="Omega" unicode="&#x2126;" horiz-adv-x="894" 
d="M449 742c241 0 381 -147 381 -331v-1c0 -119 -63 -198 -140 -254l156 1v-157h-341v155c72 52 126 115 126 224v1c0 108 -67 188 -184 187c-114 0 -183 -78 -183 -186v-1c0 -103 49 -170 126 -225v-155h-341v157l154 -1c-76 58 -138 135 -138 255v1c0 175 142 331 384 330
z" />
    <glyph glyph-name="mu" unicode="&#xb5;" horiz-adv-x="728" 
d="M705 146v-138c-24 -9 -55 -15 -98 -15c-71 0 -119 23 -144 76c-26 -50 -67 -74 -116 -74c-47 0 -97 21 -121 74h-3c13 -49 22 -85 22 -138v-97h-184v728h189v-311c0 -65 33 -99 86 -99c54 0 90 34 90 99v311h189v-368c2 -38 22 -51 56 -51c12 0 22 1 34 3z" />
    <glyph glyph-name="asciicircum" unicode="^" horiz-adv-x="528" 
d="M49 513l151 214h128l151 -214h-134l-82 105l-82 -105h-132z" />
    <glyph glyph-name="asciitilde" unicode="~" horiz-adv-x="534" 
d="M357 238c-35 0 -69 12 -97 22c-27 10 -49 19 -64 19c-30 0 -41 -17 -55 -49l-92 26c22 99 57 152 129 152c34 0 69 -12 96 -23c27 -9 49 -18 65 -18c29 0 40 16 54 49l93 -26c-23 -100 -58 -152 -129 -152z" />
    <glyph glyph-name="hcoslug" horiz-adv-x="694" 
d="M644 700v-800h-594v800h594zM247 428c0 17 11 29 27 29c17 0 29 -15 29 -38c0 -17 -7 -33 -18 -50c-23 22 -38 36 -38 59zM312 342c19 13 33 24 42 34c23 -23 18 -47 -1 -80c-13 15 -25 30 -41 46zM261 219c-30 0 -52 23 -52 54c0 15 5 29 16 40c18 -17 46 -47 74 -82
c-11 -9 -23 -12 -38 -12zM382 264c15 20 31 33 46 42c9 -15 25 -25 43 -25c28 0 50 23 50 54s-22 52 -50 52c-25 0 -44 -14 -60 -38c-2 27 -22 38 -49 37c6 10 9 21 9 34c0 35 -33 74 -95 74c-67 0 -109 -42 -109 -85c0 -29 10 -47 31 -69c-53 -18 -82 -49 -82 -91
c0 -53 49 -93 109 -93c42 0 76 14 104 45c33 -34 55 -45 85 -45c43 0 78 36 80 94l-7 2c-10 -17 -22 -29 -43 -29c-20 0 -37 12 -62 41zM286 124l-12 -2v-9h-7v-7h7v-20c0 -8 4 -13 12 -13s12 4 14 13l-5 2c-1 -5 -3 -7 -5 -7c-3 0 -4 2 -4 5v20h13v7h-13v11zM174 94
c0 -13 9 -21 21 -21s21 9 21 21s-9 20 -21 20s-21 -8 -21 -20zM203 94c0 -12 -3 -16 -8 -16s-8 4 -8 16c0 11 3 15 8 15s8 -4 8 -15zM219 81v-7h22v7h-4v15c0 6 3 10 7 10s6 -3 6 -7v-18h-4v-7h22v7h-6v19c0 8 -3 14 -12 14c-7 0 -11 -4 -14 -11v10h-17v-7h6v-25h-6zM379 93
c0 -8 -2 -13 -7 -13c-6 0 -8 5 -8 13c0 7 2 13 8 13c5 0 7 -5 7 -13zM125 81v-7h30v7h-10v16h4c5 0 5 -1 6 -8h7v23h-7c-1 -7 -1 -8 -6 -8h-4v18h12c7 0 9 -2 11 -13h8v20h-51v-7h7v-41h-7zM302 88v-14h7l1 4c3 -2 6 -5 13 -5c9 0 14 6 14 13c0 16 -24 10 -24 18
c0 2 2 4 5 4c4 0 7 -3 10 -7h7v13h-6l-2 -5c-2 3 -6 5 -11 5c-9 0 -14 -6 -14 -12c0 -16 24 -11 24 -19c0 -2 -2 -4 -5 -4c-5 0 -8 3 -12 9h-7zM352 125v-52h6l4 8c3 -5 7 -8 14 -8c12 0 16 12 16 21c0 12 -6 20 -15 20c-6 0 -11 -3 -13 -9v27h-18v-7h6zM405 65
c3 3 2 10 -5 10c-4 0 -7 -3 -7 -7c0 -5 4 -9 11 -9c9 0 14 6 18 16l13 31h5v7h-17v-7h5l-8 -20l-9 20h6v7h-25v-7h5s12 -23 16 -33c-1 -5 -4 -8 -8 -8zM294 39v3c0 10 3 12 6 12c2 0 3 -1 3 -1s-1 -1 -1 -3c0 -4 3 -6 6 -6v-5h-14zM464 33h-18v-7h6c-1 -3 -4 -7 -6 -9
c-4 4 -7 8 -12 13c7 3 11 6 11 12s-5 12 -14 12c-10 0 -17 -7 -17 -14c0 -5 2 -8 6 -12c-7 -2 -13 -7 -13 -15s6 -14 18 -14c6 0 11 2 15 6c4 -5 7 -6 12 -6c8 0 11 5 13 12l-5 1c-1 -4 -2 -5 -4 -5s-4 2 -6 5c3 4 6 8 9 14h5v7zM469 27c0 -17 11 -28 29 -28
c15 0 23 9 24 23h-8c-1 -9 -6 -16 -14 -16c-10 0 -16 7 -16 22c0 16 6 22 14 22s11 -4 15 -16h8v22h-8l-1 -6c-4 4 -9 7 -16 7c-14 0 -27 -12 -27 -30zM431 33c-4 4 -6 7 -6 10s2 5 5 5c4 0 6 -3 6 -6c0 -4 -2 -7 -5 -9zM340 18h26c1 13 -5 22 -19 22c-11 0 -20 -9 -20 -21
s8 -20 21 -20c11 0 16 6 18 14h-7c-1 -5 -4 -7 -9 -7c-7 0 -10 3 -10 12zM525 20c0 -13 9 -21 21 -21s21 9 21 21s-9 20 -21 20s-21 -8 -21 -20zM189 20c0 -13 9 -21 21 -21s21 9 21 21s-9 20 -21 20s-21 -8 -21 -20zM247 18h26c1 13 -5 22 -19 22c-11 0 -20 -9 -20 -21
s8 -20 21 -20c11 0 16 6 18 14h-7c-1 -5 -4 -7 -9 -7c-7 0 -10 3 -10 12zM340 23c0 9 3 12 7 12c5 0 7 -4 7 -12h-14zM554 20c0 -12 -3 -16 -8 -16s-8 4 -8 16c0 11 3 15 8 15s8 -4 8 -15zM218 20c0 -12 -3 -16 -8 -16s-8 4 -8 16c0 11 3 15 8 15s8 -4 8 -15zM247 23
c0 9 3 12 7 12c5 0 7 -4 7 -12h-14zM368 7v-7h26v7h-8v16c2 5 5 9 7 9v-1c0 -4 3 -6 6 -6c4 0 7 3 7 7c0 5 -3 8 -8 8s-9 -3 -12 -11v10h-18v-7h6v-25h-6zM276 7v-7h23v7h-5v25h14v-25h-5v-7h23v7h-6v52l-10 -2c-2 1 -6 2 -9 2c-10 0 -19 -6 -19 -19v-1h-7v-7h7v-25h-6z
M124 7v-7h29v7h-8v18h22v-18h-8v-7h29v7h-8v41h8v7h-29v-7h8v-16h-22v16h8v7h-29v-7h8v-41h-8zM437 9c-3 -2 -6 -3 -8 -3c-6 0 -10 4 -10 10c0 4 2 7 4 9c5 -5 9 -10 14 -16zM583 6c0 4 -3 7 -7 7s-7 -3 -7 -7s3 -7 7 -7s7 3 7 7z" />
    <glyph glyph-name="space" unicode=" " horiz-adv-x="301" 
 />
    <glyph glyph-name="uni00A0" unicode="&#xa0;" horiz-adv-x="301" 
 />
    <glyph glyph-name="emspace" unicode="&#x2003;" horiz-adv-x="1000" 
 />
    <glyph glyph-name="enspace" unicode="&#x2002;" horiz-adv-x="500" 
 />
    <glyph glyph-name="threeperemspace" unicode="&#x2004;" horiz-adv-x="333" 
 />
    <glyph glyph-name="fourperemspace" unicode="&#x2005;" horiz-adv-x="250" 
 />
    <glyph glyph-name="thinspace" unicode="&#x2009;" horiz-adv-x="133" 
 />
    <glyph glyph-name="hairspace" unicode="&#x200a;" horiz-adv-x="75" 
 />
    <glyph glyph-name="space.tab" horiz-adv-x="315" 
 />
    <glyph glyph-name="figurespace" unicode="&#x2007;" 
 />
    <glyph glyph-name="NUL" horiz-adv-x="0" 
 />
    <glyph glyph-name="acute" unicode="&#xb4;" horiz-adv-x="528" 
d="M145 613l109 190l173 -59l-149 -131h-133z" />
    <glyph glyph-name="hungarumlaut" unicode="&#x2dd;" horiz-adv-x="528" 
d="M36 613l104 190l165 -59l-146 -131h-123zM234 613l105 189l165 -59l-147 -130h-123z" />
    <glyph glyph-name="grave" unicode="`" horiz-adv-x="528" 
d="M250 613l-149 131l173 59l109 -190h-133z" />
    <glyph glyph-name="caron.alt" horiz-adv-x="528" 
d="M202 610l11 222h132v-4l-67 -218h-76z" />
    <glyph glyph-name="circumflex" unicode="&#x2c6;" horiz-adv-x="528" 
d="M53 613l132 169h158l132 -169h-126l-86 64l-86 -64h-124z" />
    <glyph glyph-name="caron" unicode="&#x2c7;" horiz-adv-x="528" 
d="M475 782l-132 -169h-158l-132 169h126l86 -64l86 64h124z" />
    <glyph glyph-name="breve" unicode="&#x2d8;" horiz-adv-x="528" 
d="M264 610c-114 0 -193 63 -203 172h114c12 -37 37 -61 89 -61s77 24 89 61h114c-10 -109 -89 -172 -203 -172z" />
    <glyph glyph-name="tilde" unicode="&#x2dc;" horiz-adv-x="528" 
d="M353 613c-34 0 -69 12 -96 22s-49 18 -65 18c-29 0 -40 -16 -54 -49l-92 26c22 100 57 152 129 152c34 0 69 -12 96 -22s49 -18 65 -18c29 0 40 16 54 49l92 -26c-22 -100 -57 -152 -129 -152z" />
    <glyph glyph-name="macron" unicode="&#xaf;" horiz-adv-x="528" 
d="M71 620v116h386v-116h-386z" />
    <glyph glyph-name="dieresis" unicode="&#xa8;" horiz-adv-x="528" 
d="M73 613v146h165v-146h-165zM290 613v146h165v-146h-165z" />
    <glyph glyph-name="dotaccent" unicode="&#x2d9;" horiz-adv-x="528" 
d="M179 613v146h170v-146h-170z" />
    <glyph glyph-name="ring" unicode="&#x2da;" horiz-adv-x="528" 
d="M264 613c-75 0 -135 58 -135 130c0 73 60 130 135 130s135 -57 135 -130c0 -72 -60 -130 -135 -130zM264 672c39 0 71 32 71 71c0 40 -32 72 -71 72s-71 -32 -71 -72c0 -39 32 -71 71 -71z" />
    <glyph glyph-name="commaaccent" unicode="&#x326;" horiz-adv-x="528" 
d="M181 -316l-9 57c59 5 83 29 80 69h-70v137h163v-113c0 -106 -60 -146 -164 -150z" />
    <glyph glyph-name="cedilla" unicode="&#xb8;" horiz-adv-x="528" 
d="M271 -180l-151 64l99 137h125z" />
    <glyph glyph-name="ogonek" unicode="&#x2db;" horiz-adv-x="528" 
d="M388 -89v-82c-20 -2 -40 -4 -58 -4c-98 0 -154 38 -154 91c0 33 18 64 50 94h121c-24 -24 -33 -44 -33 -61c0 -27 24 -40 74 -38z" />
    <glyph glyph-name="uni0384" unicode="&#x384;" horiz-adv-x="528" 
d="M162 613l65 196l168 -58l-113 -138h-120z" />
    <glyph glyph-name="uni0385" unicode="&#x385;" horiz-adv-x="528" 
d="M185 613l42 225l144 -33l-89 -192h-97zM14 613v145h145v-145h-145zM369 613v145h145v-145h-145z" />
    <glyph glyph-name="uni0387" unicode="&#x387;" horiz-adv-x="314" 
d="M58 366v196h198v-196h-198z" />
    <glyph glyph-name="descendercyrillic" horiz-adv-x="528" 
d="M196 10h119c34 -28 53 -57 53 -91c0 -56 -54 -94 -155 -94c-17 0 -37 2 -58 4v82h2c48 -2 72 11 72 38c0 17 -8 37 -33 61z" />
    <glyph glyph-name="acute.cap" horiz-adv-x="528" 
d="M139 779l115 167l178 -57l-151 -110h-142z" />
    <glyph glyph-name="hungarumlaut.cap" horiz-adv-x="528" 
d="M232 779l111 167l166 -57l-147 -110h-130zM28 779l111 167l166 -57l-147 -110h-130z" />
    <glyph glyph-name="grave.cap" horiz-adv-x="528" 
d="M388 779h-142l-151 110l178 57z" />
    <glyph glyph-name="circumflex.cap" horiz-adv-x="528" 
d="M50 779l129 155h170l129 -155h-133l-82 56l-82 -56h-131z" />
    <glyph glyph-name="caron.cap" horiz-adv-x="528" 
d="M478 934l-129 -155h-170l-129 155h133l82 -56l82 56h131z" />
    <glyph glyph-name="breve.cap" horiz-adv-x="528" 
d="M264 777c-114 0 -191 54 -203 157h116c13 -31 38 -48 87 -48s74 17 87 48h116c-12 -103 -89 -157 -203 -157z" />
    <glyph glyph-name="tilde.cap" horiz-adv-x="528" 
d="M358 779c-35 0 -72 12 -105 23c-27 10 -50 18 -65 18c-30 0 -42 -16 -56 -49l-92 26c22 99 59 152 130 152c35 0 72 -12 105 -24c27 -9 50 -17 65 -17c30 0 42 16 56 49l92 -26c-22 -100 -59 -152 -130 -152z" />
    <glyph glyph-name="macron.cap" horiz-adv-x="528" 
d="M59 786v120h410v-120h-410z" />
    <glyph glyph-name="dieresis.cap" horiz-adv-x="528" 
d="M66 779v142h167v-142h-167zM295 779v142h167v-142h-167z" />
    <glyph glyph-name="dotaccent.cap" horiz-adv-x="528" 
d="M178 779v142h172v-142h-172z" />
    <glyph glyph-name="ring.cap" horiz-adv-x="528" 
d="M264 780c-79 0 -143 53 -143 127s64 127 143 127s143 -53 143 -127s-64 -127 -143 -127zM264 841c44 0 73 29 73 66s-29 66 -73 66s-73 -29 -73 -66s29 -66 73 -66z" />
    <glyph glyph-name="uni0384.cap" horiz-adv-x="528" 
d="M176 502l11 226h175l-88 -226h-98z" />
    <glyph glyph-name="commaaccent.rot" horiz-adv-x="528" 
d="M348 879l8 -57c-58 -6 -82 -29 -79 -69h70v-137h-164v112c0 107 60 147 165 151z" />
    <glyph glyph-name="acute.altlc" horiz-adv-x="528" 
d="M142 911l119 164l169 -59l-155 -105h-133z" />
    <glyph glyph-name="acute.altuc" horiz-adv-x="528" 
d="M143 924l123 155l174 -59l-162 -96h-135z" />
    <glyph glyph-name="caron.alt.cap" horiz-adv-x="528" 
d="M202 610l11 222h132v-4l-67 -218h-76z" />
    <glyph glyph-name="cedilla.cap" horiz-adv-x="528" 
d="M271 -180l-151 64l99 137h125z" />
    <glyph glyph-name="commaaccent.cap" horiz-adv-x="528" 
d="M181 -316l-9 57c59 5 83 29 80 69h-70v137h163v-113c0 -106 -60 -146 -164 -150z" />
    <glyph glyph-name="ogonek.cap" horiz-adv-x="528" 
d="M388 -89v-82c-20 -2 -40 -4 -58 -4c-98 0 -154 38 -154 91c0 33 18 64 50 94h121c-24 -24 -33 -44 -33 -61c0 -27 24 -40 74 -38z" />
    <glyph glyph-name="uni0385.cap" horiz-adv-x="528" 
d="M185 613l42 225l144 -33l-89 -192h-97zM14 613v145h145v-145h-145zM369 613v145h145v-145h-145z" />
    </font>
</defs>
</svg>
